  0
SECTION
  2
HEADER
  9
$ACADVER
  1
AC1018
  9
$ACADMAINTVER
 70
    76
  9
$DWGCODEPAGE
  3
ANSI_932
  9
$INSBASE
 10
0.0
 20
0.0
 30
0.0
  9
$EXTMIN
 10
-34776.53890734381
 20
-44079.09354384252
 30
0.0
  9
$EXTMAX
 10
51292.29575041402
 20
47192.80980657575
 30
0.0
  9
$LIMMIN
 10
0.0
 20
0.0
  9
$LIMMAX
 10
420.0
 20
297.0
  9
$ORTHOMODE
 70
     1
  9
$REGENMODE
 70
     1
  9
$FILLMODE
 70
     1
  9
$QTEXTMODE
 70
     0
  9
$MIRRTEXT
 70
     1
  9
$LTSCALE
 40
30.0
  9
$ATTMODE
 70
     1
  9
$TEXTSIZE
 40
2.5
  9
$TRACEWID
 40
1.0
  9
$TEXTSTYLE
  7
STANDARD
  9
$CLAYER
  8
DIM
  9
$CELTYPE
  6
CONTINUOUS
  9
$CECOLOR
 62
   256
  9
$CELTSCALE
 40
1.0
  9
$DISPSILH
 70
     0
  9
$DIMSCALE
 40
200.0
  9
$DIMASZ
 40
2.5
  9
$DIMEXO
 40
0.625
  9
$DIMDLI
 40
3.75
  9
$DIMRND
 40
0.0
  9
$DIMDLE
 40
0.0
  9
$DIMEXE
 40
1.25
  9
$DIMTP
 40
0.0
  9
$DIMTM
 40
0.0
  9
$DIMTXT
 40
2.5
  9
$DIMCEN
 40
2.5
  9
$DIMTSZ
 40
0.0
  9
$DIMTOL
 70
     0
  9
$DIMLIM
 70
     0
  9
$DIMTIH
 70
     0
  9
$DIMTOH
 70
     0
  9
$DIMSE1
 70
     0
  9
$DIMSE2
 70
     0
  9
$DIMTAD
 70
     1
  9
$DIMZIN
 70
     8
  9
$DIMBLK
  1

  9
$DIMASO
 70
     1
  9
$DIMSHO
 70
     1
  9
$DIMPOST
  1

  9
$DIMAPOST
  1

  9
$DIMALT
 70
     0
  9
$DIMALTD
 70
     4
  9
$DIMALTF
 40
0.0394
  9
$DIMLFAC
 40
1.0
  9
$DIMTOFL
 70
     1
  9
$DIMTVP
 40
0.0
  9
$DIMTIX
 70
     0
  9
$DIMSOXD
 70
     0
  9
$DIMSAH
 70
     0
  9
$DIMBLK1
  1

  9
$DIMBLK2
  1

  9
$DIMSTYLE
  2
STANDARD_WS
  9
$DIMCLRD
 70
     0
  9
$DIMCLRE
 70
     0
  9
$DIMCLRT
 70
     0
  9
$DIMTFAC
 40
1.0
  9
$DIMGAP
 40
0.625
  9
$DIMJUST
 70
     0
  9
$DIMSD1
 70
     0
  9
$DIMSD2
 70
     0
  9
$DIMTOLJ
 70
     1
  9
$DIMTZIN
 70
     0
  9
$DIMALTZ
 70
     0
  9
$DIMALTTZ
 70
     0
  9
$DIMUPT
 70
     0
  9
$DIMDEC
 70
     1
  9
$DIMTDEC
 70
     4
  9
$DIMALTU
 70
     8
  9
$DIMALTTD
 70
     4
  9
$DIMTXSTY
  7
STANDARD
  9
$DIMAUNIT
 70
     0
  9
$DIMADEC
 70
     0
  9
$DIMALTRND
 40
0.0
  9
$DIMAZIN
 70
     0
  9
$DIMDSEP
 70
    46
  9
$DIMATFIT
 70
     3
  9
$DIMFRAC
 70
     0
  9
$DIMLDRBLK
  1

  9
$DIMLUNIT
 70
     2
  9
$DIMLWD
 70
    -2
  9
$DIMLWE
 70
    -2
  9
$DIMTMOVE
 70
     0
  9
$LUNITS
 70
     2
  9
$LUPREC
 70
     4
  9
$SKETCHINC
 40
1.0
  9
$FILLETRAD
 40
500.0
  9
$AUNITS
 70
     0
  9
$AUPREC
 70
     0
  9
$MENU
  1
acad
  9
$ELEVATION
 40
0.0
  9
$PELEVATION
 40
0.0
  9
$THICKNESS
 40
0.0
  9
$LIMCHECK
 70
     0
  9
$CHAMFERA
 40
0.0
  9
$CHAMFERB
 40
0.0
  9
$CHAMFERC
 40
20.0
  9
$CHAMFERD
 40
0.0
  9
$SKPOLY
 70
     0
  9
$TDCREATE
 40
2451403.401635648
  9
$TDUCREATE
 40
2451403.026635648
  9
$TDUPDATE
 40
2458095.630874584
  9
$TDUUPDATE
 40
2458095.255874583
  9
$TDINDWG
 40
6.0433317824
  9
$TDUSRTIMER
 40
6.0433317824
  9
$USRTIMER
 70
     1
  9
$ANGBASE
 50
0.0
  9
$ANGDIR
 70
     0
  9
$PDMODE
 70
     3
  9
$PDSIZE
 40
0.0
  9
$PLINEWID
 40
0.0
  9
$SPLFRAME
 70
     0
  9
$SPLINETYPE
 70
     6
  9
$SPLINESEGS
 70
     8
  9
$HANDSEED
  5
4879
  9
$SURFTAB1
 70
     6
  9
$SURFTAB2
 70
     6
  9
$SURFTYPE
 70
     6
  9
$SURFU
 70
     6
  9
$SURFV
 70
     6
  9
$UCSBASE
  2

  9
$UCSNAME
  2

  9
$UCSORG
 10
0.0
 20
0.0
 30
0.0
  9
$UCSXDIR
 10
1.0
 20
0.0
 30
0.0
  9
$UCSYDIR
 10
0.0
 20
1.0
 30
0.0
  9
$UCSORTHOREF
  2

  9
$UCSORTHOVIEW
 70
     0
  9
$UCSORGTOP
 10
0.0
 20
0.0
 30
0.0
  9
$UCSORGBOTTOM
 10
0.0
 20
0.0
 30
0.0
  9
$UCSORGLEFT
 10
0.0
 20
0.0
 30
0.0
  9
$UCSORGRIGHT
 10
0.0
 20
0.0
 30
0.0
  9
$UCSORGFRONT
 10
0.0
 20
0.0
 30
0.0
  9
$UCSORGBACK
 10
0.0
 20
0.0
 30
0.0
  9
$PUCSBASE
  2

  9
$PUCSNAME
  2

  9
$PUCSORG
 10
0.0
 20
0.0
 30
0.0
  9
$PUCSXDIR
 10
1.0
 20
0.0
 30
0.0
  9
$PUCSYDIR
 10
0.0
 20
1.0
 30
0.0
  9
$PUCSORTHOREF
  2

  9
$PUCSORTHOVIEW
 70
     0
  9
$PUCSORGTOP
 10
0.0
 20
0.0
 30
0.0
  9
$PUCSORGBOTTOM
 10
0.0
 20
0.0
 30
0.0
  9
$PUCSORGLEFT
 10
0.0
 20
0.0
 30
0.0
  9
$PUCSORGRIGHT
 10
0.0
 20
0.0
 30
0.0
  9
$PUCSORGFRONT
 10
0.0
 20
0.0
 30
0.0
  9
$PUCSORGBACK
 10
0.0
 20
0.0
 30
0.0
  9
$USERI1
 70
     0
  9
$USERI2
 70
     0
  9
$USERI3
 70
     0
  9
$USERI4
 70
     0
  9
$USERI5
 70
     0
  9
$USERR1
 40
0.0
  9
$USERR2
 40
0.0
  9
$USERR3
 40
0.0
  9
$USERR4
 40
0.0
  9
$USERR5
 40
0.0
  9
$WORLDVIEW
 70
     1
  9
$SHADEDGE
 70
     3
  9
$SHADEDIF
 70
    70
  9
$TILEMODE
 70
     0
  9
$MAXACTVP
 70
    48
  9
$PINSBASE
 10
0.0
 20
0.0
 30
0.0
  9
$PLIMCHECK
 70
     0
  9
$PEXTMIN
 10
0.9670364792377768
 20
2.471739899017848
 30
-0.0000000000000058
  9
$PEXTMAX
 10
593.0380184756886
 20
418.0356646354209
 30
0.0000000000000104
  9
$PLIMMIN
 10
-11.31415179382311
 20
-9.840022480021495
  9
$PLIMMAX
 10
611.1606036154819
 20
430.3474249646778
  9
$UNITMODE
 70
     0
  9
$VISRETAIN
 70
     1
  9
$PLINEGEN
 70
     0
  9
$PSLTSCALE
 70
     1
  9
$TREEDEPTH
 70
  3020
  9
$CMLSTYLE
  2
STANDARD
  9
$CMLJUST
 70
     0
  9
$CMLSCALE
 40
20.0
  9
$PROXYGRAPHICS
 70
     1
  9
$MEASUREMENT
 70
     1
  9
$CELWEIGHT
370
    -1
  9
$ENDCAPS
280
     0
  9
$JOINSTYLE
280
     0
  9
$LWDISPLAY
290
     0
  9
$INSUNITS
 70
     0
  9
$HYPERLINKBASE
  1

  9
$STYLESHEET
  1

  9
$XEDIT
290
     1
  9
$CEPSNTYPE
380
     0
  9
$PSTYLEMODE
290
     1
  9
$FINGERPRINTGUID
  2
{322AB314-5A1E-4C63-82FE-9083876F595A}
  9
$VERSIONGUID
  2
{BB263DAC-F6FF-496F-B588-61A4ABADC1C6}
  9
$EXTNAMES
290
     1
  9
$PSVPSCALE
 40
0.0
  9
$OLESTARTUP
290
     0
  9
$SORTENTS
280
    96
  9
$INDEXCTL
280
     0
  9
$HIDETEXT
280
     0
  9
$XCLIPFRAME
290
     0
  9
$HALOGAP
280
     0
  9
$OBSCOLOR
 70
   257
  9
$OBSLTYPE
280
     0
  9
$INTERSECTIONDISPLAY
280
     0
  9
$INTERSECTIONCOLOR
 70
   257
  9
$DIMASSOC
280
     1
  9
$PROJECTNAME
  1

  0
ENDSEC
  0
SECTION
  2
CLASSES
  0
CLASS
  1
DICTIONARYVAR
  2
AcDbDictionaryVar
  3
ObjectDBX Classes
 90
        0
 91
        3
280
     0
281
     0
  0
CLASS
  1
ACDBDICTIONARYWDFLT
  2
AcDbDictionaryWithDefault
  3
ObjectDBX Classes
 90
        0
 91
        1
280
     0
281
     0
  0
CLASS
  1
TABLESTYLE
  2
AcDbTableStyle
  3
ObjectDBX Classes
 90
     2047
 91
        1
280
     0
281
     0
  0
ENDSEC
  0
SECTION
  2
TABLES
  0
TABLE
  2
VPORT
  5
8
330
0
100
AcDbSymbolTable
 70
     1
  0
VPORT
  5
4820
330
8
100
AcDbSymbolTableRecord
100
AcDbViewportTableRecord
  2
*Active
 70
     0
 10
0.0
 20
0.0
 11
1.0
 21
1.0
 12
32351.68344065176
 22
-8402.207746755317
 13
0.0
 23
0.0
 14
10.0
 24
10.0
 15
10.0
 25
10.0
 16
0.0
 26
0.0
 36
1.0
 17
0.0
 27
0.0
 37
0.0
 40
27665.35107813319
 41
1.44090909090909
 42
50.0
 43
0.0
 44
0.0
 50
0.0
 51
0.0
 71
     0
 72
   100
 73
     1
 74
     1
 75
     0
 76
     0
 77
     0
 78
     0
281
     0
 65
     1
110
0.0
120
0.0
130
0.0
111
1.0
121
0.0
131
0.0
112
0.0
122
1.0
132
0.0
 79
     0
146
0.0
  0
ENDTAB
  0
TABLE
  2
LTYPE
  5
5
330
0
100
AcDbSymbolTable
 70
     5
  0
LTYPE
  5
12
330
5
100
AcDbSymbolTableRecord
100
AcDbLinetypeTableRecord
  2
BYBLOCK
 70
     0
  3

 72
    65
 73
     0
 40
0.0
  0
LTYPE
  5
13
330
5
100
AcDbSymbolTableRecord
100
AcDbLinetypeTableRecord
  2
BYLAYER
 70
     0
  3

 72
    65
 73
     0
 40
0.0
  0
LTYPE
  5
14
330
5
100
AcDbSymbolTableRecord
100
AcDbLinetypeTableRecord
  2
CONTINUOUS
 70
     0
  3
Solid line
 72
    65
 73
     0
 40
0.0
  0
LTYPE
  5
190
330
5
100
AcDbSymbolTableRecord
100
AcDbLinetypeTableRecord
  2
HIDDEN
 70
     0
  3
Hidden __ __ __ __ __ __ __ __ __ __ __ __ __ _
 72
    65
 73
     2
 40
9.524999999999998
 49
6.349999999999999
 74
     0
 49
-3.174999999999999
 74
     0
  0
LTYPE
  5
191
330
5
100
AcDbSymbolTableRecord
100
AcDbLinetypeTableRecord
  2
CENTER
 70
     0
  3
Center ____ _ ____ _ ____ _ ____ _ ____ _ ____
 72
    65
 73
     4
 40
50.8
 49
31.75
 74
     0
 49
-6.349999999999999
 74
     0
 49
6.349999999999999
 74
     0
 49
-6.349999999999999
 74
     0
  0
LTYPE
  5
192
330
5
100
AcDbSymbolTableRecord
100
AcDbLinetypeTableRecord
  2
CENTER2
 70
     0
  3
Center (.5x) ___ _ ___ _ ___ _ ___ _ ___ _ ___
 72
    65
 73
     4
 40
28.575
 49
19.05
 74
     0
 49
-3.174999999999999
 74
     0
 49
3.174999999999999
 74
     0
 49
-3.174999999999999
 74
     0
  0
LTYPE
  5
1C16
330
5
100
AcDbSymbolTableRecord
100
AcDbLinetypeTableRecord
  2
DASHED
 70
     0
  3
Dashed __ __ __ __ __ __ __ __ __ __ __ __ __ _
 72
    65
 73
     2
 40
19.05
 49
12.7
 74
     0
 49
-6.349999999999999
 74
     0
  0
ENDTAB
  0
TABLE
  2
LAYER
  5
2
102
{ACAD_XDICTIONARY
360
47F7
102
}
330
0
100
AcDbSymbolTable
 70
    12
  0
LAYER
  5
E
330
2
100
AcDbSymbolTableRecord
100
AcDbLayerTableRecord
  2
0
 70
     0
 62
     7
  6
CONTINUOUS
370
    -3
390
4301
  0
LAYER
  5
37
330
2
100
AcDbSymbolTableRecord
100
AcDbLayerTableRecord
  2
TITLE_BLOCK
 70
     0
 62
     7
  6
CONTINUOUS
370
    -3
390
4301
  0
LAYER
  5
38
330
2
100
AcDbSymbolTableRecord
100
AcDbLayerTableRecord
  2
DEFPOINTS
 70
     0
 62
     7
  6
CONTINUOUS
290
     0
370
    -3
390
4301
  0
LAYER
  5
39
330
2
100
AcDbSymbolTableRecord
100
AcDbLayerTableRecord
  2
OBJECT
 70
     0
 62
     7
  6
CONTINUOUS
370
    -3
390
4301
  0
LAYER
  5
E2
330
2
100
AcDbSymbolTableRecord
100
AcDbLayerTableRecord
  2
VIEWPORT
 70
     0
 62
     7
  6
CONTINUOUS
370
    -3
390
4301
  0
LAYER
  5
1AD
330
2
100
AcDbSymbolTableRecord
100
AcDbLayerTableRecord
  2
ZUWAKU
 70
     0
 62
     7
  6
CONTINUOUS
370
    -3
390
4301
  0
LAYER
  5
1AE
330
2
100
AcDbSymbolTableRecord
100
AcDbLayerTableRecord
  2
CRANE
 70
     0
 62
     7
  6
CONTINUOUS
370
    -3
390
4301
  0
LAYER
  5
273
330
2
100
AcDbSymbolTableRecord
100
AcDbLayerTableRecord
  2
BOOM
 70
     0
 62
     7
  6
CONTINUOUS
370
    -3
390
4301
  0
LAYER
  5
F47
330
2
100
AcDbSymbolTableRecord
100
AcDbLayerTableRecord
  2
WIRE
 70
     0
 62
     7
  6
CONTINUOUS
370
    -3
390
4301
  0
LAYER
  5
177B
330
2
100
AcDbSymbolTableRecord
100
AcDbLayerTableRecord
  2
FS
 70
     0
 62
    -7
  6
CONTINUOUS
370
    -3
390
4301
  0
LAYER
  5
1E45
330
2
100
AcDbSymbolTableRecord
100
AcDbLayerTableRecord
  2
OLD
 70
     0
 62
     7
  6
CONTINUOUS
370
    -3
390
4301
  0
LAYER
  5
21DF
330
2
100
AcDbSymbolTableRecord
100
AcDbLayerTableRecord
  2
DIM
 70
     0
 62
     7
  6
CONTINUOUS
370
    -3
390
4301
  0
ENDTAB
  0
TABLE
  2
STYLE
  5
3
330
0
100
AcDbSymbolTable
 70
     4
  0
STYLE
  5
F
330
3
100
AcDbSymbolTableRecord
100
AcDbTextStyleTableRecord
  2
STANDARD
 70
     0
 40
0.0
 41
1.0
 50
0.0
 71
     0
 42
2.5
  3
txt.shx
  4
extfont.shx
  0
STYLE
  5
3A
330
3
100
AcDbSymbolTableRecord
100
AcDbTextStyleTableRecord
  2
ADESK1
 70
     0
 40
0.0
 41
1.0
 50
0.0
 71
     0
 42
5.0
  3
romans
  4
bigfont
  0
STYLE
  5
18F
330
3
100
AcDbSymbolTableRecord
100
AcDbTextStyleTableRecord
  2

 70
     1
 40
0.0
 41
1.0
 50
0.0
 71
     0
 42
2.5
  3
ltypeshp.shx
  4

  0
ENDTAB
  0
TABLE
  2
VIEW
  5
6
330
0
100
AcDbSymbolTable
 70
     0
  0
ENDTAB
  0
TABLE
  2
UCS
  5
7
330
0
100
AcDbSymbolTable
 70
     0
  0
ENDTAB
  0
TABLE
  2
APPID
  5
9
330
0
100
AcDbSymbolTable
 70
     5
  0
APPID
  5
10
330
9
100
AcDbSymbolTableRecord
100
AcDbRegAppTableRecord
  2
ACAD
 70
     0
  0
APPID
  5
24
330
9
100
AcDbSymbolTableRecord
100
AcDbRegAppTableRecord
  2
CONTENTTABDATA
 70
     0
  0
APPID
  5
25
330
9
100
AcDbSymbolTableRecord
100
AcDbRegAppTableRecord
  2
CONTENTCURRENTTAB
 70
     0
  0
APPID
  5
283
330
9
100
AcDbSymbolTableRecord
100
AcDbRegAppTableRecord
  2
DRAWINGVARIABLESXDATA
 70
     0
  0
APPID
  5
2323
330
9
100
AcDbSymbolTableRecord
100
AcDbRegAppTableRecord
  2
ACE-LT__COPYRIGHT_TRIALSOFT-JPN
 70
     0
  0
ENDTAB
  0
TABLE
  2
DIMSTYLE
  5
A
330
0
100
AcDbSymbolTable
 70
     4
100
AcDbDimStyleTable
 71
     1
340
E7
  0
DIMSTYLE
105
1D
330
A
100
AcDbSymbolTableRecord
100
AcDbDimStyleTableRecord
  2
STANDARD
 70
     0
340
F
  0
DIMSTYLE
105
3B
330
A
100
AcDbSymbolTableRecord
100
AcDbDimStyleTableRecord
  2
JIS
 70
     0
 41
2.5
 42
1.0
 43
7.0
 44
1.0
 73
     0
 74
     0
 77
     1
 78
     8
140
2.5
141
0.0
143
0.0394
147
0.0
172
     1
174
     1
175
     1
340
F
  0
DIMSTYLE
105
E7
102
{ACAD_REACTORS
330
4200
330
4250
330
427C
330
4350
330
435C
330
437C
330
434F
330
434E
330
4329
330
446C
330
4479
330
474C
102
}
330
A
100
AcDbSymbolTableRecord
100
AcDbDimStyleTableRecord
  2
STANDARD_WS
 70
     0
 41
2.5
 42
0.625
 43
3.75
 44
1.25
 73
     0
 74
     0
 77
     1
 78
     8
140
2.5
141
2.5
143
0.0394
147
0.625
171
     4
172
     1
273
     8
274
     4
340
F
  0
ENDTAB
  0
TABLE
  2
BLOCK_RECORD
  5
1
330
0
100
AcDbSymbolTable
 70
    18
  0
BLOCK_RECORD
  5
18
102
{ACAD_XDICTIONARY
360
46E4
102
}
330
1
100
AcDbSymbolTableRecord
100
AcDbBlockTableRecord
  2
*MODEL_SPACE
340
4304
  0
BLOCK_RECORD
  5
15
102
{ACAD_XDICTIONARY
360
46E2
102
}
330
1
100
AcDbSymbolTableRecord
100
AcDbBlockTableRecord
  2
*PAPER_SPACE
340
4305
  0
BLOCK_RECORD
  5
3C
330
1
100
AcDbSymbolTableRecord
100
AcDbBlockTableRecord
  2
TITLE_BLOCK
340
0
  0
BLOCK_RECORD
  5
27C8
330
1
100
AcDbSymbolTableRecord
100
AcDbBlockTableRecord
  2
A$C7D152BF5
340
0
  0
BLOCK_RECORD
  5
2CCB
330
1
100
AcDbSymbolTableRecord
100
AcDbBlockTableRecord
  2
A$C4BF50593
340
0
  0
BLOCK_RECORD
  5
3640
330
1
100
AcDbSymbolTableRecord
100
AcDbBlockTableRecord
  2
A$C28EC78B4
340
0
102
{BLKREFS
331
3646
331
390E
331
4391
331
43B1
102
}
  0
BLOCK_RECORD
  5
3647
330
1
100
AcDbSymbolTableRecord
100
AcDbBlockTableRecord
  2
A$C56EF0BF5
340
0
  0
BLOCK_RECORD
  5
41F4
330
1
100
AcDbSymbolTableRecord
100
AcDbBlockTableRecord
  2
*D5
340
0
  0
BLOCK_RECORD
  5
4244
330
1
100
AcDbSymbolTableRecord
100
AcDbBlockTableRecord
  2
*D6
340
0
  0
BLOCK_RECORD
  5
4270
330
1
100
AcDbSymbolTableRecord
100
AcDbBlockTableRecord
  2
*D7
340
0
  0
BLOCK_RECORD
  5
43BD
330
1
100
AcDbSymbolTableRecord
100
AcDbBlockTableRecord
  2
*D8
340
0
  0
BLOCK_RECORD
  5
43C9
330
1
100
AcDbSymbolTableRecord
100
AcDbBlockTableRecord
  2
*D9
340
0
  0
BLOCK_RECORD
  5
43D6
330
1
100
AcDbSymbolTableRecord
100
AcDbBlockTableRecord
  2
*D10
340
0
  0
BLOCK_RECORD
  5
43E2
330
1
100
AcDbSymbolTableRecord
100
AcDbBlockTableRecord
  2
*D11
340
0
  0
BLOCK_RECORD
  5
43EE
330
1
100
AcDbSymbolTableRecord
100
AcDbBlockTableRecord
  2
*D12
340
0
  0
BLOCK_RECORD
  5
43FA
330
1
100
AcDbSymbolTableRecord
100
AcDbBlockTableRecord
  2
*D13
340
0
  0
BLOCK_RECORD
  5
446D
330
1
100
AcDbSymbolTableRecord
100
AcDbBlockTableRecord
  2
*D14
340
0
  0
BLOCK_RECORD
  5
447A
330
1
100
AcDbSymbolTableRecord
100
AcDbBlockTableRecord
  2
*D15
340
0
  0
BLOCK_RECORD
  5
474D
330
1
100
AcDbSymbolTableRecord
100
AcDbBlockTableRecord
  2
*D16
340
0
  0
ENDTAB
  0
ENDSEC
  0
SECTION
  2
BLOCKS
  0
BLOCK
  5
19
330
18
100
AcDbEntity
  8
0
100
AcDbBlockBegin
  2
*MODEL_SPACE
 70
     0
 10
0.0
 20
0.0
 30
0.0
  3
*MODEL_SPACE
  1

  0
ENDBLK
  5
1A
330
18
100
AcDbEntity
  8
0
100
AcDbBlockEnd
  0
BLOCK
  5
16
330
15
100
AcDbEntity
 67
     1
  8
0
100
AcDbBlockBegin
  2
*PAPER_SPACE
 70
     2
 10
0.0
 20
0.0
 30
0.0
  3
*PAPER_SPACE
  1

  0
ENDBLK
  5
17
330
15
100
AcDbEntity
 67
     1
  8
0
100
AcDbBlockEnd
  0
BLOCK
  5
D9
330
3C
100
AcDbEntity
  8
0
100
AcDbBlockBegin
  2
TITLE_BLOCK
 70
     2
 10
0.0
 20
0.0
 30
0.0
  3
TITLE_BLOCK
  1

  0
LINE
  5
3D
330
3C
100
AcDbEntity
  8
0
100
AcDbLine
 10
0.0
 20
0.0
 30
0.0
 11
0.0
 21
10.0
 31
0.0
  0
LINE
  5
3E
330
3C
100
AcDbEntity
  8
0
100
AcDbLine
 10
0.0
 20
420.0
 30
0.0
 11
25.0
 21
420.0
 31
0.0
  0
LINE
  5
3F
330
3C
100
AcDbEntity
  8
0
100
AcDbLine
 10
594.0
 20
420.0
 30
0.0
 11
594.0
 21
410.0
 31
0.0
  0
LINE
  5
40
330
3C
100
AcDbEntity
  8
0
100
AcDbLine
 10
594.0
 20
0.0
 30
0.0
 11
584.0
 21
0.0
 31
0.0
  0
LINE
  5
41
330
3C
100
AcDbEntity
  8
0
100
AcDbLine
 10
25.0
 20
10.0
 30
0.0
 11
25.0
 21
410.0
 31
0.0
  0
LINE
  5
42
330
3C
100
AcDbEntity
  8
0
100
AcDbLine
 10
584.0
 20
10.0
 30
0.0
 11
25.0
 21
10.0
 31
0.0
  0
LINE
  5
43
330
3C
100
AcDbEntity
  8
0
100
AcDbLine
 10
584.0
 20
410.0
 30
0.0
 11
584.0
 21
10.0
 31
0.0
  0
LINE
  5
44
330
3C
100
AcDbEntity
  8
0
100
AcDbLine
 10
25.0
 20
410.0
 30
0.0
 11
584.0
 21
410.0
 31
0.0
  0
LINE
  5
45
330
3C
100
AcDbEntity
  8
0
100
AcDbLine
 10
25.0
 20
0.0
 30
0.0
 11
0.0
 21
0.0
 31
0.0
  0
LINE
  5
46
330
3C
100
AcDbEntity
  8
0
100
AcDbLine
 10
0.0
 20
410.0
 30
0.0
 11
0.0
 21
420.0
 31
0.0
  0
LINE
  5
47
330
3C
100
AcDbEntity
  8
0
100
AcDbLine
 10
594.0
 20
10.0
 30
0.0
 11
594.0
 21
0.0
 31
0.0
  0
LINE
  5
48
330
3C
100
AcDbEntity
  8
0
100
AcDbLine
 10
584.0
 20
420.0
 30
0.0
 11
594.0
 21
420.0
 31
0.0
  0
ATTDEF
  5
49
330
3C
100
AcDbEntity
  8
0
 62
     0
100
AcDbText
 10
19.0
 20
10.0
 30
0.0
 40
3.0
  1

 50
90.0
  7
ADESK1
100
AcDbAttributeDefinition
  3

  2
USER
 70
     8
  0
ATTDEF
  5
4A
330
3C
100
AcDbEntity
  8
0
 62
     0
100
AcDbText
 10
19.0
 20
70.0
 30
0.0
 40
3.0
  1

 50
90.0
  7
ADESK1
100
AcDbAttributeDefinition
  3

  2
REVDATE
 70
     8
  0
ATTDEF
  5
4B
330
3C
100
AcDbEntity
  8
0
 62
     0
100
AcDbText
 10
19.0
 20
118.0
 30
0.0
 40
3.0
  1

 50
90.0
  7
ADESK1
100
AcDbAttributeDefinition
  3

  2
FNAME
 70
     8
  0
LINE
  5
4C
330
3C
100
AcDbEntity
  8
OBJECT
100
AcDbLine
 10
130.0
 20
16.0
 30
0.0
 11
25.0
 21
16.0
 31
0.0
  0
LINE
  5
4D
330
3C
100
AcDbEntity
  8
OBJECT
100
AcDbLine
 10
130.0
 20
22.0
 30
0.0
 11
25.0
 21
22.0
 31
0.0
  0
LINE
  5
4E
330
3C
100
AcDbEntity
  8
OBJECT
100
AcDbLine
 10
130.0
 20
28.0
 30
0.0
 11
25.0
 21
28.0
 31
0.0
  0
LINE
  5
4F
330
3C
100
AcDbEntity
  8
OBJECT
100
AcDbLine
 10
130.0
 20
34.0
 30
0.0
 11
25.0
 21
34.0
 31
0.0
  0
LINE
  5
50
330
3C
100
AcDbEntity
  8
OBJECT
100
AcDbLine
 10
130.0
 20
40.0
 30
0.0
 11
25.0
 21
40.0
 31
0.0
  0
LINE
  5
51
330
3C
100
AcDbEntity
  8
OBJECT
100
AcDbLine
 10
28.0
 20
11.535898
 30
0.0
 11
30.0
 21
15.0
 31
0.0
  0
LINE
  5
52
330
3C
100
AcDbEntity
  8
OBJECT
100
AcDbLine
 10
32.0
 20
11.535898
 30
0.0
 11
30.0
 21
15.0
 31
0.0
  0
LINE
  5
53
330
3C
100
AcDbEntity
  8
OBJECT
100
AcDbLine
 10
35.0
 20
10.0
 30
0.0
 11
35.0
 21
40.0
 31
0.0
  0
LINE
  5
54
330
3C
100
AcDbEntity
  8
OBJECT
100
AcDbLine
 10
50.0
 20
10.0
 30
0.0
 11
50.0
 21
40.0
 31
0.0
  0
LINE
  5
55
330
3C
100
AcDbEntity
  8
OBJECT
100
AcDbLine
 10
80.0
 20
10.0
 30
0.0
 11
80.0
 21
40.0
 31
0.0
  0
LINE
  5
56
330
3C
100
AcDbEntity
  8
OBJECT
100
AcDbLine
 10
28.0
 20
11.535898
 30
0.0
 11
32.0
 21
11.535898
 31
0.0
  0
LINE
  5
57
330
3C
100
AcDbEntity
  8
OBJECT
100
AcDbLine
 10
39.5
 20
13.0
 30
0.0
 11
40.49999999999999
 21
13.0
 31
0.0
  0
LINE
  5
58
330
3C
100
AcDbEntity
  8
OBJECT
100
AcDbLine
 10
44.5
 20
13.0
 30
0.0
 11
45.49999999999999
 21
13.0
 31
0.0
  0
LINE
  5
59
330
3C
100
AcDbEntity
  8
OBJECT
100
AcDbLine
 10
32.0
 20
17.535898
 30
0.0
 11
30.0
 21
21.0
 31
0.0
  0
LINE
  5
5A
330
3C
100
AcDbEntity
  8
OBJECT
100
AcDbLine
 10
28.0
 20
17.535898
 30
0.0
 11
32.0
 21
17.535898
 31
0.0
  0
LINE
  5
5B
330
3C
100
AcDbEntity
  8
OBJECT
100
AcDbLine
 10
28.0
 20
17.535898
 30
0.0
 11
30.0
 21
21.0
 31
0.0
  0
LINE
  5
5C
330
3C
100
AcDbEntity
  8
OBJECT
100
AcDbLine
 10
32.0
 20
23.535898
 30
0.0
 11
30.0
 21
27.0
 31
0.0
  0
LINE
  5
5D
330
3C
100
AcDbEntity
  8
OBJECT
100
AcDbLine
 10
28.0
 20
23.535898
 30
0.0
 11
32.0
 21
23.535898
 31
0.0
  0
LINE
  5
5E
330
3C
100
AcDbEntity
  8
OBJECT
100
AcDbLine
 10
28.0
 20
23.535898
 30
0.0
 11
30.0
 21
27.0
 31
0.0
  0
LINE
  5
5F
330
3C
100
AcDbEntity
  8
OBJECT
100
AcDbLine
 10
28.0
 20
35.535898
 30
0.0
 11
30.0
 21
39.0
 31
0.0
  0
LINE
  5
60
330
3C
100
AcDbEntity
  8
OBJECT
100
AcDbLine
 10
32.0
 20
35.535898
 30
0.0
 11
30.0
 21
39.0
 31
0.0
  0
LINE
  5
61
330
3C
100
AcDbEntity
  8
OBJECT
100
AcDbLine
 10
28.0
 20
35.535898
 30
0.0
 11
32.0
 21
35.535898
 31
0.0
  0
LINE
  5
62
330
3C
100
AcDbEntity
  8
OBJECT
100
AcDbLine
 10
32.0
 20
29.53589800000001
 30
0.0
 11
30.0
 21
33.0
 31
0.0
  0
LINE
  5
63
330
3C
100
AcDbEntity
  8
OBJECT
100
AcDbLine
 10
28.0
 20
29.53589800000001
 30
0.0
 11
32.0
 21
29.53589800000001
 31
0.0
  0
LINE
  5
64
330
3C
100
AcDbEntity
  8
OBJECT
100
AcDbLine
 10
28.0
 20
29.53589800000001
 30
0.0
 11
30.0
 21
33.0
 31
0.0
  0
LINE
  5
65
330
3C
100
AcDbEntity
  8
OBJECT
100
AcDbLine
 10
39.5
 20
19.0
 30
0.0
 11
40.49999999999999
 21
19.0
 31
0.0
  0
LINE
  5
66
330
3C
100
AcDbEntity
  8
OBJECT
100
AcDbLine
 10
44.5
 20
19.0
 30
0.0
 11
45.49999999999999
 21
19.0
 31
0.0
  0
LINE
  5
67
330
3C
100
AcDbEntity
  8
OBJECT
100
AcDbLine
 10
39.5
 20
25.0
 30
0.0
 11
40.49999999999999
 21
25.0
 31
0.0
  0
LINE
  5
68
330
3C
100
AcDbEntity
  8
OBJECT
100
AcDbLine
 10
44.5
 20
25.0
 30
0.0
 11
45.49999999999999
 21
25.0
 31
0.0
  0
LINE
  5
69
330
3C
100
AcDbEntity
  8
OBJECT
100
AcDbLine
 10
39.5
 20
31.0
 30
0.0
 11
40.49999999999999
 21
31.0
 31
0.0
  0
LINE
  5
6A
330
3C
100
AcDbEntity
  8
OBJECT
100
AcDbLine
 10
39.5
 20
37.0
 30
0.0
 11
40.49999999999999
 21
37.0
 31
0.0
  0
LINE
  5
6B
330
3C
100
AcDbEntity
  8
OBJECT
100
AcDbLine
 10
44.5
 20
31.0
 30
0.0
 11
45.49999999999999
 21
31.0
 31
0.0
  0
LINE
  5
6C
330
3C
100
AcDbEntity
  8
OBJECT
100
AcDbLine
 10
44.5
 20
37.0
 30
0.0
 11
45.49999999999999
 21
37.0
 31
0.0
  0
LINE
  5
6D
330
3C
100
AcDbEntity
  8
OBJECT
100
AcDbLine
 10
120.0
 20
10.0
 30
0.0
 11
120.0
 21
40.0
 31
0.0
  0
LINE
  5
6E
330
3C
100
AcDbEntity
  8
OBJECT
100
AcDbLine
 10
130.0
 20
40.0
 30
0.0
 11
130.0
 21
10.0
 31
0.0
  0
LINE
  5
6F
330
3C
100
AcDbEntity
  8
0
100
AcDbLine
 10
304.5
 20
10.0
 30
0.0
 11
304.5
 21
0.0
 31
0.0
  0
LINE
  5
70
330
3C
100
AcDbEntity
  8
0
100
AcDbLine
 10
304.5
 20
410.0
 30
0.0
 11
304.5
 21
420.0
 31
0.0
  0
LINE
  5
71
330
3C
100
AcDbEntity
  8
0
100
AcDbLine
 10
584.0
 20
210.0
 30
0.0
 11
594.0
 21
210.0
 31
0.0
  0
LINE
  5
72
330
3C
100
AcDbEntity
  8
0
100
AcDbLine
 10
25.0
 20
210.0
 30
0.0
 11
0.0
 21
210.0
 31
0.0
  0
TEXT
  5
73
330
3C
100
AcDbEntity
  8
0
100
AcDbText
 10
1.0
 20
1.0
 30
0.0
 40
3.0
  1
この図枠はサンプルです。社内の規格やプロッタの出力範囲に合わせて適当に変更してご利用ください。
  7
ADESK1
100
AcDbText
  0
LINE
  5
74
330
3C
100
AcDbEntity
  8
0
100
AcDbLine
 10
25.0
 20
360.0
 30
0.0
 11
20.0
 21
360.0
 31
0.0
  0
LINE
  5
75
330
3C
100
AcDbEntity
  8
0
100
AcDbLine
 10
25.0
 20
310.0
 30
0.0
 11
20.0
 21
310.0
 31
0.0
  0
LINE
  5
76
330
3C
100
AcDbEntity
  8
0
100
AcDbLine
 10
25.0
 20
260.0
 30
0.0
 11
20.0
 21
260.0
 31
0.0
  0
LINE
  5
77
330
3C
100
AcDbEntity
  8
0
100
AcDbLine
 10
25.0
 20
210.0
 30
0.0
 11
20.0
 21
210.0
 31
0.0
  0
LINE
  5
78
330
3C
100
AcDbEntity
  8
0
100
AcDbLine
 10
25.0
 20
160.0
 30
0.0
 11
20.0
 21
160.0
 31
0.0
  0
LINE
  5
79
330
3C
100
AcDbEntity
  8
0
100
AcDbLine
 10
25.0
 20
110.0
 30
0.0
 11
20.0
 21
110.0
 31
0.0
  0
LINE
  5
7A
330
3C
100
AcDbEntity
  8
0
100
AcDbLine
 10
25.0
 20
60.0
 30
0.0
 11
20.0
 21
60.0
 31
0.0
  0
LINE
  5
7B
330
3C
100
AcDbEntity
  8
0
100
AcDbLine
 10
584.0
 20
60.0
 30
0.0
 11
589.0
 21
60.0
 31
0.0
  0
LINE
  5
7C
330
3C
100
AcDbEntity
  8
0
100
AcDbLine
 10
584.0
 20
110.0
 30
0.0
 11
589.0
 21
110.0
 31
0.0
  0
LINE
  5
7D
330
3C
100
AcDbEntity
  8
0
100
AcDbLine
 10
584.0
 20
160.0
 30
0.0
 11
589.0
 21
160.0
 31
0.0
  0
LINE
  5
7E
330
3C
100
AcDbEntity
  8
0
100
AcDbLine
 10
584.0
 20
210.0
 30
0.0
 11
589.0
 21
210.0
 31
0.0
  0
LINE
  5
7F
330
3C
100
AcDbEntity
  8
0
100
AcDbLine
 10
584.0
 20
260.0
 30
0.0
 11
589.0
 21
260.0
 31
0.0
  0
LINE
  5
80
330
3C
100
AcDbEntity
  8
0
100
AcDbLine
 10
584.0
 20
310.0
 30
0.0
 11
589.0
 21
310.0
 31
0.0
  0
LINE
  5
81
330
3C
100
AcDbEntity
  8
0
100
AcDbLine
 10
584.0
 20
360.0
 30
0.0
 11
589.0
 21
360.0
 31
0.0
  0
LINE
  5
82
330
3C
100
AcDbEntity
  8
0
100
AcDbLine
 10
80.9000000000001
 20
10.0
 30
0.0
 11
80.9000000000001
 21
5.0
 31
0.0
  0
LINE
  5
83
330
3C
100
AcDbEntity
  8
0
100
AcDbLine
 10
136.8
 20
10.0
 30
0.0
 11
136.8
 21
5.0
 31
0.0
  0
LINE
  5
84
330
3C
100
AcDbEntity
  8
0
100
AcDbLine
 10
192.7
 20
10.0
 30
0.0
 11
192.7
 21
5.0
 31
0.0
  0
LINE
  5
85
330
3C
100
AcDbEntity
  8
0
100
AcDbLine
 10
248.6
 20
10.0
 30
0.0
 11
248.6
 21
5.0
 31
0.0
  0
LINE
  5
86
330
3C
100
AcDbEntity
  8
0
100
AcDbLine
 10
304.5
 20
10.0
 30
0.0
 11
304.5
 21
5.0
 31
0.0
  0
LINE
  5
87
330
3C
100
AcDbEntity
  8
0
100
AcDbLine
 10
360.4
 20
10.0
 30
0.0
 11
360.4
 21
5.0
 31
0.0
  0
LINE
  5
88
330
3C
100
AcDbEntity
  8
0
100
AcDbLine
 10
416.3
 20
10.0
 30
0.0
 11
416.3
 21
5.0
 31
0.0
  0
LINE
  5
89
330
3C
100
AcDbEntity
  8
0
100
AcDbLine
 10
472.2
 20
10.0
 30
0.0
 11
472.2
 21
5.0
 31
0.0
  0
LINE
  5
8A
330
3C
100
AcDbEntity
  8
0
100
AcDbLine
 10
528.1
 20
10.0
 30
0.0
 11
528.1
 21
5.0
 31
0.0
  0
LINE
  5
8B
330
3C
100
AcDbEntity
  8
0
100
AcDbLine
 10
528.0999999999998
 20
410.0
 30
0.0
 11
528.0999999999998
 21
415.0
 31
0.0
  0
LINE
  5
8C
330
3C
100
AcDbEntity
  8
0
100
AcDbLine
 10
472.2
 20
410.0
 30
0.0
 11
472.2
 21
415.0
 31
0.0
  0
LINE
  5
8D
330
3C
100
AcDbEntity
  8
0
100
AcDbLine
 10
416.2999999999999
 20
410.0
 30
0.0
 11
416.2999999999999
 21
415.0
 31
0.0
  0
LINE
  5
8E
330
3C
100
AcDbEntity
  8
0
100
AcDbLine
 10
360.4
 20
410.0
 30
0.0
 11
360.4
 21
415.0
 31
0.0
  0
LINE
  5
8F
330
3C
100
AcDbEntity
  8
0
100
AcDbLine
 10
304.5
 20
410.0
 30
0.0
 11
304.5
 21
415.0
 31
0.0
  0
LINE
  5
90
330
3C
100
AcDbEntity
  8
0
100
AcDbLine
 10
248.6
 20
410.0
 30
0.0
 11
248.6
 21
415.0
 31
0.0
  0
LINE
  5
91
330
3C
100
AcDbEntity
  8
0
100
AcDbLine
 10
192.6999999999999
 20
410.0
 30
0.0
 11
192.6999999999999
 21
415.0
 31
0.0
  0
LINE
  5
92
330
3C
100
AcDbEntity
  8
0
100
AcDbLine
 10
136.8
 20
410.0
 30
0.0
 11
136.8
 21
415.0
 31
0.0
  0
LINE
  5
93
330
3C
100
AcDbEntity
  8
0
100
AcDbLine
 10
80.89999999999999
 20
410.0
 30
0.0
 11
80.89999999999999
 21
415.0
 31
0.0
  0
TEXT
  5
94
330
3C
100
AcDbEntity
  8
0
100
AcDbText
 10
51.73571428571428
 20
411.0
 30
0.0
 40
3.0
  1
1
  7
ADESK1
 72
     1
 11
52.94999999999999
 21
411.0
 31
0.0
100
AcDbText
  0
TEXT
  5
95
330
3C
100
AcDbEntity
  8
0
100
AcDbText
 10
21.79951209273041
 20
385.0
 30
0.0
 40
3.0
  1
A
  7
ADESK1
 72
     1
 11
23.0852263784447
 21
385.0
 31
0.0
100
AcDbText
  0
TEXT
  5
96
330
3C
100
AcDbEntity
  8
0
100
AcDbText
 10
107.4214285714285
 20
411.0
 30
0.0
 40
3.0
  1
2
  7
ADESK1
 72
     1
 11
108.85
 21
411.0
 31
0.0
100
AcDbText
  0
TEXT
  5
97
330
3C
100
AcDbEntity
  8
0
100
AcDbText
 10
163.3214285714286
 20
411.0
 30
0.0
 40
3.0
  1
3
  7
ADESK1
 72
     1
 11
164.75
 21
411.0
 31
0.0
100
AcDbText
  0
TEXT
  5
98
330
3C
100
AcDbEntity
  8
0
100
AcDbText
 10
219.15
 20
411.0
 30
0.0
 40
3.0
  1
4
  7
ADESK1
 72
     1
 11
220.65
 21
411.0
 31
0.0
100
AcDbText
  0
TEXT
  5
99
330
3C
100
AcDbEntity
  8
0
100
AcDbText
 10
275.1214285714286
 20
411.0
 30
0.0
 40
3.0
  1
5
  7
ADESK1
 72
     1
 11
276.55
 21
411.0
 31
0.0
100
AcDbText
  0
TEXT
  5
9A
330
3C
100
AcDbEntity
  8
0
100
AcDbText
 10
330.95
 20
411.0
 30
0.0
 40
3.0
  1
6
  7
ADESK1
 72
     1
 11
332.45
 21
411.0
 31
0.0
100
AcDbText
  0
TEXT
  5
9B
330
3C
100
AcDbEntity
  8
0
100
AcDbText
 10
386.9214285714286
 20
411.0
 30
0.0
 40
3.0
  1
7
  7
ADESK1
 72
     1
 11
388.35
 21
411.0
 31
0.0
100
AcDbText
  0
TEXT
  5
9C
330
3C
100
AcDbEntity
  8
0
100
AcDbText
 10
442.8214285714286
 20
411.0
 30
0.0
 40
3.0
  1
8
  7
ADESK1
 72
     1
 11
444.25
 21
411.0
 31
0.0
100
AcDbText
  0
TEXT
  5
9D
330
3C
100
AcDbEntity
  8
0
100
AcDbText
 10
498.7928571428572
 20
411.0
 30
0.0
 40
3.0
  1
9
  7
ADESK1
 72
     1
 11
500.15
 21
411.0
 31
0.0
100
AcDbText
  0
TEXT
  5
9E
330
3C
100
AcDbEntity
  8
0
100
AcDbText
 10
552.9785714285715
 20
411.0
 30
0.0
 40
3.0
  1
10
  7
ADESK1
 72
     1
 11
556.0500000000001
 21
411.0
 31
0.0
100
AcDbText
  0
TEXT
  5
9F
330
3C
100
AcDbEntity
  8
0
100
AcDbText
 10
21.51379780701613
 20
335.0
 30
0.0
 40
3.0
  1
B
  7
ADESK1
 72
     1
 11
23.0852263784447
 21
335.0
 31
0.0
100
AcDbText
  0
TEXT
  5
A0
330
3C
100
AcDbEntity
  8
0
100
AcDbText
 10
21.5852263784447
 20
285.0
 30
0.0
 40
3.0
  1
C
  7
ADESK1
 72
     1
 11
23.0852263784447
 21
285.0
 31
0.0
100
AcDbText
  0
TEXT
  5
A1
330
3C
100
AcDbEntity
  8
0
100
AcDbText
 10
21.51379780701613
 20
235.0
 30
0.0
 40
3.0
  1
D
  7
ADESK1
 72
     1
 11
23.0852263784447
 21
235.0
 31
0.0
100
AcDbText
  0
TEXT
  5
A2
330
3C
100
AcDbEntity
  8
0
100
AcDbText
 10
21.5852263784447
 20
185.0
 30
0.0
 40
3.0
  1
E
  7
ADESK1
 72
     1
 11
23.0852263784447
 21
185.0
 31
0.0
100
AcDbText
  0
TEXT
  5
A3
330
3C
100
AcDbEntity
  8
0
100
AcDbText
 10
21.5852263784447
 20
135.0
 30
0.0
 40
3.0
  1
F
  7
ADESK1
 72
     1
 11
23.0852263784447
 21
135.0
 31
0.0
100
AcDbText
  0
TEXT
  5
A4
330
3C
100
AcDbEntity
  8
0
100
AcDbText
 10
21.5852263784447
 20
85.0
 30
0.0
 40
3.0
  1
G
  7
ADESK1
 72
     1
 11
23.0852263784447
 21
85.0
 31
0.0
100
AcDbText
  0
TEXT
  5
A5
330
3C
100
AcDbEntity
  8
0
100
AcDbText
 10
21.51379780701613
 20
35.0
 30
0.0
 40
3.0
  1
H
  7
ADESK1
 72
     1
 11
23.0852263784447
 21
35.0
 31
0.0
100
AcDbText
  0
TEXT
  5
A6
330
3C
100
AcDbEntity
  8
0
100
AcDbText
 10
51.73571428571433
 20
6.161340157207792
 30
0.0
 40
3.0
  1
1
  7
ADESK1
 72
     1
 11
52.95000000000005
 21
6.161340157207792
 31
0.0
100
AcDbText
  0
TEXT
  5
A7
330
3C
100
AcDbEntity
  8
0
100
AcDbText
 10
107.4214285714286
 20
6.161340157207792
 30
0.0
 40
3.0
  1
2
  7
ADESK1
 72
     1
 11
108.85
 21
6.161340157207792
 31
0.0
100
AcDbText
  0
TEXT
  5
A8
330
3C
100
AcDbEntity
  8
0
100
AcDbText
 10
163.3214285714286
 20
6.161340157207792
 30
0.0
 40
3.0
  1
3
  7
ADESK1
 72
     1
 11
164.75
 21
6.161340157207792
 31
0.0
100
AcDbText
  0
TEXT
  5
A9
330
3C
100
AcDbEntity
  8
0
100
AcDbText
 10
219.15
 20
6.161340157207792
 30
0.0
 40
3.0
  1
4
  7
ADESK1
 72
     1
 11
220.65
 21
6.161340157207792
 31
0.0
100
AcDbText
  0
TEXT
  5
AA
330
3C
100
AcDbEntity
  8
0
100
AcDbText
 10
275.1214285714286
 20
6.161340157207792
 30
0.0
 40
3.0
  1
5
  7
ADESK1
 72
     1
 11
276.55
 21
6.161340157207792
 31
0.0
100
AcDbText
  0
TEXT
  5
AB
330
3C
100
AcDbEntity
  8
0
100
AcDbText
 10
330.95
 20
6.161340157207792
 30
0.0
 40
3.0
  1
6
  7
ADESK1
 72
     1
 11
332.45
 21
6.161340157207792
 31
0.0
100
AcDbText
  0
TEXT
  5
AC
330
3C
100
AcDbEntity
  8
0
100
AcDbText
 10
386.9214285714286
 20
6.161340157207792
 30
0.0
 40
3.0
  1
7
  7
ADESK1
 72
     1
 11
388.35
 21
6.161340157207792
 31
0.0
100
AcDbText
  0
TEXT
  5
AD
330
3C
100
AcDbEntity
  8
0
100
AcDbText
 10
442.8214285714286
 20
6.161340157207792
 30
0.0
 40
3.0
  1
8
  7
ADESK1
 72
     1
 11
444.25
 21
6.161340157207792
 31
0.0
100
AcDbText
  0
TEXT
  5
AE
330
3C
100
AcDbEntity
  8
0
100
AcDbText
 10
498.7928571428572
 20
6.161340157207792
 30
0.0
 40
3.0
  1
9
  7
ADESK1
 72
     1
 11
500.15
 21
6.161340157207792
 31
0.0
100
AcDbText
  0
TEXT
  5
AF
330
3C
100
AcDbEntity
  8
0
100
AcDbText
 10
552.9785714285715
 20
6.161340157207792
 30
0.0
 40
3.0
  1
10
  7
ADESK1
 72
     1
 11
556.0500000000001
 21
6.161340157207792
 31
0.0
100
AcDbText
  0
TEXT
  5
B0
330
3C
100
AcDbEntity
  8
0
100
AcDbText
 10
584.927379730091
 20
385.0
 30
0.0
 40
3.0
  1
A
  7
ADESK1
 72
     1
 11
586.2130940158054
 21
385.0
 31
0.0
100
AcDbText
  0
TEXT
  5
B1
330
3C
100
AcDbEntity
  8
0
100
AcDbText
 10
584.6416654443768
 20
335.0
 30
0.0
 40
3.0
  1
B
  7
ADESK1
 72
     1
 11
586.2130940158054
 21
335.0
 31
0.0
100
AcDbText
  0
TEXT
  5
B2
330
3C
100
AcDbEntity
  8
0
100
AcDbText
 10
584.7130940158053
 20
285.0
 30
0.0
 40
3.0
  1
C
  7
ADESK1
 72
     1
 11
586.2130940158054
 21
285.0
 31
0.0
100
AcDbText
  0
TEXT
  5
B3
330
3C
100
AcDbEntity
  8
0
100
AcDbText
 10
584.6416654443768
 20
235.0
 30
0.0
 40
3.0
  1
D
  7
ADESK1
 72
     1
 11
586.2130940158054
 21
235.0
 31
0.0
100
AcDbText
  0
TEXT
  5
B4
330
3C
100
AcDbEntity
  8
0
100
AcDbText
 10
584.7130940158053
 20
185.0
 30
0.0
 40
3.0
  1
E
  7
ADESK1
 72
     1
 11
586.2130940158054
 21
185.0
 31
0.0
100
AcDbText
  0
TEXT
  5
B5
330
3C
100
AcDbEntity
  8
0
100
AcDbText
 10
584.7130940158053
 20
135.0
 30
0.0
 40
3.0
  1
F
  7
ADESK1
 72
     1
 11
586.2130940158054
 21
135.0
 31
0.0
100
AcDbText
  0
TEXT
  5
B6
330
3C
100
AcDbEntity
  8
0
100
AcDbText
 10
584.7130940158053
 20
85.0
 30
0.0
 40
3.0
  1
G
  7
ADESK1
 72
     1
 11
586.2130940158054
 21
85.0
 31
0.0
100
AcDbText
  0
TEXT
  5
B7
330
3C
100
AcDbEntity
  8
0
100
AcDbText
 10
584.6416654443768
 20
35.0
 30
0.0
 40
3.0
  1
H
  7
ADESK1
 72
     1
 11
586.2130940158054
 21
35.0
 31
0.0
100
AcDbText
  0
LINE
  5
B8
330
3C
100
AcDbEntity
  8
0
 62
     0
100
AcDbLine
 10
454.2978723404242
 20
49.00000000000036
 30
0.0
 11
584.0
 21
49.00000000000036
 31
0.0
  0
LINE
  5
B9
330
3C
100
AcDbEntity
  8
0
 62
     0
100
AcDbLine
 10
454.2978723404242
 20
13.00000000000004
 30
0.0
 11
584.0
 21
13.00000000000004
 31
0.0
  0
LINE
  5
BA
330
3C
100
AcDbEntity
  8
0
 62
     0
100
AcDbLine
 10
454.2978723404242
 20
37.00000000000024
 30
0.0
 11
584.0
 21
37.00000000000024
 31
0.0
  0
LINE
  5
BB
330
3C
100
AcDbEntity
  8
0
 62
     0
100
AcDbLine
 10
492.1276595744672
 20
22.00000000000012
 30
0.0
 11
584.0
 21
22.00000000000012
 31
0.0
  0
LINE
  5
BC
330
3C
100
AcDbEntity
  8
0
 62
     0
100
AcDbLine
 10
454.2978723404242
 20
10.0
 30
0.0
 11
584.0
 21
10.0
 31
0.0
  0
LINE
  5
BD
330
3C
100
AcDbEntity
  8
0
 62
     0
100
AcDbLine
 10
584.0
 20
49.00000000000036
 30
0.0
 11
454.2978723404242
 21
49.00000000000036
 31
0.0
  0
LINE
  5
BE
330
3C
100
AcDbEntity
  8
0
 62
     0
100
AcDbLine
 10
477.7163120567365
 20
37.00000000000024
 30
0.0
 11
477.7163120567365
 21
10.0
 31
0.0
  0
LINE
  5
BF
330
3C
100
AcDbEntity
  8
0
 62
     0
100
AcDbLine
 10
459.7021276595731
 20
37.00000000000024
 30
0.0
 11
459.7021276595731
 21
10.0
 31
0.0
  0
LINE
  5
C0
330
3C
100
AcDbEntity
  8
0
 62
     0
100
AcDbLine
 10
486.7234042553184
 20
37.00000000000024
 30
0.0
 11
486.7234042553184
 21
10.0
 31
0.0
  0
LINE
  5
C1
330
3C
100
AcDbEntity
  8
0
 62
     0
100
AcDbLine
 10
492.1276595744672
 20
25.00000000000012
 30
0.0
 11
492.1276595744672
 21
10.0
 31
0.0
  0
LINE
  5
C2
330
3C
100
AcDbEntity
  8
0
 62
     0
100
AcDbLine
 10
454.2978723404242
 20
49.00000000000036
 30
0.0
 11
454.2978723404242
 21
10.0
 31
0.0
  0
LINE
  5
C3
330
3C
100
AcDbEntity
  8
0
 62
     0
100
AcDbLine
 10
522.7517730496447
 20
49.00000000000036
 30
0.0
 11
522.7517730496447
 21
10.0
 31
0.0
  0
LINE
  5
C4
330
3C
100
AcDbEntity
  8
0
 62
     0
100
AcDbLine
 10
502.7659574468077
 20
22.00000000000008
 30
0.0
 11
502.7659574468077
 21
10.0
 31
0.0
  0
LINE
  5
C5
330
3C
100
AcDbEntity
  8
0
 62
     0
100
AcDbLine
 10
513.4042553191484
 20
22.00000000000008
 30
0.0
 11
513.4042553191484
 21
10.0
 31
0.0
  0
LINE
  5
C6
330
3C
100
AcDbEntity
  8
0
 62
     0
100
AcDbLine
 10
454.2978723404242
 20
16.00000000000008
 30
0.0
 11
492.1276595744672
 21
16.00000000000008
 31
0.0
  0
LINE
  5
C7
330
3C
100
AcDbEntity
  8
0
 62
     0
100
AcDbLine
 10
454.2978723404242
 20
10.0
 30
0.0
 11
454.2978723404242
 21
13.00000000000004
 31
0.0
  0
TEXT
  5
C8
330
3C
100
AcDbEntity
  8
0
 62
     0
100
AcDbText
 10
495.7174935280942
 20
10.48329012996929
 30
0.0
 40
1.791674070777747
  1
製図
  7
ADESK1
 72
     1
 11
497.5688900678979
 21
10.48329012996929
 31
0.0
100
AcDbText
  0
TEXT
  5
C9
330
3C
100
AcDbEntity
  8
0
 62
     0
100
AcDbText
 10
506.2960689314087
 20
10.48329012996929
 30
0.0
 40
1.791674070777747
  1
設計
  7
ADESK1
 72
     1
 11
508.2071879402383
 21
10.48329012996929
 31
0.0
100
AcDbText
  0
TEXT
  5
CA
330
3C
100
AcDbEntity
  8
0
 62
     0
100
AcDbText
 10
516.2447163844404
 20
10.55220101068186
 30
0.0
 40
1.791674070777747
  1
照査
  7
ADESK1
 72
     1
 11
518.15583539327
 21
10.55220101068186
 31
0.0
100
AcDbText
  0
LINE
  5
CB
330
3C
100
AcDbEntity
  8
0
 62
     0
100
AcDbLine
 10
454.2978723404242
 20
25.00000000000012
 30
0.0
 11
492.1276595744672
 21
25.00000000000012
 31
0.0
  0
LINE
  5
CC
330
3C
100
AcDbEntity
  8
0
 62
     0
100
AcDbLine
 10
454.2978723404242
 20
22.00000000000008
 30
0.0
 11
492.1276595744672
 21
22.00000000000012
 31
0.0
  0
LINE
  5
CD
330
3C
100
AcDbEntity
  8
0
 62
     0
100
AcDbLine
 10
454.2978723404242
 20
19.00000000000008
 30
0.0
 11
492.1276595744672
 21
19.00000000000012
 31
0.0
  0
LINE
  5
CE
330
3C
100
AcDbEntity
  8
0
 62
     0
100
AcDbLine
 10
454.2978723404242
 20
34.00000000000024
 30
0.0
 11
522.7517730496447
 21
34.00000000000024
 31
0.0
  0
LINE
  5
CF
330
3C
100
AcDbEntity
  8
0
 62
     0
100
AcDbLine
 10
454.2978723404242
 20
31.0000000000002
 30
0.0
 11
522.7517730496447
 21
31.0000000000002
 31
0.0
  0
LINE
  5
D0
330
3C
100
AcDbEntity
  8
0
 62
     0
100
AcDbLine
 10
454.2978723404242
 20
28.00000000000016
 30
0.0
 11
522.7517730496447
 21
28.00000000000016
 31
0.0
  0
LINE
  5
D1
330
3C
100
AcDbEntity
  8
0
 62
     0
100
AcDbLine
 10
492.1276595744672
 20
25.00000000000012
 30
0.0
 11
522.7517730496447
 21
25.00000000000012
 31
0.0
  0
LINE
  5
D2
330
3C
100
AcDbEntity
  8
0
 62
     0
100
AcDbLine
 10
492.1276595744672
 20
49.00000000000036
 30
0.0
 11
492.1276595744672
 21
25.00000000000012
 31
0.0
  0
LINE
  5
D3
330
3C
100
AcDbEntity
  8
0
 62
     0
100
AcDbLine
 10
499.3333333333326
 20
37.00000000000024
 30
0.0
 11
499.3333333333326
 21
25.00000000000012
 31
0.0
  0
LINE
  5
D4
330
3C
100
AcDbEntity
  8
0
 62
     0
100
AcDbLine
 10
510.1418439716305
 20
49.00000000000036
 30
0.0
 11
510.1418439716305
 21
22.00000000000012
 31
0.0
  0
LINE
  5
D5
330
3C
100
AcDbEntity
  8
0
 62
     0
100
AcDbLine
 10
576.7943262411347
 20
22.00000000000012
 30
0.0
 11
576.7943262411347
 21
10.0
 31
0.0
  0
LINE
  5
D6
330
3C
100
AcDbEntity
  8
0
 62
     0
100
AcDbLine
 10
584.0
 20
49.00000000000036
 30
0.0
 11
584.0
 21
10.0
 31
0.0
  0
LINE
  5
D7
330
3C
100
AcDbEntity
  8
0
 62
     0
100
AcDbLine
 10
584.0
 20
10.0
 30
0.0
 11
584.0
 21
49.00000000000036
 31
0.0
  0
LINE
  5
D8
330
3C
100
AcDbEntity
  8
0
 62
     0
100
AcDbLine
 10
576.7943262411347
 20
16.00000000000008
 30
0.0
 11
584.0
 21
16.00000000000008
 31
0.0
  0
ENDBLK
  5
DA
330
3C
100
AcDbEntity
  8
0
100
AcDbBlockEnd
  0
BLOCK
  5
27E2
330
27C8
100
AcDbEntity
  8
0
 48
100.0
100
AcDbBlockBegin
  2
A$C7D152BF5
 70
     0
 10
0.0
 20
0.0
 30
0.0
  3
A$C7D152BF5
  1

  0
LINE
  5
27C9
330
27C8
100
AcDbEntity
  8
OBJECT
  6
Continuous
 48
100.0
100
AcDbLine
 10
100.0007362714095
 20
159.5460211073332
 30
0.0
 11
100.0018996688595
 21
659.5460211181598
 31
0.0
  0
LINE
  5
27CA
330
27C8
100
AcDbEntity
  8
OBJECT
  6
Continuous
 48
100.0
100
AcDbLine
 10
1000.000736251939
 20
159.5376446457048
 30
0.0
 11
1000.001899649389
 21
659.5376446565315
 31
0.0
  0
LINE
  5
27CB
330
27C8
100
AcDbEntity
  8
OBJECT
  6
Continuous
 48
100.0
100
AcDbLine
 10
500.0007362627656
 20
159.5422982354976
 30
0.0
 11
500.0018996602157
 21
659.5422982463242
 31
0.0
  0
LINE
  5
27CC
330
27C8
100
AcDbEntity
  8
OBJECT
  6
Continuous
 48
100.0
100
AcDbLine
 10
1400.000736243266
 20
159.5339217738728
 30
0.0
 11
1400.001899640716
 21
659.5339217846994
 31
0.0
  0
POINT
  5
27CD
330
27C8
100
AcDbEntity
  8
CRANE
  6
Continuous
 48
100.0
100
AcDbPoint
 10
749.9999451470793
 20
59.5399714436353
 30
0.0
  0
LINE
  5
27CE
330
27C8
100
AcDbEntity
  8
OBJECT
  6
Continuous
 48
100.0
100
AcDbLine
 10
-0.000054836680647
 20
59.54695182832438
 30
0.0
 11
1499.999945130839
 21
59.53299105894257
 31
0.0
  0
LINE
  5
27CF
330
27C8
100
AcDbEntity
  8
OBJECT
  6
Continuous
 48
100.0
100
AcDbLine
 10
0.0001778428268153
 20
159.546951830489
 30
0.0
 11
1500.000177810318
 21
159.5329910611108
 31
0.0
  0
LINE
  5
27D0
330
27C8
100
AcDbEntity
  8
OBJECT
  6
Continuous
 48
100.0
100
AcDbLine
 10
-0.0000548366515432
 20
59.54695182832438
 30
0.0
 11
0.0001778428559192
 21
159.546951830489
 31
0.0
  0
LINE
  5
27D1
330
27C8
100
AcDbEntity
  8
OBJECT
  6
Continuous
 48
100.0
100
AcDbLine
 10
1499.999945130839
 20
59.53299105894257
 30
0.0
 11
1500.000177810376
 21
159.5329910611108
 31
0.0
  0
LINE
  5
27D2
330
27C8
100
AcDbEntity
  8
OBJECT
  6
Continuous
 48
100.0
100
AcDbLine
 10
60.00189967156621
 20
659.5463934053441
 30
0.0
 11
540.0018744090921
 21
659.5419259593763
 31
0.0
  0
LINE
  5
27D3
330
27C8
100
AcDbEntity
  8
OBJECT
  6
Continuous
 48
100.0
100
AcDbLine
 10
960.0019101563376
 20
659.5380169436175
 30
0.0
 11
1440.001899639959
 21
659.5335494975151
 31
0.0
  0
LINE
  5
27D4
330
27C8
100
AcDbEntity
  8
OBJECT
  6
Continuous
 48
100.0
100
AcDbLine
 10
5675.017116805451
 20
159.4941334286886
 30
0.0
 11
5675.018280202902
 21
659.4941334395152
 31
0.0
  0
LINE
  5
27D5
330
27C8
100
AcDbEntity
  8
OBJECT
  6
Continuous
 48
100.0
100
AcDbLine
 10
6575.01711678598
 20
159.4857569670603
 30
0.0
 11
6575.018280183432
 21
659.4857569778869
 31
0.0
  0
LINE
  5
27D6
330
27C8
100
AcDbEntity
  8
OBJECT
  6
Continuous
 48
100.0
100
AcDbLine
 10
6075.017116796807
 20
159.490410556853
 30
0.0
 11
6075.018280194257
 21
659.4904105676796
 31
0.0
  0
LINE
  5
27D7
330
27C8
100
AcDbEntity
  8
OBJECT
  6
Continuous
 48
100.0
100
AcDbLine
 10
6975.017116777308
 20
159.4820340952283
 30
0.0
 11
6975.018280174758
 21
659.4820341060549
 31
0.0
  0
LINE
  5
27D8
330
27C8
100
AcDbEntity
  8
OBJECT
  6
Continuous
 48
100.0
100
AcDbLine
 10
7475.004949620867
 20
159.490410556853
 30
0.0
 11
7475.003786223417
 21
659.4904105676796
 31
0.0
  0
LINE
  5
27D9
330
27C8
100
AcDbEntity
  8
OBJECT
  6
Continuous
 48
100.0
100
AcDbLine
 10
7875.004949612223
 20
159.4941334286886
 30
0.0
 11
7875.003786214773
 21
659.4941334395152
 31
0.0
  0
LINE
  5
27DA
330
27C8
100
AcDbEntity
  8
OBJECT
  6
Continuous
 48
100.0
100
AcDbLine
 10
5575.016325697362
 20
59.49506414967982
 30
0.0
 11
7075.016325664882
 21
59.48110338029801
 31
0.0
  0
LINE
  5
27DB
330
27C8
100
AcDbEntity
  8
OBJECT
  6
Continuous
 48
100.0
100
AcDbLine
 10
5575.016558376868
 20
159.4950641518444
 30
0.0
 11
7975.005508092785
 21
159.4727270236871
 31
0.0
  0
LINE
  5
27DC
330
27C8
100
AcDbEntity
  8
OBJECT
  6
Continuous
 48
100.0
100
AcDbLine
 10
5575.01632569739
 20
59.49506414967982
 30
0.0
 11
5575.016558376898
 21
159.4950641518444
 31
0.0
  0
LINE
  5
27DD
330
27C8
100
AcDbEntity
  8
OBJECT
  6
Continuous
 48
100.0
100
AcDbLine
 10
7975.005740720284
 20
59.49506414967982
 30
0.0
 11
7975.005508040776
 21
159.4950641518444
 31
0.0
  0
LINE
  5
27DE
330
27C8
100
AcDbEntity
  8
OBJECT
  6
Continuous
 48
100.0
100
AcDbLine
 10
7075.016325664882
 20
59.48110338029801
 30
0.0
 11
7975.005740720284
 21
59.49506414967982
 31
0.0
  0
LINE
  5
27DF
330
27C8
100
AcDbEntity
  8
OBJECT
  6
Continuous
 48
100.0
100
AcDbLine
 10
5635.018280205608
 20
659.4945057266995
 30
0.0
 11
6115.018254943134
 21
659.4900382807318
 31
0.0
  0
LINE
  5
27E0
330
27C8
100
AcDbEntity
  8
OBJECT
  6
Continuous
 48
100.0
100
AcDbLine
 10
6535.01829069038
 20
659.486129264973
 30
0.0
 11
7015.018280174001
 21
659.4816618188706
 31
0.0
  0
LINE
  5
27E1
330
27C8
100
AcDbEntity
  8
OBJECT
  6
Continuous
 48
100.0
100
AcDbLine
 10
7915.003786212067
 20
659.4945057266995
 30
0.0
 11
7435.00381147454
 21
659.4900382807318
 31
0.0
  0
ENDBLK
  5
27E3
330
27C8
100
AcDbEntity
  8
0
 48
100.0
100
AcDbBlockEnd
  0
BLOCK
  5
2CFF
330
2CCB
100
AcDbEntity
  8
0
 48
100.0
100
AcDbBlockBegin
  2
A$C4BF50593
 70
     0
 10
0.0
 20
0.0
 30
0.0
  3
A$C4BF50593
  1

  0
ARC
  5
2CCC
330
2CCB
100
AcDbEntity
  8
OBJECT
  6
Continuous
 48
100.0
100
AcDbCircle
 10
589.9999683977512
 20
105.0008501798902
 30
0.0
 40
60.0
100
AcDbArc
 50
359.9997333689452
 51
89.99999999999968
  0
ARC
  5
2CCD
330
2CCB
100
AcDbEntity
  8
OBJECT
  6
Continuous
 48
100.0
100
AcDbCircle
 10
589.9999683977512
 20
275.0008501798893
 30
0.0
 40
60.0
100
AcDbArc
 50
270.0
 51
0.0002666310544806
  0
LINE
  5
2CCE
330
2CCB
100
AcDbEntity
  8
OBJECT
  6
Continuous
 48
100.0
100
AcDbLine
 10
219.7434599662083
 20
313.3304052438871
 30
0.0
 11
324.9986317902803
 21
313.3315995122448
 31
0.0
  0
LINE
  5
2CCF
330
2CCB
100
AcDbEntity
  8
OBJECT
  6
Continuous
 48
100.0
100
AcDbLine
 10
430.2552804450678
 20
313.3358023441224
 30
0.0
 11
325.0001086982083
 21
313.3315995501089
 31
0.0
  0
LINE
  5
2CD0
330
2CCB
100
AcDbEntity
  8
OBJECT
  6
Continuous
 48
100.0
100
AcDbLine
 10
324.9999683977512
 20
190.000850179892
 30
0.0
 11
-0.0000316022487823
 21
190.0008501798929
 31
0.0
  0
ARC
  5
2CD1
330
2CCB
100
AcDbEntity
  8
OBJECT
  6
Continuous
 48
100.0
100
AcDbCircle
 10
-0.0000316016376019
 20
165.0005709644965
 30
0.0
 40
60.0
100
AcDbArc
 50
270.0000000000277
 51
0.0002666310822405
  0
ARC
  5
2CD2
330
2CCB
100
AcDbEntity
  8
OBJECT
  6
Continuous
 48
100.0
100
AcDbCircle
 10
59.99996839775121
 20
105.0008501798938
 30
0.0
 40
60.0
100
AcDbArc
 50
89.99999999999968
 51
180.0002666310541
  0
LINE
  5
2CD3
330
2CCB
100
AcDbEntity
  8
OBJECT
  6
Continuous
 48
100.0
100
AcDbLine
 10
-0.0000316022487823
 20
105.0008501798938
 30
0.0
 11
324.9999683977512
 21
105.0008501798911
 31
0.0
  0
LINE
  5
2CD4
330
2CCB
100
AcDbEntity
  8
OBJECT
  6
Continuous
 48
100.0
100
AcDbLine
 10
-0.0000316022487823
 20
90.00085017989386
 30
0.0
 11
324.9999683977512
 21
90.00085017989112
 31
0.0
  0
LINE
  5
2CD5
330
2CCB
100
AcDbEntity
  8
OBJECT
  6
Continuous
 48
100.0
100
AcDbLine
 10
-0.0000316022487823
 20
290.0008501798893
 30
0.0
 11
324.9999683977512
 21
290.0008501798902
 31
0.0
  0
LINE
  5
2CD6
330
2CCB
100
AcDbEntity
  8
OBJECT
  6
Continuous
 48
100.0
100
AcDbLine
 10
-0.0000316022487823
 20
275.0008501798893
 30
0.0
 11
324.9999683977512
 21
275.0008501798902
 31
0.0
  0
ARC
  5
2CD7
330
2CCB
100
AcDbEntity
  8
OBJECT
  6
Continuous
 48
100.0
100
AcDbCircle
 10
59.99996839775121
 20
275.0008501798893
 30
0.0
 40
60.0
100
AcDbArc
 50
179.9997333689455
 51
270.0
  0
ARC
  5
2CD8
330
2CCB
100
AcDbEntity
  8
OBJECT
  6
Continuous
 48
100.0
100
AcDbCircle
 10
-0.0000316016376019
 20
215.0011293952866
 30
0.0
 40
60.0
100
AcDbArc
 50
359.9997333689175
 51
89.99999999997196
  0
ARC
  5
2CD9
330
2CCB
100
AcDbEntity
  8
OBJECT
  6
Continuous
 48
100.0
100
AcDbCircle
 10
192.4999683977512
 20
190.0008501798902
 30
0.0
 40
25.0
100
AcDbArc
 50
270.0000000000003
 51
0.0000000000003378
  0
ARC
  5
2CDA
330
2CCB
100
AcDbEntity
  8
OBJECT
  6
Continuous
 48
100.0
100
AcDbCircle
 10
192.4999683977512
 20
190.0008501798884
 30
0.0
 40
25.0
100
AcDbArc
 50
0.000000000000007
 51
90.0
  0
ARC
  5
2CDB
330
2CCB
100
AcDbEntity
  8
OBJECT
  6
Continuous
 48
100.0
100
AcDbCircle
 10
457.4999683977511
 20
190.0008501798884
 30
0.0
 40
25.0
100
AcDbArc
 50
90.0
 51
180.0
  0
ARC
  5
2CDC
330
2CCB
100
AcDbEntity
  8
OBJECT
  6
Continuous
 48
100.0
100
AcDbCircle
 10
457.4999683977511
 20
190.0008501798902
 30
0.0
 40
25.0
100
AcDbArc
 50
179.9999999999996
 51
269.9999999999997
  0
LINE
  5
2CDD
330
2CCB
100
AcDbEntity
  8
OBJECT
  6
Continuous
 48
100.0
100
AcDbLine
 10
324.9999683977512
 20
90.00085017989205
 30
0.0
 11
324.9999683977512
 21
190.000850179892
 31
0.0
  0
LINE
  5
2CDE
330
2CCB
100
AcDbEntity
  8
OBJECT
  6
Continuous
 48
100.0
100
AcDbLine
 10
649.9999683977512
 20
90.00085017989022
 30
0.0
 11
649.9999683977512
 21
105.0008501798902
 31
0.0
  0
ARC
  5
2CDF
330
2CCB
100
AcDbEntity
  8
OBJECT
  6
Continuous
 48
100.0
100
AcDbCircle
 10
649.99996839714
 20
165.0005709644929
 30
0.0
 40
60.0
100
AcDbArc
 50
179.9997333689171
 51
269.9999999999716
  0
ARC
  5
2CE0
330
2CCB
100
AcDbEntity
  8
OBJECT
  6
Continuous
 48
100.0
100
AcDbCircle
 10
409.9999683971109
 20
105.0008501798911
 30
0.0
 40
60.0
100
AcDbArc
 50
89.99999999999968
 51
180.0002666310541
  0
LINE
  5
2CE1
330
2CCB
100
AcDbEntity
  8
OBJECT
  6
Continuous
 48
100.0
100
AcDbLine
 10
649.9999683977512
 20
90.00085017989022
 30
0.0
 11
324.9999683977512
 21
90.00085017989112
 31
0.0
  0
LINE
  5
2CE2
330
2CCB
100
AcDbEntity
  8
OBJECT
  6
Continuous
 48
100.0
100
AcDbLine
 10
649.9999683977512
 20
105.0008501798902
 30
0.0
 11
324.9999683977512
 21
105.0008501798911
 31
0.0
  0
LINE
  5
2CE3
330
2CCB
100
AcDbEntity
  8
OBJECT
  6
Continuous
 48
100.0
100
AcDbLine
 10
589.9999683977512
 20
165.0008501798902
 30
0.0
 11
324.9999683977221
 21
165.000850179892
 31
0.0
  0
ARC
  5
2CE4
330
2CCB
100
AcDbEntity
  8
OBJECT
  6
Continuous
 48
100.0
100
AcDbCircle
 10
239.9999683983915
 20
105.000850179892
 30
0.0
 40
60.0
100
AcDbArc
 50
359.9997333689452
 51
89.99999999999968
  0
LINE
  5
2CE5
330
2CCB
100
AcDbEntity
  8
OBJECT
  6
Continuous
 48
100.0
100
AcDbLine
 10
59.99996839775121
 20
165.0008501798938
 30
0.0
 11
324.9999683977803
 21
165.000850179892
 31
0.0
  0
LINE
  5
2CE6
330
2CCB
100
AcDbEntity
  8
OBJECT
  6
Continuous
 48
100.0
100
AcDbLine
 10
59.99996839775121
 20
215.0008501798893
 30
0.0
 11
324.9999683977803
 21
215.0008501798893
 31
0.0
  0
ARC
  5
2CE7
330
2CCB
100
AcDbEntity
  8
OBJECT
  6
Continuous
 48
100.0
100
AcDbCircle
 10
239.9999683983915
 20
275.0008501798893
 30
0.0
 40
60.0
100
AcDbArc
 50
270.0
 51
0.0002666310544806
  0
LINE
  5
2CE8
330
2CCB
100
AcDbEntity
  8
OBJECT
  6
Continuous
 48
100.0
100
AcDbLine
 10
649.9999683977512
 20
190.0008501798893
 30
0.0
 11
324.9999683977512
 21
190.0008501798902
 31
0.0
  0
LINE
  5
2CE9
330
2CCB
100
AcDbEntity
  8
OBJECT
  6
Continuous
 48
100.0
100
AcDbLine
 10
589.9999683977512
 20
215.0008501798893
 30
0.0
 11
324.9999683977221
 21
215.0008501798893
 31
0.0
  0
LINE
  5
2CEA
330
2CCB
100
AcDbEntity
  8
OBJECT
  6
Continuous
 48
100.0
100
AcDbLine
 10
649.9999683977512
 20
275.0008501798893
 30
0.0
 11
324.9999683977512
 21
275.0008501798902
 31
0.0
  0
LINE
  5
2CEB
330
2CCB
100
AcDbEntity
  8
OBJECT
  6
Continuous
 48
100.0
100
AcDbLine
 10
649.9999683977512
 20
290.0008501798893
 30
0.0
 11
324.9999683977512
 21
290.0008501798902
 31
0.0
  0
ARC
  5
2CEC
330
2CCB
100
AcDbEntity
  8
OBJECT
  6
Continuous
 48
100.0
100
AcDbCircle
 10
409.9999683971109
 20
275.0008501798893
 30
0.0
 40
60.0
100
AcDbArc
 50
179.9997333689455
 51
270.0
  0
ARC
  5
2CED
330
2CCB
100
AcDbEntity
  8
OBJECT
  6
Continuous
 48
100.0
100
AcDbCircle
 10
649.99996839714
 20
215.0011293952866
 30
0.0
 40
60.0
100
AcDbArc
 50
90.00000000002804
 51
180.0002666310825
  0
LINE
  5
2CEE
330
2CCB
100
AcDbEntity
  8
OBJECT
  6
Continuous
 48
100.0
100
AcDbLine
 10
649.9999683977512
 20
290.0008501798893
 30
0.0
 11
649.9999683977512
 21
275.0008501798893
 31
0.0
  0
LINE
  5
2CEF
330
2CCB
100
AcDbEntity
  8
OBJECT
  6
Continuous
 48
100.0
100
AcDbLine
 10
324.9999683977512
 20
290.0008501798893
 30
0.0
 11
324.9999683977512
 21
190.0008501798893
 31
0.0
  0
LINE
  5
2CF0
330
2CCB
100
AcDbEntity
  8
OBJECT
  6
Continuous
 48
100.0
100
AcDbLine
 10
-0.0000316022487823
 20
90.00085017989386
 30
0.0
 11
-0.0000316022487823
 21
105.0008501798938
 31
0.0
  0
LINE
  5
2CF1
330
2CCB
100
AcDbEntity
  8
OBJECT
  6
Continuous
 48
100.0
100
AcDbLine
 10
-0.0000316022487823
 20
290.0008501798893
 30
0.0
 11
-0.0000316022487823
 21
275.0008501798893
 31
0.0
  0
LINE
  5
2CF2
330
2CCB
100
AcDbEntity
  8
OBJECT
  6
Continuous
 48
100.0
100
AcDbLine
 10
425.000742015778
 20
89.99995539028896
 30
0.0
 11
425.0012773937196
 21
50.00351956320082
 31
0.0
  0
LINE
  5
2CF3
330
2CCB
100
AcDbEntity
  8
OBJECT
  6
Continuous
 48
100.0
100
AcDbLine
 10
224.9977040878439
 20
50.00084238721592
 30
0.0
 11
224.9980619662965
 21
89.9976860731722
 31
0.0
  0
LINE
  5
2CF4
330
2CCB
100
AcDbEntity
  8
OBJECT
  6
Continuous
 48
100.0
100
AcDbLine
 10
244.9986026129918
 20
44.71668512806263
 30
0.0
 11
404.998602611362
 21
44.71731257426199
 31
0.0
  0
LINE
  5
2CF5
330
2CCB
100
AcDbEntity
  8
OBJECT
  6
Continuous
 48
100.0
100
AcDbLine
 10
424.9977040699159
 20
50.00351951536959
 30
0.0
 11
324.9977040789381
 21
50.00218095128821
 31
0.0
  0
LINE
  5
2CF6
330
2CCB
100
AcDbEntity
  8
OBJECT
  6
Continuous
 48
100.0
100
AcDbLine
 10
224.9977040878439
 20
50.00084238721592
 30
0.0
 11
324.9977040789381
 21
50.00218095128821
 31
0.0
  0
LINE
  5
2CF7
330
2CCB
100
AcDbEntity
  8
OBJECT
  6
Continuous
 48
100.0
100
AcDbLine
 10
244.9979717988754
 20
30.00111010182172
 30
0.0
 11
244.9977040860395
 21
50.00111010003092
 31
0.0
  0
LINE
  5
2CF8
330
2CCB
100
AcDbEntity
  8
OBJECT
  6
Continuous
 48
100.0
100
AcDbLine
 10
404.9986410843848
 20
30.00126434774756
 30
0.0
 11
404.9985887920192
 21
50.0032518143953
 31
0.0
  0
LINE
  5
2CF9
330
2CCB
100
AcDbEntity
  8
OBJECT
  6
Continuous
 48
100.0
100
AcDbLine
 10
244.9986410860147
 20
30.0006369015473
 30
0.0
 11
244.9986026129918
 21
44.71668512806263
 31
0.0
  0
LINE
  5
2CFA
330
2CCB
100
AcDbEntity
  8
OBJECT
  6
Continuous
 48
100.0
100
AcDbLine
 10
404.9986410843848
 20
30.00126434774756
 30
0.0
 11
244.9979718255054
 21
29.99912263610077
 31
0.0
  0
LINE
  5
2CFB
330
2CCB
100
AcDbEntity
  8
OBJECT
  6
Continuous
 48
100.0
100
AcDbLine
 10
424.9986052560561
 20
30.00045493184189
 30
0.0
 11
324.9986052564054
 21
30.00019349592367
 31
0.0
  0
LINE
  5
2CFC
330
2CCB
100
AcDbEntity
  8
OBJECT
  6
Continuous
 48
100.0
100
AcDbLine
 10
424.9986836868047
 20
0.0004549319437501
 30
0.0
 11
424.9986052560561
 21
30.00045493184189
 31
0.0
  0
LINE
  5
2CFD
330
2CCB
100
AcDbEntity
  8
OBJECT
  6
Continuous
 48
100.0
100
AcDbLine
 10
224.9986052567256
 20
29.99993206000545
 30
0.0
 11
324.9986052563763
 21
30.00019349592367
 31
0.0
  0
LINE
  5
2CFE
330
2CCB
100
AcDbEntity
  8
OBJECT
  6
Continuous
 48
100.0
100
AcDbLine
 10
224.9986836875032
 20
-0.0000679398926877
 30
0.0
 11
224.9986052567256
 21
29.99993206000545
 31
0.0
  0
ENDBLK
  5
2D00
330
2CCB
100
AcDbEntity
  8
0
 48
100.0
100
AcDbBlockEnd
  0
BLOCK
  5
3644
330
3640
100
AcDbEntity
  8
0
 48
100.0
100
AcDbBlockBegin
  2
A$C28EC78B4
 70
     0
 10
0.0
 20
0.0
 30
0.0
  3
A$C28EC78B4
  1

  0
LINE
  5
3641
330
3640
100
AcDbEntity
  8
OBJECT
  6
Continuous
 48
100.0
100
AcDbLine
 10
732.6830583658593
 20
2177.829140676978
 30
0.0
 11
0.0001549859589431
 21
86.14009957257804
 31
0.0
  0
ELLIPSE
  5
3642
330
3640
100
AcDbEntity
  8
OBJECT
  6
Continuous
 48
100.0
100
AcDbEllipse
 10
485.5225284032058
 20
1188.777294585619
 30
0.0
 11
98.43342235338058
 21
614.7126013467931
 31
0.0
210
0.0
220
0.0
230
0.9999999999999998
 40
0.6542229815766692
 41
5.269556325976404
 42
10.71297689417543
  0
SPLINE
  5
3643
330
3640
100
AcDbEntity
  8
OBJECT
  6
Continuous
 48
100.0
100
AcDbSpline
210
0.0
220
0.0
230
1.0
 70
     8
 71
     3
 72
    10
 73
     6
 74
     4
 42
0.0000000001
 43
0.0000000001
 44
0.0000000001
 40
0.0
 40
0.0
 40
0.0
 40
0.0
 40
335.4988168541603
 40
782.1635305551902
 40
1425.580901073073
 40
1425.580901073073
 40
1425.580901073073
 40
1425.580901073073
 10
0.0001549859589431
 20
86.14009957257804
 30
0.0
 10
101.7837387207895
 20
172.3370406893308
 30
0.0
 10
339.0764002958125
 20
373.2918590076451
 30
0.0
 10
684.5083623943126
 20
-268.047310672002
 30
0.0
 10
1000.019307817392
 20
97.17087119557467
 30
0.0
 10
1186.24860725514
 20
312.739703712381
 30
0.0
 11
0.0001549859589431
 21
86.14009957257804
 31
0.0
 11
296.5624202112376
 21
243.0167356755774
 31
0.0
 11
645.4588090085599
 21
-35.87513647169544
 31
0.0
 11
1186.24860725514
 21
312.739703712381
 31
0.0
  0
ENDBLK
  5
3645
330
3640
100
AcDbEntity
  8
0
 48
100.0
100
AcDbBlockEnd
  0
BLOCK
  5
364B
330
3647
100
AcDbEntity
  8
0
 48
100.0
100
AcDbBlockBegin
  2
A$C56EF0BF5
 70
     0
 10
0.0
 20
0.0
 30
0.0
  3
A$C56EF0BF5
  1

  0
ARC
  5
3648
330
3647
100
AcDbEntity
  8
OBJECT
100
AcDbCircle
 10
-0.0000280140666291
 20
299.9999640951864
 30
0.0
 40
300.0
100
AcDbArc
 50
270.0
 51
90.0
  0
ARC
  5
3649
330
3647
100
AcDbEntity
  8
OBJECT
100
AcDbCircle
 10
599.9999719859333
 20
299.9999640951864
 30
0.0
 40
300.0
100
AcDbArc
 50
90.0
 51
270.0
  0
CIRCLE
  5
364A
330
3647
100
AcDbEntity
  8
OBJECT
100
AcDbCircle
 10
299.9999719859334
 20
299.9999640951864
 30
0.0
 40
300.0
  0
ENDBLK
  5
364C
330
3647
100
AcDbEntity
  8
0
 48
100.0
100
AcDbBlockEnd
  0
BLOCK
  5
41F5
330
41F4
100
AcDbEntity
  8
0
 48
100.0
100
AcDbBlockBegin
  2
*D5
 70
     1
 10
0.0
 20
0.0
 30
0.0
  3
*D5
  1

  0
LINE
  5
41F6
330
41F4
100
AcDbEntity
  8
0
  6
ByBlock
 62
     0
 48
100.0
100
AcDbLine
 10
23791.83833242474
 20
-19998.18623330775
 30
0.0
 11
23791.83833242474
 21
-19045.69875684639
 31
0.0
  0
LINE
  5
41F7
330
41F4
100
AcDbEntity
  8
0
  6
ByBlock
 62
     0
 48
100.0
100
AcDbLine
 10
39791.83833213239
 20
-19998.22346202614
 30
0.0
 11
39791.83833213239
 21
-19045.69875684639
 31
0.0
  0
LINE
  5
41F8
330
41F4
100
AcDbEntity
  8
0
  6
ByBlock
 62
     0
 48
100.0
100
AcDbLine
 10
24291.83833242475
 20
-19295.69875684639
 30
0.0
 11
39291.83833213239
 21
-19295.69875684639
 31
0.0
  0
SOLID
  5
41F9
330
41F4
100
AcDbEntity
  8
0
  6
ByBlock
 62
     0
 48
100.0
100
AcDbTrace
 10
24291.83833242475
 20
-19212.36542351306
 30
0.0
 11
24291.83833242475
 21
-19379.03209017973
 31
0.0
 12
23791.83833242474
 22
-19295.69875684639
 32
0.0
 13
23791.83833242474
 23
-19295.69875684639
 33
0.0
  0
SOLID
  5
41FA
330
41F4
100
AcDbEntity
  8
0
  6
ByBlock
 62
     0
 48
100.0
100
AcDbTrace
 10
39291.83833213239
 20
-19212.36542351306
 30
0.0
 11
39291.83833213239
 21
-19379.03209017973
 31
0.0
 12
39791.83833213239
 22
-19295.69875684639
 32
0.0
 13
39791.83833213239
 23
-19295.69875684639
 33
0.0
  0
MTEXT
  5
41FB
330
41F4
100
AcDbEntity
  8
0
  6
ByBlock
 62
     0
 48
100.0
100
AcDbMText
 10
31791.83833227857
 20
-18920.69875684639
 30
0.0
 40
500.0
 41
0.0
 71
     5
 72
     1
  1
\A1;16000
 73
     1
 44
1.0
  0
POINT
  5
41FC
330
41F4
100
AcDbEntity
  8
DEFPOINTS
  6
ByBlock
 62
     0
 48
100.0
100
AcDbPoint
 10
23791.83833242474
 20
-20123.18623330775
 30
0.0
  0
POINT
  5
41FD
330
41F4
100
AcDbEntity
  8
DEFPOINTS
  6
ByBlock
 62
     0
 48
100.0
100
AcDbPoint
 10
39791.83833213239
 20
-20123.22346202615
 30
0.0
  0
POINT
  5
41FE
330
41F4
100
AcDbEntity
  8
DEFPOINTS
  6
ByBlock
 62
     0
 48
100.0
100
AcDbPoint
 10
39791.83833213239
 20
-19295.69875684639
 30
0.0
  0
ENDBLK
  5
41FF
330
41F4
100
AcDbEntity
  8
0
 48
100.0
100
AcDbBlockEnd
  0
BLOCK
  5
425D
330
4244
100
AcDbEntity
  8
0
 48
100.0
100
AcDbBlockBegin
  2
*D6
 70
     1
 10
0.0
 20
0.0
 30
0.0
  3
*D6
  1

  0
LINE
  5
4460
330
4244
100
AcDbEntity
  8
DIM
  6
Continuous
 62
     0
 48
100.0
370
    -2
100
AcDbLine
 10
29291.90268223401
 20
-12581.63324098727
 30
0.0
 11
29291.90268223401
 21
-11612.79843260458
 31
0.0
  0
LINE
  5
4461
330
4244
100
AcDbEntity
  8
DIM
  6
Continuous
 62
     0
 48
100.0
370
    -2
100
AcDbLine
 10
34291.90780106097
 20
-12581.66814294645
 30
0.0
 11
34291.90780106097
 21
-11612.79843260458
 31
0.0
  0
LINE
  5
4462
330
4244
100
AcDbEntity
  8
DIM
  6
Continuous
 62
     0
 48
100.0
370
    -2
100
AcDbLine
 10
29791.90268223401
 20
-11862.79843260458
 30
0.0
 11
33791.90780106097
 21
-11862.79843260458
 31
0.0
  0
SOLID
  5
4463
330
4244
100
AcDbEntity
  8
DIM
  6
Continuous
 62
     0
 48
100.0
100
AcDbTrace
 10
29791.90268223401
 20
-11779.46509927125
 30
0.0
 11
29791.90268223401
 21
-11946.13176593792
 31
0.0
 12
29291.90268223401
 22
-11862.79843260458
 32
0.0
 13
29291.90268223401
 23
-11862.79843260458
 33
0.0
  0
SOLID
  5
4464
330
4244
100
AcDbEntity
  8
DIM
  6
Continuous
 62
     0
 48
100.0
100
AcDbTrace
 10
33791.90780106097
 20
-11779.46509927125
 30
0.0
 11
33791.90780106097
 21
-11946.13176593792
 31
0.0
 12
34291.90780106097
 22
-11862.79843260458
 32
0.0
 13
34291.90780106097
 23
-11862.79843260458
 33
0.0
  0
MTEXT
  5
4465
330
4244
100
AcDbEntity
  8
DIM
  6
Continuous
 62
     0
 48
100.0
100
AcDbMText
 10
31791.90524164749
 20
-11487.79843260458
 30
0.0
 40
500.0
 41
0.0
 71
     5
 72
     1
  1
\A1;5000
 73
     1
 44
1.0
  0
POINT
  5
4466
330
4244
100
AcDbEntity
  8
DEFPOINTS
  6
Continuous
 62
     0
 48
100.0
100
AcDbPoint
 10
29291.90268223401
 20
-12706.63324098727
 30
0.0
  0
POINT
  5
4467
330
4244
100
AcDbEntity
  8
DEFPOINTS
  6
Continuous
 62
     0
 48
100.0
100
AcDbPoint
 10
34291.90780106097
 20
-12706.66814294645
 30
0.0
  0
POINT
  5
4468
330
4244
100
AcDbEntity
  8
DEFPOINTS
  6
Continuous
 62
     0
 48
100.0
100
AcDbPoint
 10
34291.90780106097
 20
-11862.79843260458
 30
0.0
  0
ENDBLK
  5
4267
330
4244
100
AcDbEntity
  8
0
 48
100.0
100
AcDbBlockEnd
  0
BLOCK
  5
4271
330
4270
100
AcDbEntity
  8
0
 48
100.0
100
AcDbBlockBegin
  2
*D7
 70
     1
 10
0.0
 20
0.0
 30
0.0
  3
*D7
  1

  0
LINE
  5
4272
330
4270
100
AcDbEntity
  8
0
  6
ByBlock
 62
     0
 48
100.0
100
AcDbLine
 10
20166.83751811286
 20
-20473.15365818678
 30
0.0
 11
18720.47859818611
 21
-20473.15365818678
 31
0.0
  0
LINE
  5
4273
330
4270
100
AcDbEntity
  8
0
  6
ByBlock
 62
     0
 48
100.0
100
AcDbLine
 10
20166.81425016389
 20
-22973.1536580785
 30
0.0
 11
18720.47859818611
 21
-22973.1536580785
 31
0.0
  0
LINE
  5
4274
330
4270
100
AcDbEntity
  8
0
  6
ByBlock
 62
     0
 48
100.0
100
AcDbLine
 10
18970.4785981861
 20
-20973.15365818678
 30
0.0
 11
18970.4785981861
 21
-22473.1536580785
 31
0.0
  0
SOLID
  5
4275
330
4270
100
AcDbEntity
  8
0
  6
ByBlock
 62
     0
 48
100.0
100
AcDbTrace
 10
18887.14526485277
 20
-20973.15365818678
 30
0.0
 11
19053.81193151944
 21
-20973.15365818678
 31
0.0
 12
18970.4785981861
 22
-20473.15365818678
 32
0.0
 13
18970.4785981861
 23
-20473.15365818678
 33
0.0
  0
SOLID
  5
4276
330
4270
100
AcDbEntity
  8
0
  6
ByBlock
 62
     0
 48
100.0
100
AcDbTrace
 10
18887.14526485277
 20
-22473.1536580785
 30
0.0
 11
19053.81193151944
 21
-22473.1536580785
 31
0.0
 12
18970.4785981861
 22
-22973.1536580785
 32
0.0
 13
18970.4785981861
 23
-22973.1536580785
 33
0.0
  0
MTEXT
  5
4277
330
4270
100
AcDbEntity
  8
0
  6
ByBlock
 62
     0
 48
100.0
100
AcDbMText
 10
18595.4785981861
 20
-21723.15365813264
 30
0.0
 40
500.0
 41
0.0
 71
     5
 72
     1
  1
\A1;2500
 11
0.0000000000000001
 21
1.0
 31
0.0
 73
     1
 44
1.0
  0
POINT
  5
4278
330
4270
100
AcDbEntity
  8
DEFPOINTS
  6
ByBlock
 62
     0
 48
100.0
100
AcDbPoint
 10
20291.83751811285
 20
-20473.15365818678
 30
0.0
  0
POINT
  5
4279
330
4270
100
AcDbEntity
  8
DEFPOINTS
  6
ByBlock
 62
     0
 48
100.0
100
AcDbPoint
 10
20291.81425016389
 20
-22973.1536580785
 30
0.0
  0
POINT
  5
427A
330
4270
100
AcDbEntity
  8
DEFPOINTS
  6
ByBlock
 62
     0
 48
100.0
100
AcDbPoint
 10
18970.4785981861
 20
-22973.1536580785
 30
0.0
  0
ENDBLK
  5
427B
330
4270
100
AcDbEntity
  8
0
 48
100.0
100
AcDbBlockEnd
  0
BLOCK
  5
43C7
330
43BD
100
AcDbEntity
  8
0
 48
100.0
100
AcDbBlockBegin
  2
*D8
 70
     1
 10
0.0
 20
0.0
 30
0.0
  3
*D8
  1

  0
LINE
  5
4406
330
43BD
100
AcDbEntity
  8
OBJECT
  6
Continuous
 62
     0
 48
100.0
370
    -2
100
AcDbLine
 10
-27372.61423533295
 20
-19998.18623330775
 30
0.0
 11
-27372.61423533295
 21
-19045.69875684639
 31
0.0
  0
LINE
  5
4407
330
43BD
100
AcDbEntity
  8
OBJECT
  6
Continuous
 62
     0
 48
100.0
370
    -2
100
AcDbLine
 10
-11372.6142356253
 20
-19998.22346202614
 30
0.0
 11
-11372.6142356253
 21
-19045.69875684639
 31
0.0
  0
LINE
  5
4408
330
43BD
100
AcDbEntity
  8
OBJECT
  6
Continuous
 62
     0
 48
100.0
370
    -2
100
AcDbLine
 10
-26872.61423533295
 20
-19295.69875684639
 30
0.0
 11
-11872.6142356253
 21
-19295.69875684639
 31
0.0
  0
SOLID
  5
4409
330
43BD
100
AcDbEntity
  8
OBJECT
  6
Continuous
 62
     0
 48
100.0
100
AcDbTrace
 10
-26872.61423533295
 20
-19212.36542351306
 30
0.0
 11
-26872.61423533295
 21
-19379.03209017973
 31
0.0
 12
-27372.61423533295
 22
-19295.69875684639
 32
0.0
 13
-27372.61423533295
 23
-19295.69875684639
 33
0.0
  0
SOLID
  5
440A
330
43BD
100
AcDbEntity
  8
OBJECT
  6
Continuous
 62
     0
 48
100.0
100
AcDbTrace
 10
-11872.6142356253
 20
-19212.36542351306
 30
0.0
 11
-11872.6142356253
 21
-19379.03209017973
 31
0.0
 12
-11372.6142356253
 22
-19295.69875684639
 32
0.0
 13
-11372.6142356253
 23
-19295.69875684639
 33
0.0
  0
MTEXT
  5
440B
330
43BD
100
AcDbEntity
  8
OBJECT
  6
Continuous
 62
     0
 48
100.0
100
AcDbMText
 10
-19372.61423547912
 20
-18920.69875684639
 30
0.0
 40
500.0
 41
0.0
 71
     5
 72
     1
  1
\A1;16000
 73
     1
 44
1.0
  0
POINT
  5
440C
330
43BD
100
AcDbEntity
  8
DEFPOINTS
  6
Continuous
 62
     0
 48
100.0
100
AcDbPoint
 10
-27372.61423533295
 20
-20123.18623330775
 30
0.0
  0
POINT
  5
440D
330
43BD
100
AcDbEntity
  8
DEFPOINTS
  6
Continuous
 62
     0
 48
100.0
100
AcDbPoint
 10
-11372.6142356253
 20
-20123.22346202615
 30
0.0
  0
POINT
  5
440E
330
43BD
100
AcDbEntity
  8
DEFPOINTS
  6
Continuous
 62
     0
 48
100.0
100
AcDbPoint
 10
-11372.6142356253
 20
-19295.69875684639
 30
0.0
  0
ENDBLK
  5
43C8
330
43BD
100
AcDbEntity
  8
0
 48
100.0
100
AcDbBlockEnd
  0
BLOCK
  5
43D4
330
43C9
100
AcDbEntity
  8
0
 48
100.0
100
AcDbBlockBegin
  2
*D9
 70
     1
 10
0.0
 20
0.0
 30
0.0
  3
*D9
  1

  0
LINE
  5
440F
330
43C9
100
AcDbEntity
  8
OBJECT
  6
Continuous
 62
     0
 48
100.0
370
    -2
100
AcDbLine
 10
-27497.61423533295
 20
-20123.18623330775
 30
0.0
 11
-28841.49310455791
 21
-20123.18623330775
 31
0.0
  0
LINE
  5
4410
330
43C9
100
AcDbEntity
  8
OBJECT
  6
Continuous
 62
     0
 48
100.0
370
    -2
100
AcDbLine
 10
-27497.61830722401
 20
-21873.18623334565
 30
0.0
 11
-28841.49310455791
 21
-21873.18623334565
 31
0.0
  0
LINE
  5
4411
330
43C9
100
AcDbEntity
  8
OBJECT
  6
Continuous
 62
     0
 48
100.0
370
    -2
100
AcDbLine
 10
-28591.49310455792
 20
-20623.18623330775
 30
0.0
 11
-28591.49310455792
 21
-21373.18623334564
 31
0.0
  0
LINE
  5
4412
330
43C9
100
AcDbEntity
  8
OBJECT
  6
Continuous
 62
     0
 48
100.0
370
    -2
100
AcDbLine
 10
-28591.49310455792
 20
-21873.18623334565
 30
0.0
 11
-28591.49310455792
 21
-24206.51956667898
 31
0.0
  0
SOLID
  5
4413
330
43C9
100
AcDbEntity
  8
OBJECT
  6
Continuous
 62
     0
 48
100.0
100
AcDbTrace
 10
-28674.82643789125
 20
-20623.18623330775
 30
0.0
 11
-28508.15977122458
 21
-20623.18623330775
 31
0.0
 12
-28591.49310455792
 22
-20123.18623330775
 32
0.0
 13
-28591.49310455792
 23
-20123.18623330775
 33
0.0
  0
SOLID
  5
4414
330
43C9
100
AcDbEntity
  8
OBJECT
  6
Continuous
 62
     0
 48
100.0
100
AcDbTrace
 10
-28674.82643789125
 20
-21373.18623334564
 30
0.0
 11
-28508.15977122458
 21
-21373.18623334564
 31
0.0
 12
-28591.49310455792
 22
-21873.18623334565
 32
0.0
 13
-28591.49310455792
 23
-21873.18623334565
 33
0.0
  0
MTEXT
  5
4415
330
43C9
100
AcDbEntity
  8
OBJECT
  6
Continuous
 62
     0
 48
100.0
100
AcDbMText
 10
-28966.49310455791
 20
-23289.85290001232
 30
0.0
 40
500.0
 41
0.0
 71
     5
 72
     1
  1
\A1;1750
 11
0.0000000000000001
 21
1.0
 31
0.0
 73
     1
 44
1.0
  0
POINT
  5
4416
330
43C9
100
AcDbEntity
  8
DEFPOINTS
  6
Continuous
 62
     0
 48
100.0
100
AcDbPoint
 10
-27372.61423533295
 20
-20123.18623330775
 30
0.0
  0
POINT
  5
4417
330
43C9
100
AcDbEntity
  8
DEFPOINTS
  6
Continuous
 62
     0
 48
100.0
100
AcDbPoint
 10
-27372.61830722401
 20
-21873.18623334565
 30
0.0
  0
POINT
  5
4418
330
43C9
100
AcDbEntity
  8
DEFPOINTS
  6
Continuous
 62
     0
 48
100.0
100
AcDbPoint
 10
-28591.49310455792
 20
-21873.18623334565
 30
0.0
  0
ENDBLK
  5
43D5
330
43C9
100
AcDbEntity
  8
0
 48
100.0
100
AcDbBlockEnd
  0
BLOCK
  5
43E0
330
43D6
100
AcDbEntity
  8
0
 48
100.0
100
AcDbBlockBegin
  2
*D10
 70
     1
 10
0.0
 20
0.0
 30
0.0
  3
*D10
  1

  0
LINE
  5
4419
330
43D6
100
AcDbEntity
  8
OBJECT
  6
Continuous
 62
     0
 48
100.0
370
    -2
100
AcDbLine
 10
-17497.61912204076
 20
-22223.27930514909
 30
0.0
 11
-17622.62610242546
 21
-22223.27930514909
 31
0.0
  0
LINE
  5
441A
330
43D6
100
AcDbEntity
  8
OBJECT
  6
Continuous
 62
     0
 48
100.0
370
    -2
100
AcDbLine
 10
-17497.59957696363
 20
-20123.27930524004
 30
0.0
 11
-17622.62610242546
 21
-20123.27930524004
 31
0.0
  0
LINE
  5
441B
330
43D6
100
AcDbEntity
  8
OBJECT
  6
Continuous
 62
     0
 48
100.0
370
    -2
100
AcDbLine
 10
-17372.62610242545
 20
-21723.27930514909
 30
0.0
 11
-17372.62610242545
 21
-20623.27930524004
 31
0.0
  0
SOLID
  5
441C
330
43D6
100
AcDbEntity
  8
OBJECT
  6
Continuous
 62
     0
 48
100.0
100
AcDbTrace
 10
-17455.95943575879
 20
-21723.27930514909
 30
0.0
 11
-17289.29276909212
 21
-21723.27930514909
 31
0.0
 12
-17372.62610242545
 22
-22223.27930514909
 32
0.0
 13
-17372.62610242545
 23
-22223.27930514909
 33
0.0
  0
SOLID
  5
441D
330
43D6
100
AcDbEntity
  8
OBJECT
  6
Continuous
 62
     0
 48
100.0
100
AcDbTrace
 10
-17455.95943575879
 20
-20623.27930524004
 30
0.0
 11
-17289.29276909212
 21
-20623.27930524004
 31
0.0
 12
-17372.62610242545
 22
-20123.27930524004
 32
0.0
 13
-17372.62610242545
 23
-20123.27930524004
 33
0.0
  0
MTEXT
  5
441E
330
43D6
100
AcDbEntity
  8
OBJECT
  6
Continuous
 62
     0
 48
100.0
100
AcDbMText
 10
-17747.62610242545
 20
-21173.27930519457
 30
0.0
 40
500.0
 41
0.0
 71
     5
 72
     1
  1
\A1;2100
 11
0.0000000000000001
 21
1.0
 31
0.0
 73
     1
 44
1.0
  0
POINT
  5
441F
330
43D6
100
AcDbEntity
  8
DEFPOINTS
  6
Continuous
 62
     0
 48
100.0
100
AcDbPoint
 10
-17372.61912204076
 20
-22223.27930514909
 30
0.0
  0
POINT
  5
4420
330
43D6
100
AcDbEntity
  8
DEFPOINTS
  6
Continuous
 62
     0
 48
100.0
100
AcDbPoint
 10
-17372.59957696363
 20
-20123.27930524004
 30
0.0
  0
POINT
  5
4421
330
43D6
100
AcDbEntity
  8
DEFPOINTS
  6
Continuous
 62
     0
 48
100.0
100
AcDbPoint
 10
-17372.62610242545
 20
-20123.27930524004
 30
0.0
  0
ENDBLK
  5
43E1
330
43D6
100
AcDbEntity
  8
0
 48
100.0
100
AcDbBlockEnd
  0
BLOCK
  5
43EC
330
43E2
100
AcDbEntity
  8
0
 48
100.0
100
AcDbBlockBegin
  2
*D11
 70
     1
 10
0.0
 20
0.0
 30
0.0
  3
*D11
  1

  0
LINE
  5
4700
330
43E2
100
AcDbEntity
  8
OBJECT
  6
Continuous
 62
     0
370
    -2
100
AcDbLine
 10
29791.83344604177
 20
-22348.24207643075
 30
0.0
 11
29791.83344604177
 21
-23983.95892630174
 31
0.0
  0
LINE
  5
4701
330
43E2
100
AcDbEntity
  8
OBJECT
  6
Continuous
 62
     0
370
    -2
100
AcDbLine
 10
33791.83344571693
 20
-22348.27930514909
 30
0.0
 11
33791.83344571693
 21
-23983.95892630174
 31
0.0
  0
LINE
  5
4702
330
43E2
100
AcDbEntity
  8
OBJECT
  6
Continuous
 62
     0
370
    -2
100
AcDbLine
 10
30291.83344604178
 20
-23733.95892630174
 30
0.0
 11
33291.83344571693
 21
-23733.95892630174
 31
0.0
  0
SOLID
  5
4703
330
43E2
100
AcDbEntity
  8
OBJECT
  6
Continuous
 62
     0
100
AcDbTrace
 10
30291.83344604178
 20
-23650.62559296841
 30
0.0
 11
30291.83344604178
 21
-23817.29225963507
 31
0.0
 12
29791.83344604177
 22
-23733.95892630174
 32
0.0
 13
29791.83344604177
 23
-23733.95892630174
 33
0.0
  0
SOLID
  5
4704
330
43E2
100
AcDbEntity
  8
OBJECT
  6
Continuous
 62
     0
100
AcDbTrace
 10
33291.83344571693
 20
-23650.62559296841
 30
0.0
 11
33291.83344571693
 21
-23817.29225963507
 31
0.0
 12
33791.83344571693
 22
-23733.95892630174
 32
0.0
 13
33791.83344571693
 23
-23733.95892630174
 33
0.0
  0
MTEXT
  5
4705
330
43E2
100
AcDbEntity
  8
OBJECT
  6
Continuous
 62
     0
100
AcDbMText
 10
31756.38078339759
 20
-23358.95892630174
 30
0.0
 40
500.0
 41
0.0
 71
     5
 72
     1
  1
\A1;4000
 73
     1
 44
1.0
  0
POINT
  5
4706
330
43E2
100
AcDbEntity
  8
DEFPOINTS
  6
Continuous
 62
     0
100
AcDbPoint
 10
29791.83344604177
 20
-22223.24207643075
 30
0.0
  0
POINT
  5
4707
330
43E2
100
AcDbEntity
  8
DEFPOINTS
  6
Continuous
 62
     0
100
AcDbPoint
 10
33791.83344571693
 20
-22223.27930514909
 30
0.0
  0
POINT
  5
4708
330
43E2
100
AcDbEntity
  8
DEFPOINTS
  6
Continuous
 62
     0
100
AcDbPoint
 10
33791.83344571693
 20
-23733.95892630174
 30
0.0
  0
ENDBLK
  5
43ED
330
43E2
100
AcDbEntity
  8
0
 48
100.0
100
AcDbBlockEnd
  0
BLOCK
  5
43F8
330
43EE
100
AcDbEntity
  8
0
 48
100.0
100
AcDbBlockBegin
  2
*D12
 70
     1
 10
0.0
 20
0.0
 30
0.0
  3
*D12
  1

  0
LINE
  5
442B
330
43EE
100
AcDbEntity
  8
DIM
  6
Continuous
 62
     0
 48
100.0
370
    -2
100
AcDbLine
 10
-21872.54988552368
 20
-9416.915911649949
 30
0.0
 11
-21872.54988552368
 21
-8448.081103267265
 31
0.0
  0
LINE
  5
442C
330
43EE
100
AcDbEntity
  8
DIM
  6
Continuous
 62
     0
 48
100.0
370
    -2
100
AcDbLine
 10
-16872.54476669672
 20
-9416.950813609135
 30
0.0
 11
-16872.54476669672
 21
-8448.081103267265
 31
0.0
  0
LINE
  5
442D
330
43EE
100
AcDbEntity
  8
DIM
  6
Continuous
 62
     0
 48
100.0
370
    -2
100
AcDbLine
 10
-21372.54988552368
 20
-8698.081103267265
 30
0.0
 11
-17372.54476669672
 21
-8698.081103267265
 31
0.0
  0
SOLID
  5
442E
330
43EE
100
AcDbEntity
  8
DIM
  6
Continuous
 62
     0
 48
100.0
100
AcDbTrace
 10
-21372.54988552368
 20
-8614.747769933931
 30
0.0
 11
-21372.54988552368
 21
-8781.414436600599
 31
0.0
 12
-21872.54988552368
 22
-8698.081103267265
 32
0.0
 13
-21872.54988552368
 23
-8698.081103267265
 33
0.0
  0
SOLID
  5
442F
330
43EE
100
AcDbEntity
  8
DIM
  6
Continuous
 62
     0
 48
100.0
100
AcDbTrace
 10
-17372.54476669672
 20
-8614.747769933931
 30
0.0
 11
-17372.54476669672
 21
-8781.414436600599
 31
0.0
 12
-16872.54476669672
 22
-8698.081103267265
 32
0.0
 13
-16872.54476669672
 23
-8698.081103267265
 33
0.0
  0
MTEXT
  5
4430
330
43EE
100
AcDbEntity
  8
DIM
  6
Continuous
 62
     0
 48
100.0
100
AcDbMText
 10
-19372.5473261102
 20
-8323.081103267265
 30
0.0
 40
500.0
 41
0.0
 71
     5
 72
     1
  1
\A1;5000
 73
     1
 44
1.0
  0
POINT
  5
4431
330
43EE
100
AcDbEntity
  8
DEFPOINTS
  6
Continuous
 62
     0
 48
100.0
100
AcDbPoint
 10
-21872.54988552368
 20
-9541.915911649949
 30
0.0
  0
POINT
  5
4432
330
43EE
100
AcDbEntity
  8
DEFPOINTS
  6
Continuous
 62
     0
 48
100.0
100
AcDbPoint
 10
-16872.54476669672
 20
-9541.950813609135
 30
0.0
  0
POINT
  5
4433
330
43EE
100
AcDbEntity
  8
DEFPOINTS
  6
Continuous
 62
     0
 48
100.0
100
AcDbPoint
 10
-16872.54476669672
 20
-8698.081103267265
 30
0.0
  0
ENDBLK
  5
43F9
330
43EE
100
AcDbEntity
  8
0
 48
100.0
100
AcDbBlockEnd
  0
BLOCK
  5
4404
330
43FA
100
AcDbEntity
  8
0
 48
100.0
100
AcDbBlockBegin
  2
*D13
 70
     1
 10
0.0
 20
0.0
 30
0.0
  3
*D13
  1

  0
LINE
  5
4434
330
43FA
100
AcDbEntity
  8
DIM
  6
Continuous
 62
     0
 48
100.0
370
    -2
100
AcDbLine
 10
-30997.61504964483
 20
-20473.15365818678
 30
0.0
 11
-32443.97396957158
 21
-20473.15365818678
 31
0.0
  0
LINE
  5
4435
330
43FA
100
AcDbEntity
  8
DIM
  6
Continuous
 62
     0
 48
100.0
370
    -2
100
AcDbLine
 10
-30997.6383175938
 20
-22973.1536580785
 30
0.0
 11
-32443.97396957158
 21
-22973.1536580785
 31
0.0
  0
LINE
  5
4436
330
43FA
100
AcDbEntity
  8
DIM
  6
Continuous
 62
     0
 48
100.0
370
    -2
100
AcDbLine
 10
-32193.97396957158
 20
-20973.15365818678
 30
0.0
 11
-32193.97396957158
 21
-22473.1536580785
 31
0.0
  0
SOLID
  5
4437
330
43FA
100
AcDbEntity
  8
DIM
  6
Continuous
 62
     0
 48
100.0
100
AcDbTrace
 10
-32277.30730290492
 20
-20973.15365818678
 30
0.0
 11
-32110.64063623825
 21
-20973.15365818678
 31
0.0
 12
-32193.97396957158
 22
-20473.15365818678
 32
0.0
 13
-32193.97396957158
 23
-20473.15365818678
 33
0.0
  0
SOLID
  5
4438
330
43FA
100
AcDbEntity
  8
DIM
  6
Continuous
 62
     0
 48
100.0
100
AcDbTrace
 10
-32277.30730290492
 20
-22473.1536580785
 30
0.0
 11
-32110.64063623825
 21
-22473.1536580785
 31
0.0
 12
-32193.97396957158
 22
-22973.1536580785
 32
0.0
 13
-32193.97396957158
 23
-22973.1536580785
 33
0.0
  0
MTEXT
  5
4439
330
43FA
100
AcDbEntity
  8
DIM
  6
Continuous
 62
     0
 48
100.0
100
AcDbMText
 10
-32568.97396957158
 20
-21723.15365813264
 30
0.0
 40
500.0
 41
0.0
 71
     5
 72
     1
  1
\A1;2500
 11
0.0000000000000001
 21
1.0
 31
0.0
 73
     1
 44
1.0
  0
POINT
  5
443A
330
43FA
100
AcDbEntity
  8
DEFPOINTS
  6
Continuous
 62
     0
 48
100.0
100
AcDbPoint
 10
-30872.61504964484
 20
-20473.15365818678
 30
0.0
  0
POINT
  5
443B
330
43FA
100
AcDbEntity
  8
DEFPOINTS
  6
Continuous
 62
     0
 48
100.0
100
AcDbPoint
 10
-30872.63831759381
 20
-22973.1536580785
 30
0.0
  0
POINT
  5
443C
330
43FA
100
AcDbEntity
  8
DEFPOINTS
  6
Continuous
 62
     0
 48
100.0
100
AcDbPoint
 10
-32193.97396957158
 20
-22973.1536580785
 30
0.0
  0
ENDBLK
  5
4405
330
43FA
100
AcDbEntity
  8
0
 48
100.0
100
AcDbBlockEnd
  0
BLOCK
  5
4477
330
446D
100
AcDbEntity
  8
0
100
AcDbBlockBegin
  2
*D14
 70
     1
 10
0.0
 20
0.0
 30
0.0
  3
*D14
  1

  0
LINE
  5
4709
330
446D
100
AcDbEntity
  8
DIM
  6
Continuous
 62
     0
370
    -2
100
AcDbLine
 10
20291.83519131796
 20
-21598.15365820843
 30
0.0
 11
20291.83519131796
 21
-24879.50462365808
 31
0.0
  0
LINE
  5
470A
330
446D
100
AcDbEntity
  8
DIM
  6
Continuous
 62
     0
370
    -2
100
AcDbLine
 10
43291.84915142195
 20
-21598.35934700721
 30
0.0
 11
43291.84915142195
 21
-24879.50462365808
 31
0.0
  0
LINE
  5
470B
330
446D
100
AcDbEntity
  8
DIM
  6
Continuous
 62
     0
370
    -2
100
AcDbLine
 10
20791.83519131796
 20
-24629.50462365808
 30
0.0
 11
42791.84915142195
 21
-24629.50462365808
 31
0.0
  0
SOLID
  5
470C
330
446D
100
AcDbEntity
  8
DIM
  6
Continuous
 62
     0
100
AcDbTrace
 10
20791.83519131796
 20
-24546.17129032475
 30
0.0
 11
20791.83519131796
 21
-24712.83795699141
 31
0.0
 12
20291.83519131796
 22
-24629.50462365808
 32
0.0
 13
20291.83519131796
 23
-24629.50462365808
 33
0.0
  0
SOLID
  5
470D
330
446D
100
AcDbEntity
  8
DIM
  6
Continuous
 62
     0
100
AcDbTrace
 10
42791.84915142195
 20
-24546.17129032475
 30
0.0
 11
42791.84915142195
 21
-24712.83795699141
 31
0.0
 12
43291.84915142195
 22
-24629.50462365808
 32
0.0
 13
43291.84915142195
 23
-24629.50462365808
 33
0.0
  0
MTEXT
  5
470E
330
446D
100
AcDbEntity
  8
DIM
  6
Continuous
 62
     0
100
AcDbMText
 10
31791.84217136996
 20
-24254.50462365808
 30
0.0
 40
500.0
 41
0.0
 71
     5
 72
     1
  1
\A1;23000
 73
     1
 44
1.0
  0
POINT
  5
470F
330
446D
100
AcDbEntity
  8
DEFPOINTS
  6
Continuous
 62
     0
100
AcDbPoint
 10
20291.83519131796
 20
-21473.15365820843
 30
0.0
  0
POINT
  5
4710
330
446D
100
AcDbEntity
  8
DEFPOINTS
  6
Continuous
 62
     0
100
AcDbPoint
 10
43291.84915142195
 20
-21473.35934700722
 30
0.0
  0
POINT
  5
4711
330
446D
100
AcDbEntity
  8
DEFPOINTS
  6
Continuous
 62
     0
100
AcDbPoint
 10
43291.84915142195
 20
-24629.50462365808
 30
0.0
  0
ENDBLK
  5
4478
330
446D
100
AcDbEntity
  8
0
100
AcDbBlockEnd
  0
BLOCK
  5
4484
330
447A
100
AcDbEntity
  8
0
100
AcDbBlockBegin
  2
*D15
 70
     1
 10
0.0
 20
0.0
 30
0.0
  3
*D15
  1

  0
LINE
  5
4658
330
447A
100
AcDbEntity
  8
DIM
  6
Continuous
 62
     0
370
    -2
100
AcDbLine
 10
20666.82639307659
 20
-25924.98756745338
 30
0.0
 11
18720.47859818611
 21
-25924.98756745338
 31
0.0
  0
LINE
  5
4659
330
447A
100
AcDbEntity
  8
DIM
  6
Continuous
 62
     0
370
    -2
100
AcDbLine
 10
20666.77753038829
 20
-32924.98756728286
 30
0.0
 11
18720.47859818611
 21
-32924.98756728286
 31
0.0
  0
LINE
  5
465A
330
447A
100
AcDbEntity
  8
DIM
  6
Continuous
 62
     0
370
    -2
100
AcDbLine
 10
18970.4785981861
 20
-26424.98756745339
 30
0.0
 11
18970.4785981861
 21
-32424.98756728285
 31
0.0
  0
SOLID
  5
465B
330
447A
100
AcDbEntity
  8
DIM
  6
Continuous
 62
     0
100
AcDbTrace
 10
18887.14526485277
 20
-26424.98756745339
 30
0.0
 11
19053.81193151944
 21
-26424.98756745339
 31
0.0
 12
18970.4785981861
 22
-25924.98756745338
 32
0.0
 13
18970.4785981861
 23
-25924.98756745338
 33
0.0
  0
SOLID
  5
465C
330
447A
100
AcDbEntity
  8
DIM
  6
Continuous
 62
     0
100
AcDbTrace
 10
18887.14526485277
 20
-32424.98756728285
 30
0.0
 11
19053.81193151944
 21
-32424.98756728285
 31
0.0
 12
18970.4785981861
 22
-32924.98756728286
 32
0.0
 13
18970.4785981861
 23
-32924.98756728286
 33
0.0
  0
MTEXT
  5
465D
330
447A
100
AcDbEntity
  8
DIM
  6
Continuous
 62
     0
100
AcDbMText
 10
18595.47859818611
 20
-29424.98756736812
 30
0.0
 40
500.0
 41
0.0
 71
     5
 72
     1
  1
\A1;7000
 11
0.0000000000000001
 21
1.0
 31
0.0
 73
     1
 44
1.0
  0
POINT
  5
465E
330
447A
100
AcDbEntity
  8
DEFPOINTS
  6
Continuous
 62
     0
100
AcDbPoint
 10
20791.82639307659
 20
-25924.98756745338
 30
0.0
  0
POINT
  5
465F
330
447A
100
AcDbEntity
  8
DEFPOINTS
  6
Continuous
 62
     0
100
AcDbPoint
 10
20791.77753038829
 20
-32924.98756728286
 30
0.0
  0
POINT
  5
4660
330
447A
100
AcDbEntity
  8
DEFPOINTS
  6
Continuous
 62
     0
100
AcDbPoint
 10
18970.4785981861
 20
-32924.98756728286
 30
0.0
  0
ENDBLK
  5
4485
330
447A
100
AcDbEntity
  8
0
100
AcDbBlockEnd
  0
BLOCK
  5
4758
330
474D
100
AcDbEntity
  8
0
100
AcDbBlockBegin
  2
*D16
 70
     1
 10
0.0
 20
0.0
 30
0.0
  3
*D16
  1

  0
LINE
  5
475A
330
474D
100
AcDbEntity
  8
DIM
  6
Continuous
 62
     0
370
    -2
100
AcDbLine
 10
29066.90062135961
 20
-12635.20420417764
 30
0.0
 11
27532.20656863204
 21
-12635.20420417764
 31
0.0
  0
LINE
  5
475B
330
474D
100
AcDbEntity
  8
DIM
  6
Continuous
 62
     0
370
    -2
100
AcDbLine
 10
29166.89109694765
 20
-14732.99158325432
 30
0.0
 11
27532.20656863204
 21
-14732.99158325432
 31
0.0
  0
LINE
  5
475C
330
474D
100
AcDbEntity
  8
DIM
  6
Continuous
 62
     0
370
    -2
100
AcDbLine
 10
27782.20656863204
 20
-13135.20420417764
 30
0.0
 11
27782.20656863204
 21
-14232.99158325432
 31
0.0
  0
SOLID
  5
475D
330
474D
100
AcDbEntity
  8
DIM
  6
Continuous
 62
     0
100
AcDbTrace
 10
27698.87323529871
 20
-13135.20420417764
 30
0.0
 11
27865.53990196538
 21
-13135.20420417764
 31
0.0
 12
27782.20656863204
 22
-12635.20420417764
 32
0.0
 13
27782.20656863204
 23
-12635.20420417764
 33
0.0
  0
SOLID
  5
475E
330
474D
100
AcDbEntity
  8
DIM
  6
Continuous
 62
     0
100
AcDbTrace
 10
27698.87323529871
 20
-14232.99158325432
 30
0.0
 11
27865.53990196538
 21
-14232.99158325432
 31
0.0
 12
27782.20656863204
 22
-14732.99158325432
 32
0.0
 13
27782.20656863204
 23
-14732.99158325432
 33
0.0
  0
MTEXT
  5
475F
330
474D
100
AcDbEntity
  8
DIM
  6
Continuous
 62
     0
100
AcDbMText
 10
27407.20656863205
 20
-13684.09789371597
 30
0.0
 40
500.0
 41
0.0
 71
     5
 72
     1
  1
\A1;2100
 11
0.0000000000000001
 21
1.0
 31
0.0
 73
     1
 44
1.0
  0
POINT
  5
4760
330
474D
100
AcDbEntity
  8
DEFPOINTS
  6
Continuous
 62
     0
100
AcDbPoint
 10
29191.90062135961
 20
-12635.20420417764
 30
0.0
  0
POINT
  5
4761
330
474D
100
AcDbEntity
  8
DEFPOINTS
  6
Continuous
 62
     0
100
AcDbPoint
 10
29291.89109694765
 20
-14732.99158325432
 30
0.0
  0
POINT
  5
4762
330
474D
100
AcDbEntity
  8
DEFPOINTS
  6
Continuous
 62
     0
100
AcDbPoint
 10
27782.20656863204
 20
-14732.99158325432
 30
0.0
  0
ENDBLK
  5
4759
330
474D
100
AcDbEntity
  8
0
100
AcDbBlockEnd
  0
ENDSEC
  0
SECTION
  2
ENTITIES
  0
LINE
  5
28A7
330
18
100
AcDbEntity
  8
FS
  6
Continuous
 62
     4
 48
100.0
100
AcDbLine
 10
-8707.704247149683
 20
47192.80980657575
 30
0.0
 11
-8707.873099445016
 21
23003.26971297438
 31
0.0
  0
LINE
  5
28A8
330
18
100
AcDbEntity
  8
FS
  6
Continuous
 62
     4
 48
100.0
100
AcDbLine
 10
-6707.704247230897
 20
47192.79119221658
 30
0.0
 11
-6707.87309949375
 21
23003.255752205
 31
0.0
  0
LINE
  5
28A9
330
18
100
AcDbEntity
  8
FS
  6
Continuous
 62
     4
 48
100.0
100
AcDbLine
 10
-4707.70424731211
 20
47192.77257785741
 30
0.0
 11
-4707.87309954247
 21
23003.24179143562
 31
0.0
  0
LINE
  5
28AA
330
18
100
AcDbEntity
  8
FS
  6
Continuous
 62
     4
 48
100.0
100
AcDbLine
 10
-2707.704247393311
 20
47192.75396349823
 30
0.0
 11
-2707.87309959119
 21
23003.22783066624
 31
0.0
  0
LINE
  5
28AB
330
18
100
AcDbEntity
  8
FS
  6
Continuous
 62
     4
 48
100.0
100
AcDbLine
 10
-707.7042474745248
 20
47192.73534913906
 30
0.0
 11
-707.8730996399245
 21
23003.21386989686
 31
0.0
  0
LINE
  5
28AC
330
18
100
AcDbEntity
  8
FS
  6
Continuous
 62
     4
 48
100.0
100
AcDbLine
 10
542.295752474718
 20
47192.72371516458
 30
0.0
 11
542.1269003296183
 21
23003.205144416
 31
0.0
  0
LINE
  5
28AD
330
18
100
AcDbEntity
  8
FS
  6
Continuous
 62
     4
 48
100.0
100
AcDbLine
 10
1792.295752423961
 20
47192.7120811901
 30
0.0
 11
1792.126900299176
 21
23003.19641893513
 31
0.0
  0
LINE
  5
28AE
330
18
100
AcDbEntity
  8
FS
  6
Continuous
 62
     4
 48
100.0
100
AcDbLine
 10
39792.29575088099
 20
47192.35840836581
 30
0.0
 11
39792.12689937338
 21
23002.93116431691
 31
0.0
  0
LINE
  5
28AF
330
18
100
AcDbEntity
  8
FS
  6
Continuous
 62
     4
 48
100.0
100
AcDbLine
 10
2792.295752383362
 20
47192.70277401051
 30
0.0
 11
2792.126900274801
 21
23003.18943855045
 31
0.0
  0
LINE
  5
28B0
330
18
100
AcDbEntity
  8
FS
  6
Continuous
 62
     4
 48
100.0
100
AcDbLine
 10
3792.295752342747
 20
47192.69346683092
 30
0.0
 11
3792.126900250442
 21
23003.18245816575
 31
0.0
  0
LINE
  5
28B1
330
18
100
AcDbEntity
  8
FS
  6
Continuous
 62
     4
 48
100.0
100
AcDbLine
 10
4792.295752302146
 20
47192.68415965133
 30
0.0
 11
4792.126900226081
 21
23003.17547778107
 31
0.0
  0
LINE
  5
28B2
330
18
100
AcDbEntity
  8
FS
  6
Continuous
 62
     4
 48
100.0
100
AcDbLine
 10
5792.295752261547
 20
47192.67485247175
 30
0.0
 11
5792.126900201722
 21
23003.16849739638
 31
0.0
  0
LINE
  5
28B3
330
18
100
AcDbEntity
  8
FS
  6
Continuous
 62
     4
 48
100.0
100
AcDbLine
 10
6792.295752220933
 20
47192.66554529216
 30
0.0
 11
6792.126900177362
 21
23003.16151701168
 31
0.0
  0
LINE
  5
28B4
330
18
100
AcDbEntity
  8
FS
  6
Continuous
 62
     4
 48
100.0
100
AcDbLine
 10
7792.295752180333
 20
47192.65623811258
 30
0.0
 11
7792.126900153002
 21
23003.15453662699
 31
0.0
  0
LINE
  5
28B5
330
18
100
AcDbEntity
  8
FS
  6
Continuous
 62
     4
 48
100.0
100
AcDbLine
 10
8792.295752139734
 20
47192.64693093299
 30
0.0
 11
8792.126900128627
 21
23003.1475562423
 31
0.0
  0
LINE
  5
28B6
330
18
100
AcDbEntity
  8
FS
  6
Continuous
 62
     4
 48
100.0
100
AcDbLine
 10
9792.29575209912
 20
47192.6376237534
 30
0.0
 11
9792.126900104268
 21
23003.14057585762
 31
0.0
  0
LINE
  5
28B7
330
18
100
AcDbEntity
  8
FS
  6
Continuous
 62
     4
 48
100.0
100
AcDbLine
 10
10792.29575205852
 20
47192.62831657382
 30
0.0
 11
10792.12690007991
 21
23003.13359547293
 31
0.0
  0
LINE
  5
28B8
330
18
100
AcDbEntity
  8
FS
  6
Continuous
 62
     4
 48
100.0
100
AcDbLine
 10
11792.29575201792
 20
47192.61900939422
 30
0.0
 11
11792.12690005555
 21
23003.12661508823
 31
0.0
  0
LINE
  5
28B9
330
18
100
AcDbEntity
  8
FS
  6
Continuous
 62
     4
 48
100.0
100
AcDbLine
 10
12792.2957519773
 20
47192.60970221464
 30
0.0
 11
12792.12690003117
 21
23003.11963470354
 31
0.0
  0
LINE
  5
28BA
330
18
100
AcDbEntity
  8
FS
  6
Continuous
 62
     4
 48
100.0
100
AcDbLine
 10
13792.2957519367
 20
47192.60039503505
 30
0.0
 11
13792.12690000681
 21
23003.11265431886
 31
0.0
  0
LINE
  5
28BB
330
18
100
AcDbEntity
  8
FS
  6
Continuous
 62
     4
 48
100.0
100
AcDbLine
 10
14792.2957518961
 20
47192.59108785547
 30
0.0
 11
14792.12689998245
 21
23003.10567393417
 31
0.0
  0
LINE
  5
28BC
330
18
100
AcDbEntity
  8
FS
  6
Continuous
 62
     4
 48
100.0
100
AcDbLine
 10
15792.29575185549
 20
47192.58178067589
 30
0.0
 11
15792.12689995809
 21
23003.09869354947
 31
0.0
  0
LINE
  5
28BD
330
18
100
AcDbEntity
  8
FS
  6
Continuous
 62
     4
 48
100.0
100
AcDbLine
 10
16792.29575181487
 20
47192.5724734963
 30
0.0
 11
16792.12689993373
 21
23003.09171316479
 31
0.0
  0
LINE
  5
28BE
330
18
100
AcDbEntity
  8
FS
  6
Continuous
 62
     4
 48
100.0
100
AcDbLine
 10
17792.29575177427
 20
47192.56316631671
 30
0.0
 11
17792.12689990936
 21
23003.08473278009
 31
0.0
  0
LINE
  5
28BF
330
18
100
AcDbEntity
  8
FS
  6
Continuous
 62
     4
 48
100.0
100
AcDbLine
 10
18792.29575173367
 20
47192.55385913712
 30
0.0
 11
18792.126899885
 21
23003.07775239541
 31
0.0
  0
LINE
  5
28C0
330
18
100
AcDbEntity
  8
FS
  6
Continuous
 62
     4
 48
100.0
100
AcDbLine
 10
19792.29575169307
 20
47192.54455195754
 30
0.0
 11
19792.12689986064
 21
23003.07077201071
 31
0.0
  0
LINE
  5
28C1
330
18
100
AcDbEntity
  8
FS
  6
Continuous
 62
     4
 48
100.0
100
AcDbLine
 10
20792.29575165246
 20
47192.53524477796
 30
0.0
 11
20792.12689983627
 21
23003.06379162603
 31
0.0
  0
LINE
  5
28C2
330
18
100
AcDbEntity
  8
FS
  6
Continuous
 62
     4
 48
100.0
100
AcDbLine
 10
21792.29575161186
 20
47192.52593759837
 30
0.0
 11
21792.1268998119
 21
23003.05681124134
 31
0.0
  0
LINE
  5
28C3
330
18
100
AcDbEntity
  8
FS
  6
Continuous
 62
     4
 48
100.0
100
AcDbLine
 10
22792.29575157125
 20
47192.51663041879
 30
0.0
 11
22792.12689978755
 21
23003.04983085665
 31
0.0
  0
LINE
  5
28C4
330
18
100
AcDbEntity
  8
FS
  6
Continuous
 62
     4
 48
100.0
100
AcDbLine
 10
23792.29575153065
 20
47192.5073232392
 30
0.0
 11
23792.12689976319
 21
23003.04285047195
 31
0.0
  0
LINE
  5
28C5
330
18
100
AcDbEntity
  8
FS
  6
Continuous
 62
     4
 48
100.0
100
AcDbLine
 10
24792.29575149005
 20
47192.49801605961
 30
0.0
 11
24792.12689973882
 21
23003.03587008726
 31
0.0
  0
LINE
  5
28C6
330
18
100
AcDbEntity
  8
FS
  6
Continuous
 62
     4
 48
100.0
100
AcDbLine
 10
25792.29575144943
 20
47192.48870888002
 30
0.0
 11
25792.12689971445
 21
23003.02888970258
 31
0.0
  0
LINE
  5
28C7
330
18
100
AcDbEntity
  8
FS
  6
Continuous
 62
     4
 48
100.0
100
AcDbLine
 10
26792.29575140884
 20
47192.47940170044
 30
0.0
 11
26792.12689969009
 21
23003.02190931789
 31
0.0
  0
LINE
  5
28C8
330
18
100
AcDbEntity
  8
FS
  6
Continuous
 62
     4
 48
100.0
100
AcDbLine
 10
27792.29575136822
 20
47192.47009452085
 30
0.0
 11
27792.12689966573
 21
23003.01492893319
 31
0.0
  0
LINE
  5
28C9
330
18
100
AcDbEntity
  8
FS
  6
Continuous
 62
     4
 48
100.0
100
AcDbLine
 10
28792.29575132762
 20
47192.46078734126
 30
0.0
 11
28792.12689964136
 21
23003.0079485485
 31
0.0
  0
LINE
  5
28CA
330
18
100
AcDbEntity
  8
FS
  6
Continuous
 62
     4
 48
100.0
100
AcDbLine
 10
29792.29575128702
 20
47192.45148016168
 30
0.0
 11
29792.126899617
 21
23003.00096816382
 31
0.0
  0
LINE
  5
28CB
330
18
100
AcDbEntity
  8
FS
  6
Continuous
 62
     4
 48
100.0
100
AcDbLine
 10
30792.29575124641
 20
47192.4421729821
 30
0.0
 11
30792.12689959264
 21
23002.99398777913
 31
0.0
  0
LINE
  5
28CC
330
18
100
AcDbEntity
  8
FS
  6
Continuous
 62
     4
 48
100.0
100
AcDbLine
 10
31792.29575120581
 20
47192.4328658025
 30
0.0
 11
31792.12689956828
 21
23002.98700739443
 31
0.0
  0
LINE
  5
28CD
330
18
100
AcDbEntity
  8
FS
  6
Continuous
 62
     4
 48
100.0
100
AcDbLine
 10
32792.29575116521
 20
47192.42355862292
 30
0.0
 11
32792.12689954392
 21
23002.98002700974
 31
0.0
  0
LINE
  5
28CE
330
18
100
AcDbEntity
  8
FS
  6
Continuous
 62
     4
 48
100.0
100
AcDbLine
 10
33792.29575112461
 20
47192.41425144333
 30
0.0
 11
33792.12689951956
 21
23002.97304662505
 31
0.0
  0
LINE
  5
28CF
330
18
100
AcDbEntity
  8
FS
  6
Continuous
 62
     4
 48
100.0
100
AcDbLine
 10
34792.29575108399
 20
47192.40494426374
 30
0.0
 11
34792.1268994952
 21
23002.96606624036
 31
0.0
  0
LINE
  5
28D0
330
18
100
AcDbEntity
  8
FS
  6
Continuous
 62
     4
 48
100.0
100
AcDbLine
 10
35792.29575104339
 20
47192.39563708416
 30
0.0
 11
35792.12689947084
 21
23002.95908585567
 31
0.0
  0
LINE
  5
28D1
330
18
100
AcDbEntity
  8
FS
  6
Continuous
 62
     4
 48
100.0
100
AcDbLine
 10
36792.29575100279
 20
47192.38632990458
 30
0.0
 11
36792.12689944648
 21
23002.95210547099
 31
0.0
  0
LINE
  5
28D2
330
18
100
AcDbEntity
  8
FS
  6
Continuous
 62
     4
 48
100.0
100
AcDbLine
 10
37792.29575096219
 20
47192.37702272499
 30
0.0
 11
37792.12689942212
 21
23002.9451250863
 31
0.0
  0
LINE
  5
28D3
330
18
100
AcDbEntity
  8
FS
  6
Continuous
 62
     4
 48
100.0
100
AcDbLine
 10
38792.29575092159
 20
47192.3677155454
 30
0.0
 11
38792.12689939776
 21
23002.9381447016
 31
0.0
  0
LINE
  5
28D4
330
18
100
AcDbEntity
  8
FS
  6
Continuous
 62
     4
 48
100.0
100
AcDbLine
 10
41292.29575082008
 20
47192.34444759643
 30
0.0
 11
41292.12689933684
 21
23002.92069373988
 31
0.0
  0
LINE
  5
28D5
330
18
100
AcDbEntity
  8
FS
  6
Continuous
 62
     4
 48
100.0
100
AcDbLine
 10
43292.29575073885
 20
47192.32583323726
 30
0.0
 11
43292.12689928811
 21
23002.9067329705
 31
0.0
  0
LINE
  5
28D6
330
18
100
AcDbEntity
  8
FS
  6
Continuous
 62
     4
 48
100.0
100
AcDbLine
 10
45292.29575065764
 20
47192.30721887809
 30
0.0
 11
45292.12689923937
 21
23002.89277220112
 31
0.0
  0
LINE
  5
28D7
330
18
100
AcDbEntity
  8
FS
  6
Continuous
 62
     4
 48
100.0
100
AcDbLine
 10
47292.29575057645
 20
47192.28860451892
 30
0.0
 11
47292.12689919065
 21
23002.87881143174
 31
0.0
  0
LINE
  5
28D8
330
18
100
AcDbEntity
  8
FS
  6
Continuous
 62
     4
 48
100.0
100
AcDbLine
 10
49292.29575049522
 20
47192.26999015975
 30
0.0
 11
49292.12689914193
 21
23002.86485066236
 31
0.0
  0
LINE
  5
28D9
330
18
100
AcDbEntity
  8
FS
  6
Continuous
 62
     4
 48
100.0
100
AcDbLine
 10
51292.29575041402
 20
47192.25137580058
 30
0.0
 11
51292.1268990932
 21
23002.85088989298
 31
0.0
  0
INSERT
  5
3646
330
18
100
AcDbEntity
  8
OBJECT
  6
Continuous
 48
100.0
100
AcDbBlockReference
  2
A$C28EC78B4
 10
44792.38317903221
 20
-29787.39886704683
 30
0.0
 41
0.3200000000000001
 42
0.3200000000000001
 43
0.3200000000000001
  0
LINE
  5
374D
330
18
100
AcDbEntity
  8
OBJECT
  6
CENTER2
 48
0.04
100
AcDbLine
 10
31791.899612276
 20
-9420.595816290704
 30
0.0
 11
31791.73096563741
 21
-34245.21845704585
 31
0.0
  0
LINE
  5
374E
330
18
100
AcDbEntity
  8
OBJECT
  6
Continuous
 48
100.0
100
AcDbLine
 10
43291.8229023364
 20
-26425.14462608248
 30
0.0
 11
43291.80196118234
 21
-29425.14462600907
 31
0.0
  0
LINE
  5
3756
330
18
100
AcDbEntity
  8
OBJECT
  6
CENTER2
 48
0.04
100
AcDbLine
 10
16387.91366041388
 20
-29424.9568265365
 30
0.0
 11
48291.80196106053
 21
-29425.17952792929
 31
0.0
  0
LINE
  5
378B
330
18
100
AcDbEntity
  8
OBJECT
  6
Continuous
 48
100.0
100
AcDbLine
 10
16388.00287862604
 20
-22973.11732460499
 30
0.0
 11
40791.8317004881
 21
-22973.34445542244
 31
0.0
  0
LINE
  5
3894
330
18
100
AcDbEntity
  8
FS
  6
DASHED
 62
     4
 48
100.0
100
AcDbLine
 10
-5961.093118624729
 20
-30254.12112096168
 30
0.0
 11
47228.81228012973
 21
-30254.61616896342
 31
0.0
  0
LINE
  5
3895
330
18
100
AcDbEntity
  8
FS
  6
DASHED
 62
     4
 48
100.0
100
AcDbLine
 10
-5961.097772214522
 20
-30754.12112094002
 30
0.0
 11
47228.80762653994
 21
-30754.61616894176
 31
0.0
  0
LINE
  5
3896
330
18
100
AcDbEntity
  8
FS
  6
DASHED
 62
     4
 48
100.0
100
AcDbLine
 10
-5961.102425804314
 20
-31254.12112091837
 30
0.0
 11
47228.80297295014
 21
-31254.61616892011
 31
0.0
  0
LINE
  5
3897
330
18
100
AcDbEntity
  8
FS
  6
DASHED
 62
     4
 48
100.0
100
AcDbLine
 10
-5961.107079394107
 20
-31754.12112089671
 30
0.0
 11
47228.79831936035
 21
-31754.61616889845
 31
0.0
  0
LINE
  5
3898
330
18
100
AcDbEntity
  8
FS
  6
DASHED
 62
     4
 48
100.0
100
AcDbLine
 10
-5961.1117329839
 20
-32254.12112087505
 30
0.0
 11
47228.79366577055
 21
-32254.61616887679
 31
0.0
  0
LINE
  5
3899
330
18
100
AcDbEntity
  8
FS
  6
DASHED
 62
     4
 48
100.0
100
AcDbLine
 10
-5961.116386573692
 20
-32754.12112085339
 30
0.0
 11
47228.78901218076
 21
-32754.61616885514
 31
0.0
  0
LINE
  5
389A
330
18
100
AcDbEntity
  8
FS
  6
DASHED
 62
     4
 48
100.0
100
AcDbLine
 10
-5961.121040163486
 20
-33254.12112083174
 30
0.0
 11
47228.78435859097
 21
-33254.61616883349
 31
0.0
  0
LINE
  5
389B
330
18
100
AcDbEntity
  8
FS
  6
DASHED
 62
     4
 48
100.0
100
AcDbLine
 10
-5961.125693753277
 20
-33754.12112081009
 30
0.0
 11
47228.77970500118
 21
-33754.61616881183
 31
0.0
  0
LINE
  5
389C
330
18
100
AcDbEntity
  8
FS
  6
DASHED
 62
     4
 48
100.0
100
AcDbLine
 10
-5961.130347343071
 20
-34254.12112078844
 30
0.0
 11
47228.77505141139
 21
-34254.61616879018
 31
0.0
  0
LINE
  5
389D
330
18
100
AcDbEntity
  8
FS
  6
DASHED
 62
     4
 48
100.0
100
AcDbLine
 10
-5961.135000932864
 20
-34754.12112076678
 30
0.0
 11
47228.77039782159
 21
-34754.61616876852
 31
0.0
  0
LINE
  5
389E
330
18
100
AcDbEntity
  8
FS
  6
DASHED
 62
     4
 48
100.0
100
AcDbLine
 10
-5961.139654522656
 20
-35254.12112074513
 30
0.0
 11
47228.7657442318
 21
-35254.61616874687
 31
0.0
  0
INSERT
  5
390E
330
18
100
AcDbEntity
  8
OBJECT
  6
Continuous
 48
100.0
100
AcDbBlockReference
  2
A$C28EC78B4
 10
31646.54057914898
 20
-10454.89457204588
 30
0.0
 41
0.3200000000000001
 42
0.3200000000000001
 43
0.3200000000000001
  0
LINE
  5
3911
330
18
100
AcDbEntity
  8
OBJECT
  6
Continuous
 48
100.0
100
AcDbLine
 10
28291.8858462353
 20
-15485.19768911823
 30
0.0
 11
31791.88584615003
 21
-15485.22212046464
 31
0.0
  0
MTEXT
  5
3A89
330
18
100
AcDbEntity
  8
DIM
  6
Continuous
 48
100.0
100
AcDbMText
 10
23469.3053774548
 20
-7227.102884428319
 30
0.0
 40
600.0
 41
4519.81008
 71
     1
 72
     5
  1
(16000+4000)X350
 73
     1
 44
1.0
  0
LINE
  5
3A8A
330
18
100
AcDbEntity
  8
DIM
  6
Continuous
 48
100.0
100
AcDbLine
 10
23235.34403040689
 20
-7991.694423235988
 30
0.0
 11
31747.28812324949
 21
-7991.781061677123
 31
0.0
  0
MTEXT
  5
3A8B
330
18
100
AcDbEntity
  8
DIM
  6
Continuous
 48
100.0
100
AcDbMText
 10
27570.28303230928
 20
-8272.468864901759
 30
0.0
 40
600.0
 41
1404.98848
 71
     1
 72
     5
  1
2
 73
     1
 44
1.0
  0
MTEXT
  5
3A8C
330
18
100
AcDbEntity
  8
DIM
  6
Continuous
 48
100.0
100
AcDbMText
 10
32026.41722053442
 20
-7679.546837047972
 30
0.0
 40
600.0
 41
12000.0
 71
     1
 72
     5
  1
+16000X1750
 73
     1
 44
1.0
  0
CIRCLE
  5
3AB3
330
18
100
AcDbEntity
  8
OBJECT
  6
Continuous
 48
100.0
100
AcDbCircle
 10
42791.80196119453
 20
-29425.14113581673
 30
0.0
 40
150.0
  0
LINE
  5
3AB6
330
18
100
AcDbEntity
  8
OBJECT
  6
Continuous
 48
100.0
100
AcDbLine
 10
42791.80261774703
 20
-29331.08435622781
 30
0.0
 11
42791.80130464201
 21
-29519.19791540565
 31
0.0
  0
CIRCLE
  5
3AB7
330
18
100
AcDbEntity
  8
OBJECT
  6
Continuous
 48
100.0
100
AcDbCircle
 10
42791.80196119452
 20
-29425.14113581673
 30
0.0
 40
170.0
  0
MTEXT
  5
3DE2
330
18
100
AcDbEntity
  8
DIM
  6
Continuous
 48
100.0
100
AcDbMText
 10
45133.50578686256
 20
-22347.91719516772
 30
0.0
 40
520.0
 41
2028.4917
 71
     1
 72
     5
  1
B.L
 73
     1
 44
1.0
  0
LINE
  5
4089
330
18
100
AcDbEntity
  8
OBJECT
  6
Continuous
 48
0.04
100
AcDbLine
 10
20791.82639307659
 20
-25924.98756745338
 30
0.0
 11
42791.82639254061
 21
-25925.14113590232
 31
0.0
  0
LINE
  5
4093
330
18
100
AcDbEntity
  8
OBJECT
  6
Continuous
 48
100.0
100
AcDbLine
 10
20291.82290289675
 20
-26424.98407724886
 30
0.0
 11
20291.80196174269
 21
-29424.98407716126
 31
0.0
  0
ARC
  5
4094
330
18
100
AcDbEntity
  8
OBJECT
  6
Continuous
 48
100.0
100
AcDbCircle
 10
42791.82290234859
 20
-26425.14113589014
 30
0.0
 40
500.0
100
AcDbArc
 50
359.999600053418
 51
89.99960005345499
  0
ARC
  5
4095
330
18
100
AcDbEntity
  8
OBJECT
  6
Continuous
 48
100.0
100
AcDbCircle
 10
20791.82290288457
 20
-26424.9875674412
 30
0.0
 40
500.0
100
AcDbArc
 50
89.99960005345499
 51
179.9996000534181
  0
LINE
  5
4096
330
18
100
AcDbEntity
  8
FS
  6
Continuous
 62
     4
 48
100.0
100
AcDbLine
 10
41541.9419181564
 20
-15704.53602123234
 30
0.0
 11
41541.75522709646
 21
-42449.63221250576
 31
0.0
  0
LINE
  5
4097
330
18
100
AcDbEntity
  8
OBJECT
  6
Continuous
 48
100.0
100
AcDbLine
 10
39791.81941222934
 20
-26925.12019472582
 30
0.0
 11
39791.80196126762
 21
-29425.12019466267
 31
0.0
  0
LINE
  5
4098
330
18
100
AcDbEntity
  8
FS
  6
Continuous
 62
     4
 48
100.0
100
AcDbLine
 10
37791.94191830867
 20
-15704.50111930889
 30
0.0
 11
37791.75522700509
 21
-42449.63221250576
 31
0.0
  0
LINE
  5
4099
330
18
100
AcDbEntity
  8
FS
  6
Continuous
 62
     4
 48
100.0
100
AcDbLine
 10
35791.94191838987
 20
-15704.48250494972
 30
0.0
 11
35791.75522695638
 21
-42449.63221250576
 31
0.0
  0
LINE
  5
409C
330
18
100
AcDbEntity
  8
FS
  6
Continuous
 62
     4
 48
100.0
100
AcDbLine
 10
29791.94191863351
 20
-15704.4266618722
 30
0.0
 11
29791.7552268102
 21
-42449.63221250576
 31
0.0
  0
LINE
  5
409D
330
18
100
AcDbEntity
  8
FS
  6
Continuous
 62
     4
 48
100.0
100
AcDbLine
 10
27791.94191871472
 20
-15704.40804751303
 30
0.0
 11
27791.75522676148
 21
-42449.63221250576
 31
0.0
  0
LINE
  5
409E
330
18
100
AcDbEntity
  8
FS
  6
Continuous
 62
     4
 48
100.0
100
AcDbLine
 10
25791.94191879592
 20
-15704.38943315386
 30
0.0
 11
25791.75522671277
 21
-42449.63221250576
 31
0.0
  0
LINE
  5
409F
330
18
100
AcDbEntity
  8
OBJECT
  6
Continuous
 48
100.0
100
AcDbLine
 10
23791.81941261916
 20
-26925.00850858115
 30
0.0
 11
23791.80196165744
 21
-29425.00850850764
 31
0.0
  0
LINE
  5
40A0
330
18
100
AcDbEntity
  8
FS
  6
Continuous
 62
     4
 48
100.0
100
AcDbLine
 10
22041.94191894812
 20
-15704.35453123041
 30
0.0
 11
22041.75522662141
 21
-42449.63221250576
 31
0.0
  0
LINE
  5
40A2
330
18
100
AcDbEntity
  8
OBJECT
  6
Continuous
 48
0.04
100
AcDbLine
 10
23791.81941261916
 20
-26925.00850858115
 30
0.0
 11
39791.81941222934
 21
-26925.12019472582
 31
0.0
  0
LINE
  5
40AF
330
18
100
AcDbEntity
  8
OBJECT
  6
Continuous
 48
100.0
100
AcDbLine
 10
23791.81941261916
 20
-26925.00850858115
 30
0.0
 11
31791.80196146253
 21
-29425.06435158516
 31
0.0
  0
LINE
  5
40B0
330
18
100
AcDbEntity
  8
OBJECT
  6
Continuous
 48
100.0
100
AcDbLine
 10
31791.80196146253
 20
-29425.06435158516
 30
0.0
 11
39791.81941222934
 21
-26925.12019472582
 31
0.0
  0
LINE
  5
40B4
330
18
100
AcDbEntity
  8
OBJECT
  6
Continuous
 48
100.0
100
AcDbLine
 10
40791.83170048811
 20
-22973.34445542244
 30
0.0
 11
43291.84915142195
 21
-21473.35934700722
 31
0.0
  0
LINE
  5
40B5
330
18
100
AcDbEntity
  8
OBJECT
  6
HIDDEN
 48
0.01
100
AcDbLine
 10
39791.83425998144
 20
-21873.33514821903
 30
0.0
 11
39791.83833187252
 21
-20123.33514818113
 31
0.0
  0
MTEXT
  5
40B8
330
18
100
AcDbEntity
  8
OBJECT
  6
Continuous
 48
100.0
100
AcDbMText
 10
32224.41283404613
 20
-28675.7630246452
 30
0.0
 40
400.0
 41
7980.541999999998
 71
     1
 72
     5
  1
HOLD CAP 105m
 11
0.9544820600860475
 21
0.2982683304910108
 31
0.0
 73
     1
 44
1.0
  0
MTEXT
  5
40B9
330
18
100
AcDbEntity
  8
OBJECT
  6
Continuous
 48
100.0
100
AcDbMText
 10
36502.79884786463
 20
-27250.31030294064
 30
0.0
 40
150.0
 41
672.1758999999999
 71
     1
 72
     5
  1
3
 11
0.954481936596213
 21
0.2982687256678833
 31
0.0
 73
     1
 44
1.0
  0
LINE
  5
40BA
330
18
100
AcDbEntity
  8
OBJECT
  6
Continuous
 48
100.0
100
AcDbLine
 10
20291.80196174269
 20
-29424.98407716126
 30
0.0
 11
20291.80894212738
 21
-26424.98407721638
 31
0.0
  0
LINE
  5
40BC
330
18
100
AcDbEntity
  8
OBJECT
  6
Continuous
 48
100.0
100
AcDbLine
 10
43291.83751742798
 20
-20473.36772331727
 30
0.0
 11
39791.83705213532
 21
-20673.33514819305
 31
0.0
  0
LINE
  5
40CB
330
18
100
AcDbEntity
  8
OBJECT
  6
Continuous
 48
100.0
100
AcDbLine
 10
39791.83705213532
 20
-20673.33514819305
 30
0.0
 11
43291.85171087964
 21
-20373.36652680766
 31
0.0
  0
LINE
  5
4189
330
18
100
AcDbEntity
  8
OBJECT
  6
Continuous
 48
0.008
100
AcDbLine
 10
28291.90120308162
 20
-13285.19768917183
 30
0.0
 11
28291.8858462353
 21
-15485.19768911823
 31
0.0
  0
LINE
  5
418D
330
18
100
AcDbEntity
  8
OBJECT
  6
Continuous
 48
100.0
100
AcDbLine
 10
28291.90120308162
 20
-13285.19768917183
 30
0.0
 11
29291.89917542154
 21
-13256.63330460095
 31
0.0
  0
LINE
  5
418E
330
18
100
AcDbEntity
  8
OBJECT
  6
Continuous
 48
0.008
100
AcDbLine
 10
29291.90140249682
 20
-13256.63324098578
 30
0.0
 11
29291.89108149946
 21
-14735.20466952119
 31
0.0
  0
LINE
  5
4191
330
18
100
AcDbEntity
  8
OBJECT
  6
Continuous
 48
100.0
100
AcDbLine
 10
29291.89917542155
 20
-13256.63330460095
 30
0.0
 11
29291.90062135853
 21
-12635.20466953662
 31
0.0
  0
LINE
  5
4192
330
18
100
AcDbEntity
  8
OBJECT
  6
Continuous
 48
100.0
100
AcDbLine
 10
29291.90062135853
 20
-12635.20466953662
 30
0.0
 11
29191.90062135961
 21
-12635.20420417764
 31
0.0
  0
LINE
  5
4195
330
18
100
AcDbEntity
  8
OBJECT
  6
Continuous
 48
100.0
100
AcDbLine
 10
28853.13645525818
 20
-13269.16631708775
 30
0.0
 11
29191.90062135961
 21
-12635.20420417764
 31
0.0
  0
LINE
  5
4196
330
18
100
AcDbEntity
  8
OBJECT
  6
Continuous
 48
100.0
100
AcDbLine
 10
29291.90062135853
 20
-12635.20466953662
 30
0.0
 11
34291.90574005013
 21
-12635.25120548217
 31
0.0
  0
LINE
  5
4199
330
18
100
AcDbEntity
  8
OBJECT
  6
Continuous
 48
0.008
100
AcDbLine
 10
28281.88647447017
 20
-15395.19761931657
 30
0.0
 11
28281.88577643171
 21
-15495.19761931414
 31
0.0
  0
LINE
  5
419A
330
18
100
AcDbEntity
  8
OBJECT
  6
Continuous
 48
100.0
100
AcDbLine
 10
28281.88577643171
 20
-15495.19761931414
 30
0.0
 11
28381.88577642925
 21
-15495.19831735261
 31
0.0
  0
LINE
  5
419B
330
18
100
AcDbEntity
  8
OBJECT
  6
Continuous
 48
100.0
100
AcDbLine
 10
28291.88647446993
 20
-15395.19768912042
 30
0.0
 11
28281.88647447017
 21
-15395.19761931657
 31
0.0
  0
LINE
  5
419C
330
18
100
AcDbEntity
  8
OBJECT
  6
Continuous
 48
100.0
100
AcDbLine
 10
28381.88584623311
 20
-15485.19831735285
 30
0.0
 11
28381.88577642926
 21
-15495.19831735261
 31
0.0
  0
LINE
  5
419E
330
18
100
AcDbEntity
  8
OBJECT
  6
Continuous
 48
100.0
100
AcDbLine
 10
29291.89108149946
 20
-14735.20466952119
 30
0.0
 11
31791.89108143855
 21
-14735.22212048291
 31
0.0
  0
LINE
  5
419F
330
18
100
AcDbEntity
  8
OBJECT
  6
Continuous
 48
100.0
100
AcDbLine
 10
43291.84915142195
 20
-21473.35934700722
 30
0.0
 11
43291.85171087964
 21
-20373.36652680766
 31
0.0
  0
LINE
  5
41A0
330
18
100
AcDbEntity
  8
OBJECT
  6
Continuous
 48
100.0
100
AcDbLine
 10
41000.21221348787
 20
-22973.3463948573
 30
0.0
 11
46033.80825816937
 21
-22973.39324343965
 31
0.0
  0
LINE
  5
41A3
330
18
100
AcDbEntity
  8
OBJECT
  6
Continuous
 48
100.0
100
AcDbLine
 10
20291.83519131796
 20
-21473.15365820843
 30
0.0
 11
22791.83170107824
 21
-22973.17692618988
 31
0.0
  0
LINE
  5
41A5
330
18
100
AcDbEntity
  8
OBJECT
  6
HIDDEN
 48
0.01
100
AcDbLine
 10
23791.83426053368
 20
-21873.18623334565
 30
0.0
 11
23791.83833242474
 21
-20123.18623330775
 31
0.0
  0
LINE
  5
41A6
330
18
100
AcDbEntity
  8
OBJECT
  6
Continuous
 48
100.0
100
AcDbLine
 10
23791.83705268756
 20
-20673.18623331966
 30
0.0
 11
20291.83751811286
 21
-20473.15365818678
 31
0.0
  0
LINE
  5
41A9
330
18
100
AcDbEntity
  8
OBJECT
  6
HIDDEN
 48
0.01
100
AcDbLine
 10
29791.83344604177
 20
-22223.24207643075
 30
0.0
 11
33791.83344571693
 21
-22223.27930514909
 31
0.0
  0
LINE
  5
41AB
330
18
100
AcDbEntity
  8
OBJECT
  6
HIDDEN
 48
0.01
100
AcDbLine
 10
23791.83426053368
 20
-21873.18623334565
 30
0.0
 11
29791.83344604177
 21
-22223.24207643074
 31
0.0
  0
LINE
  5
41AC
330
18
100
AcDbEntity
  8
OBJECT
  6
HIDDEN
 48
0.01
100
AcDbLine
 10
33791.83344571693
 20
-22223.27930514909
 30
0.0
 11
39791.83425998145
 21
-21873.33514821903
 31
0.0
  0
LINE
  5
41AE
330
18
100
AcDbEntity
  8
OBJECT
  6
Continuous
 48
100.0
100
AcDbLine
 10
23691.83833242664
 20
-20123.18530258979
 30
0.0
 11
39891.83833187062
 21
-20123.33607889909
 31
0.0
  0
LINE
  5
41B1
330
18
100
AcDbEntity
  8
OBJECT
  6
Continuous
 48
100.0
100
AcDbLine
 10
23391.83710587902
 20
-20650.32536759019
 30
0.0
 11
23691.83833242664
 21
-20123.18530258979
 31
0.0
  0
LINE
  5
41B4
330
18
100
AcDbEntity
  8
OBJECT
  6
Continuous
 48
100.0
100
AcDbLine
 10
39891.83833187062
 20
-20123.33607889909
 30
0.0
 11
40191.83710531161
 21
-20650.48172820724
 31
0.0
  0
LINE
  5
41BE
330
18
100
AcDbEntity
  8
OBJECT
  6
Continuous
 48
100.0
100
AcDbLine
 10
20291.83519131796
 20
-21473.15365820843
 30
0.0
 11
20291.83775079234
 21
-20373.15365818705
 31
0.0
  0
LINE
  5
41C1
330
18
100
AcDbEntity
  8
OBJECT
  6
Continuous
 48
0.008
100
AcDbLine
 10
34291.90140237501
 20
-13256.66814290923
 30
0.0
 11
34291.89108137763
 21
-14735.23957144464
 31
0.0
  0
LINE
  5
41C2
330
18
100
AcDbEntity
  8
OBJECT
  6
Continuous
 48
0.008
100
AcDbLine
 10
35291.90120291108
 20
-13285.24655186466
 30
0.0
 11
35291.88584606476
 21
-15485.24655181106
 31
0.0
  0
LINE
  5
41C3
330
18
100
AcDbEntity
  8
OBJECT
  6
Continuous
 48
100.0
100
AcDbLine
 10
34291.89108137763
 20
-14735.23957144464
 30
0.0
 11
31791.89108143855
 21
-14735.22212048291
 31
0.0
  0
LINE
  5
41C4
330
18
100
AcDbEntity
  8
OBJECT
  6
Continuous
 48
100.0
100
AcDbLine
 10
35291.88584606476
 20
-15485.24655181106
 30
0.0
 11
31791.88584615003
 21
-15485.22212046464
 31
0.0
  0
LINE
  5
41C5
330
18
100
AcDbEntity
  8
OBJECT
  6
Continuous
 48
100.0
100
AcDbLine
 10
35201.88584606695
 20
-15485.24592357644
 30
0.0
 11
35201.88577626311
 21
-15495.2459235762
 31
0.0
  0
LINE
  5
41C6
330
18
100
AcDbEntity
  8
OBJECT
  6
Continuous
 48
100.0
100
AcDbLine
 10
35291.88647429938
 20
-15395.24655181326
 30
0.0
 11
35301.88647429913
 21
-15395.2466216171
 31
0.0
  0
LINE
  5
41C7
330
18
100
AcDbEntity
  8
OBJECT
  6
Continuous
 48
100.0
100
AcDbLine
 10
35301.88577626066
 20
-15495.24662161467
 30
0.0
 11
35201.88577626311
 21
-15495.2459235762
 31
0.0
  0
LINE
  5
41C8
330
18
100
AcDbEntity
  8
OBJECT
  6
Continuous
 48
0.008
100
AcDbLine
 10
35301.88647429913
 20
-15395.2466216171
 30
0.0
 11
35301.88577626066
 21
-15495.24662161467
 31
0.0
  0
LINE
  5
41CA
330
18
100
AcDbEntity
  8
OBJECT
  6
Continuous
 48
100.0
100
AcDbLine
 10
35291.90120291108
 20
-13285.24655186466
 30
0.0
 11
34291.89851050229
 21
-13256.6680602641
 31
0.0
  0
LINE
  5
41CC
330
18
100
AcDbEntity
  8
OBJECT
  6
Continuous
 48
100.0
100
AcDbLine
 10
34730.66097628819
 20
-13269.20719594673
 30
0.0
 11
34391.90574018115
 21
-12635.24050221376
 31
0.0
  0
LINE
  5
41CD
330
18
100
AcDbEntity
  8
OBJECT
  6
Continuous
 48
100.0
100
AcDbLine
 10
34291.90574018548
 20
-12635.23957149581
 30
0.0
 11
34391.90574018115
 21
-12635.24050221376
 31
0.0
  0
LINE
  5
41CE
330
18
100
AcDbEntity
  8
OBJECT
  6
Continuous
 48
100.0
100
AcDbLine
 10
34291.8985105023
 20
-13256.6680602641
 30
0.0
 11
34291.90574018548
 21
-12635.23957149581
 31
0.0
  0
DIMENSION
  5
4200
330
18
100
AcDbEntity
  8
OBJECT
  6
Continuous
 48
100.0
100
AcDbDimension
  2
*D5
 10
39791.83833213239
 20
-19295.69875684639
 30
0.0
 11
31791.83833227857
 21
-18920.69875684639
 31
0.0
 70
    32
 71
     5
 42
-1.0
  3
STANDARD_WS
100
AcDbAlignedDimension
 13
23791.83833242474
 23
-20123.18623330775
 33
0.0
 14
39791.83833213239
 24
-20123.22346202615
 34
0.0
100
AcDbRotatedDimension
1001
ACAD
1000
DSTYLE
1002
{
1070
    40
1040
200.0
1070
   271
1070
     1
1002
}
  0
DIMENSION
  5
4250
330
18
100
AcDbEntity
  8
DIM
  6
Continuous
 48
100.0
100
AcDbDimension
  2
*D6
 10
34291.90780106097
 20
-11862.79843260458
 30
0.0
 11
31791.90524164749
 21
-11487.79843260458
 31
0.0
 70
    32
 71
     5
 42
-1.0
  3
STANDARD_WS
100
AcDbAlignedDimension
 13
29291.90268223401
 23
-12706.63324098727
 33
0.0
 14
34291.90780106097
 24
-12706.66814294645
 34
0.0
100
AcDbRotatedDimension
1001
ACAD
1000
DSTYLE
1002
{
1070
    40
1040
200.0
1070
   271
1070
     1
1002
}
  0
MTEXT
  5
426B
330
18
100
AcDbEntity
  8
DIM
  6
Continuous
 48
100.0
100
AcDbMText
 10
32646.24763196014
 20
-15955.23710901566
 30
0.0
 40
300.0
 41
4081.2759
 71
     1
 72
     5
  1
MIDSHIP SEC
 73
     1
 44
1.0
  0
LINE
  5
426C
330
18
100
AcDbEntity
  8
DIM
  6
Continuous
 48
100.0
100
AcDbLine
 10
32519.5018396212
 20
-16411.26508192837
 30
0.0
 11
35688.19435642949
 21
-16411.29457351868
 31
0.0
  0
LINE
  5
426E
330
18
100
AcDbEntity
  8
OBJECT
  6
Continuous
 48
100.0
100
AcDbLine
 10
23791.83693628987
 20
-20723.21113263544
 30
0.0
 11
39791.83693561244
 21
-20723.41385613809
 31
0.0
  0
LINE
  5
426F
330
18
100
AcDbEntity
  8
OBJECT
  6
Continuous
 48
100.0
100
AcDbLine
 10
43291.85136166972
 20
-20523.44847190129
 30
0.0
 11
39794.68907819509
 21
-20723.25374139592
 31
0.0
  0
DIMENSION
  5
427C
330
18
100
AcDbEntity
  8
DIM
  6
Continuous
 48
100.0
100
AcDbDimension
  2
*D7
 10
18970.4785981861
 20
-22973.1536580785
 30
0.0
 11
18595.4785981861
 21
-21723.15365813264
 31
0.0
 70
    32
 71
     5
 42
-1.0
  3
STANDARD_WS
100
AcDbAlignedDimension
 13
20291.83751811285
 23
-20473.15365818678
 33
0.0
 14
20291.81425016389
 24
-22973.1536580785
 34
0.0
 50
90.0
100
AcDbRotatedDimension
1001
ACAD
1000
DSTYLE
1002
{
1070
    40
1040
200.0
1070
   271
1070
     1
1002
}
  0
LINE
  5
427D
330
18
100
AcDbEntity
  8
DIM
  6
Continuous
 48
100.0
100
AcDbLine
 10
20291.83775079234
 20
-20373.15365818705
 30
0.0
 11
23791.83705268755
 21
-20673.18623331966
 31
0.0
  0
LINE
  5
427E
330
18
100
AcDbEntity
  8
OBJECT
  6
Continuous
 48
100.0
100
AcDbLine
 10
23791.83670366832
 20
-20723.18623331844
 30
0.0
 11
20291.83716909362
 21
-20523.15365818556
 31
0.0
  0
LINE
  5
427F
330
18
100
AcDbEntity
  8
OBJECT
  6
Continuous
 48
100.0
100
AcDbLine
 10
23791.83313522419
 20
-21023.21113261136
 30
0.0
 11
39791.83313454677
 21
-21023.41385611401
 31
0.0
  0
LINE
  5
4280
330
18
100
AcDbEntity
  8
OBJECT
  6
Continuous
 48
100.0
100
AcDbLine
 10
43291.85066249282
 20
-20823.93774917536
 30
0.0
 11
39791.83623642892
 21
-21023.90597167945
 31
0.0
  0
LINE
  5
4281
330
18
100
AcDbEntity
  8
OBJECT
  6
Continuous
 48
100.0
100
AcDbLine
 10
43291.8499633159
 20
-21124.42702644942
 30
0.0
 11
39791.835537252
 21
-21324.39524895351
 31
0.0
  0
LINE
  5
4282
330
18
100
AcDbEntity
  8
OBJECT
  6
Continuous
 48
100.0
100
AcDbLine
 10
43291.84926413899
 20
-21424.91630372349
 30
0.0
 11
39791.83483807508
 21
-21624.88452622758
 31
0.0
  0
LINE
  5
4283
330
18
100
AcDbEntity
  8
OBJECT
  6
Continuous
 48
100.0
100
AcDbLine
 10
23791.82933415852
 20
-21323.21113258728
 30
0.0
 11
39791.8293334811
 21
-21323.41385608993
 31
0.0
  0
LINE
  5
4284
330
18
100
AcDbEntity
  8
OBJECT
  6
Continuous
 48
100.0
100
AcDbLine
 10
23791.82553309285
 20
-21623.2111325632
 30
0.0
 11
39791.82553241543
 21
-21623.41385606585
 31
0.0
  0
LINE
  5
4286
330
18
100
AcDbEntity
  8
OBJECT
  6
Continuous
 48
100.0
100
AcDbLine
 10
23791.83554254517
 20
-21322.20879579727
 30
0.0
 11
20291.83600346223
 21
-21124.11375247961
 31
0.0
  0
LINE
  5
4287
330
18
100
AcDbEntity
  8
OBJECT
  6
Continuous
 48
100.0
100
AcDbLine
 10
23791.82553309285
 20
-21623.2111325632
 30
0.0
 11
20291.83530428922
 21
-21424.60135290046
 31
0.0
  0
LINE
  5
4288
330
18
100
AcDbEntity
  8
OBJECT
  6
Continuous
 48
100.0
100
AcDbLine
 10
23791.8362371703
 20
-21023.67576282833
 30
0.0
 11
20291.83670259561
 21
-20823.64318769545
 31
0.0
  0
LINE
  5
428A
330
18
100
AcDbEntity
  8
DIM
  6
Continuous
 48
100.0
100
AcDbLine
 10
35291.9007375521
 20
-13335.24655186249
 30
0.0
 11
35301.90085389143
 21
-13335.24664493537
 31
0.0
  0
LINE
  5
428B
330
18
100
AcDbEntity
  8
DIM
  6
Continuous
 48
100.0
100
AcDbLine
 10
35291.89794539822
 20
-13635.2465518495
 30
0.0
 11
35301.89875977602
 21
-13635.24664492888
 31
0.0
  0
LINE
  5
428C
330
18
100
AcDbEntity
  8
DIM
  6
Continuous
 48
100.0
100
AcDbLine
 10
35291.89515324434
 20
-13935.24655183651
 30
0.0
 11
35301.89666566063
 21
-13935.24664492238
 31
0.0
  0
LINE
  5
428D
330
18
100
AcDbEntity
  8
DIM
  6
Continuous
 48
100.0
100
AcDbLine
 10
35291.89236109046
 20
-14235.24655182351
 30
0.0
 11
35301.89457154522
 21
-14235.24664491589
 31
0.0
  0
LINE
  5
428E
330
18
100
AcDbEntity
  8
OBJECT
  6
Continuous
 48
0.008
100
AcDbLine
 10
35301.90085389143
 20
-13335.24664493537
 30
0.0
 11
35301.89875977602
 21
-13635.24664492888
 31
0.0
  0
LINE
  5
428F
330
18
100
AcDbEntity
  8
OBJECT
  6
Continuous
 48
0.008
100
AcDbLine
 10
35301.89666566063
 20
-13935.24664492238
 30
0.0
 11
35301.89457154522
 21
-14235.24664491589
 31
0.0
  0
LINE
  5
4291
330
18
100
AcDbEntity
  8
OBJECT
  6
Continuous
 48
0.008
100
AcDbLine
 10
28281.89666583165
 20
-13935.19764262187
 30
0.0
 11
28281.89457171624
 21
-14235.19764261537
 31
0.0
  0
LINE
  5
4292
330
18
100
AcDbEntity
  8
DIM
  6
Continuous
 48
100.0
100
AcDbLine
 10
28291.89678217133
 20
-14235.19768916155
 30
0.0
 11
28281.89457171624
 21
-14235.19764261537
 31
0.0
  0
LINE
  5
4293
330
18
100
AcDbEntity
  8
OBJECT
  6
Continuous
 48
0.008
100
AcDbLine
 10
28281.90085406246
 20
-13335.19764263486
 30
0.0
 11
28281.89875994707
 21
-13635.19764262836
 31
0.0
  0
LINE
  5
4294
330
18
100
AcDbEntity
  8
DIM
  6
Continuous
 48
100.0
100
AcDbLine
 10
28291.90097040213
 20
-13335.1976891713
 30
0.0
 11
28281.90085406246
 21
-13335.19764263486
 31
0.0
  0
LINE
  5
4295
330
18
100
AcDbEntity
  8
DIM
  6
Continuous
 48
100.0
100
AcDbLine
 10
28291.89957432519
 20
-13635.19768916805
 30
0.0
 11
28281.89875994707
 21
-13635.19764262836
 31
0.0
  0
LINE
  5
4296
330
18
100
AcDbEntity
  8
DIM
  6
Continuous
 48
100.0
100
AcDbLine
 10
28291.89817824826
 20
-13935.1976891648
 30
0.0
 11
28281.89666583165
 21
-13935.19764262187
 31
0.0
  0
LINE
  5
4299
330
18
100
AcDbEntity
  8
FS
  6
Continuous
 62
     4
 48
100.0
100
AcDbLine
 10
23791.94191887707
 20
-15704.37081879468
 30
0.0
 11
23791.75522666406
 21
-42449.63221250575
 31
0.0
  0
LINE
  5
429A
330
18
100
AcDbEntity
  8
DIM
  6
Continuous
 48
100.0
100
AcDbLine
 10
17078.29643971432
 20
-42449.63221250576
 30
0.0
 11
48900.71817352843
 21
-42449.63221250576
 31
0.0
  0
LINE
  5
429C
330
18
100
AcDbEntity
  8
FS
  6
Continuous
 62
     4
 48
100.0
100
AcDbLine
 10
39791.94191819903
 20
-15704.52380555801
 30
0.0
 11
39791.7552271391
 21
-42449.61999683143
 31
0.0
  0
LINE
  5
429D
330
18
100
AcDbEntity
  8
FS
  6
Continuous
 62
     4
 48
100.0
100
AcDbLine
 10
43291.94191811375
 20
-15704.54823690441
 30
0.0
 11
43291.75522705382
 21
-42449.64442817783
 31
0.0
  0
LINE
  5
429E
330
18
100
AcDbEntity
  8
FS
  6
Continuous
 62
     4
 48
100.0
100
AcDbLine
 10
20291.9419186741
 20
-15704.38768804036
 30
0.0
 11
20291.75522761417
 21
-42449.48387931378
 31
0.0
  0
LINE
  5
42AE
330
18
100
AcDbEntity
  8
DIM
  6
Continuous
 48
100.0
100
AcDbLine
 10
31641.82078896577
 20
-21023.31059367342
 30
0.0
 11
31641.81875090895
 21
-21323.31059367168
 31
0.0
  0
LINE
  5
42AF
330
18
100
AcDbEntity
  8
DIM
  6
Continuous
 48
100.0
100
AcDbLine
 10
31941.82078894688
 20
-21023.3143947391
 30
0.0
 11
31941.81875089005
 21
-21323.31439473735
 31
0.0
  0
LINE
  5
42B1
330
18
100
AcDbEntity
  8
DIM
  6
Continuous
 48
100.0
100
AcDbLine
 10
32641.8207889427
 20
-21023.31738719616
 30
0.0
 11
32641.81875088587
 21
-21323.31738719443
 31
0.0
  0
LINE
  5
42B2
330
18
100
AcDbEntity
  8
DIM
  6
Continuous
 48
100.0
100
AcDbLine
 10
32941.82078893578
 20
-21023.31942525299
 30
0.0
 11
32941.81875087895
 21
-21323.31942525125
 31
0.0
  0
LINE
  5
42B3
330
18
100
AcDbEntity
  8
DIM
  6
Continuous
 48
100.0
100
AcDbLine
 10
33941.82078891269
 20
-21023.32621877573
 30
0.0
 11
33941.81875085587
 21
-21323.326218774
 31
0.0
  0
LINE
  5
42B4
330
18
100
AcDbEntity
  8
DIM
  6
Continuous
 48
100.0
100
AcDbLine
 10
33641.82078891962
 20
-21023.32418071891
 30
0.0
 11
33641.81875086279
 21
-21323.32418071717
 31
0.0
  0
LINE
  5
42B5
330
18
100
AcDbEntity
  8
DIM
  6
Continuous
 48
100.0
100
AcDbLine
 10
35941.82078886654
 20
-21023.33980582123
 30
0.0
 11
35941.81875080971
 21
-21323.33980581949
 31
0.0
  0
LINE
  5
42B6
330
18
100
AcDbEntity
  8
DIM
  6
Continuous
 48
100.0
100
AcDbLine
 10
35641.82078887346
 20
-21023.3377677644
 30
0.0
 11
35641.81875081663
 21
-21323.33776776266
 31
0.0
  0
LINE
  5
42B7
330
18
100
AcDbEntity
  8
DIM
  6
Continuous
 48
100.0
100
AcDbLine
 10
34941.82078888961
 20
-21023.33301229848
 30
0.0
 11
34941.81875083279
 21
-21323.33301229674
 31
0.0
  0
LINE
  5
42B8
330
18
100
AcDbEntity
  8
DIM
  6
Continuous
 48
100.0
100
AcDbLine
 10
34641.82078889654
 20
-21023.33097424166
 30
0.0
 11
34641.81875083971
 21
-21323.33097423992
 31
0.0
  0
LINE
  5
42C1
330
18
100
AcDbEntity
  8
DIM
  6
Continuous
 48
100.0
100
AcDbLine
 10
36941.82078884346
 20
-21023.34659934397
 30
0.0
 11
36941.81875078663
 21
-21323.34659934223
 31
0.0
  0
LINE
  5
42C2
330
18
100
AcDbEntity
  8
DIM
  6
Continuous
 48
100.0
100
AcDbLine
 10
36641.82078885038
 20
-21023.34456128715
 30
0.0
 11
36641.81875079355
 21
-21323.34456128541
 31
0.0
  0
LINE
  5
42C3
330
18
100
AcDbEntity
  8
DIM
  6
Continuous
 48
100.0
100
AcDbLine
 10
37641.8207888273
 20
-21023.35135480989
 30
0.0
 11
37641.81875077047
 21
-21323.35135480815
 31
0.0
  0
LINE
  5
42C4
330
18
100
AcDbEntity
  8
DIM
  6
Continuous
 48
100.0
100
AcDbLine
 10
37941.82078882038
 20
-21023.35339286672
 30
0.0
 11
37941.81875076355
 21
-21323.35339286498
 31
0.0
  0
LINE
  5
42C5
330
18
100
AcDbEntity
  8
DIM
  6
Continuous
 48
100.0
100
AcDbLine
 10
38941.82078879731
 20
-21023.36018638946
 30
0.0
 11
38941.81875074048
 21
-21323.36018638772
 31
0.0
  0
LINE
  5
42C6
330
18
100
AcDbEntity
  8
DIM
  6
Continuous
 48
100.0
100
AcDbLine
 10
38641.82078880423
 20
-21023.35814833264
 30
0.0
 11
38641.8187507474
 21
-21323.3581483309
 31
0.0
  0
LINE
  5
42C7
330
18
100
AcDbEntity
  8
DIM
  6
Continuous
 48
100.0
100
AcDbLine
 10
39641.82078878115
 20
-21023.36494185538
 30
0.0
 11
39641.81875072432
 21
-21323.36494185365
 31
0.0
  0
LINE
  5
42C8
330
18
100
AcDbEntity
  8
DIM
  6
Continuous
 48
100.0
100
AcDbLine
 10
39941.82078877423
 20
-21023.36697991221
 30
0.0
 11
39941.8187507174
 21
-21323.36697991047
 31
0.0
  0
LINE
  5
42CD
330
18
100
AcDbEntity
  8
DIM
  6
Continuous
 48
100.0
100
AcDbLine
 10
41934.85547427881
 20
-20901.46769125589
 30
0.0
 11
41934.88130376997
 21
-21201.95545285318
 31
0.0
  0
LINE
  5
42CE
330
18
100
AcDbEntity
  8
DIM
  6
Continuous
 48
100.0
100
AcDbLine
 10
41635.83167666573
 20
-20918.55198006619
 30
0.0
 11
41635.85750615689
 21
-21219.03974166348
 31
0.0
  0
LINE
  5
42CF
330
18
100
AcDbEntity
  8
DIM
  6
Continuous
 48
100.0
100
AcDbLine
 10
40639.08568462213
 20
-20975.49960943388
 30
0.0
 11
40639.11151411328
 21
-21275.98737103116
 31
0.0
  0
LINE
  5
42D0
330
18
100
AcDbEntity
  8
DIM
  6
Continuous
 48
100.0
100
AcDbLine
 10
40938.10948223521
 20
-20958.41532062357
 30
0.0
 11
40938.13531172637
 21
-21258.90308222086
 31
0.0
  0
LINE
  5
42D1
330
18
100
AcDbEntity
  8
DIM
  6
Continuous
 48
100.0
100
AcDbLine
 10
42931.60146632241
 20
-20844.52006188821
 30
0.0
 11
42931.62729581357
 21
-21145.00782348549
 31
0.0
  0
LINE
  5
42D2
330
18
100
AcDbEntity
  8
DIM
  6
Continuous
 48
100.0
100
AcDbLine
 10
42632.57766870934
 20
-20861.60435069851
 30
0.0
 11
42632.60349820049
 21
-21162.0921122958
 31
0.0
  0
LINE
  5
42D5
330
18
100
AcDbEntity
  8
OBJECT
  6
Continuous
 48
0.008
100
AcDbLine
 10
28281.86108829413
 20
-13935.18130819056
 30
0.0
 11
28281.85759810179
 21
-14235.18130817107
 31
0.0
  0
LINE
  5
42D6
330
18
100
AcDbEntity
  8
DIM
  6
Continuous
 48
100.0
100
AcDbLine
 10
28291.85980855655
 20
-14235.18140126344
 30
0.0
 11
28281.85759810179
 21
-14235.18130817107
 31
0.0
  0
LINE
  5
42D7
330
18
100
AcDbEntity
  8
OBJECT
  6
Continuous
 48
0.008
100
AcDbLine
 10
28281.86806867882
 20
-13335.18130822954
 30
0.0
 11
28281.86457848649
 21
-13635.18130821005
 31
0.0
  0
LINE
  5
42D8
330
18
100
AcDbEntity
  8
DIM
  6
Continuous
 48
100.0
100
AcDbLine
 10
28291.86818501817
 20
-13335.18140130242
 30
0.0
 11
28281.86806867882
 21
-13335.18130822954
 31
0.0
  0
LINE
  5
42D9
330
18
100
AcDbEntity
  8
DIM
  6
Continuous
 48
100.0
100
AcDbLine
 10
28291.86539286429
 20
-13635.18140128943
 30
0.0
 11
28281.86457848649
 21
-13635.18130821005
 31
0.0
  0
LINE
  5
42DA
330
18
100
AcDbEntity
  8
DIM
  6
Continuous
 48
100.0
100
AcDbLine
 10
28291.86260071042
 20
-13935.18140127643
 30
0.0
 11
28281.86108829413
 21
-13935.18130819056
 31
0.0
  0
LINE
  5
42F0
330
18
100
AcDbEntity
  8
DIM
  6
Continuous
 48
100.0
100
AcDbLine
 10
20291.82290613431
 20
-26424.93056095847
 30
0.0
 11
20291.80196460862
 21
-29424.98407717613
 31
0.0
  0
LINE
  5
42F1
330
18
100
AcDbEntity
  8
DIM
  6
Continuous
 48
100.0
100
AcDbLine
 10
43291.8229023364
 20
-26425.14462608893
 30
0.0
 11
43291.80196118234
 21
-29425.14462600907
 31
0.0
  0
LINE
  5
430E
330
18
100
AcDbEntity
  8
DIM
  6
Continuous
 48
100.0
100
AcDbLine
 10
-34086.15612804337
 20
-42449.63221250576
 30
0.0
 11
-2263.73439422925
 21
-42449.63221250576
 31
0.0
  0
LINE
  5
430F
330
18
100
AcDbEntity
  8
OBJECT
  6
Continuous
 48
100.0
100
AcDbLine
 10
-27372.61633058739
 20
-21023.67576282834
 30
0.0
 11
-30872.61586516208
 21
-20823.64318769545
 31
0.0
  0
LINE
  5
4310
330
18
100
AcDbEntity
  8
OBJECT
  6
Continuous
 48
100.0
100
AcDbLine
 10
-27372.62703466484
 20
-21623.2111325632
 30
0.0
 11
-30872.61726346848
 21
-21424.60135290046
 31
0.0
  0
LINE
  5
4311
330
18
100
AcDbEntity
  8
OBJECT
  6
Continuous
 48
100.0
100
AcDbLine
 10
-27372.61702521252
 20
-21322.20879579727
 30
0.0
 11
-30872.61656429546
 21
-21124.11375247961
 31
0.0
  0
LINE
  5
4312
330
18
100
AcDbEntity
  8
OBJECT
  6
Continuous
 48
100.0
100
AcDbLine
 10
-27372.61586408937
 20
-20723.18623331844
 30
0.0
 11
-30872.61539866407
 21
-20523.15365818556
 31
0.0
  0
LINE
  5
4313
330
18
100
AcDbEntity
  8
DIM
  6
Continuous
 48
100.0
100
AcDbLine
 10
-30872.61481696535
 20
-20373.15365818705
 30
0.0
 11
-27372.61551507014
 21
-20673.18623331966
 31
0.0
  0
LINE
  5
4314
330
18
100
AcDbEntity
  8
OBJECT
  6
Continuous
 48
100.0
100
AcDbLine
 10
-27372.61551507014
 20
-20673.18623331966
 30
0.0
 11
-30872.61504964483
 21
-20473.15365818679
 31
0.0
  0
LINE
  5
4315
330
18
100
AcDbEntity
  8
OBJECT
  6
Continuous
 48
100.0
100
AcDbLine
 10
-30872.61737643972
 20
-21473.15365820844
 30
0.0
 11
-28372.62086667945
 21
-22973.17692618989
 31
0.0
  0
LINE
  5
4316
330
18
100
AcDbEntity
  8
OBJECT
  6
Continuous
 48
0.04
100
AcDbLine
 10
-30372.6261746811
 20
-32254.42246816898
 30
0.0
 11
-8372.626175217076
 21
-32254.57603661792
 31
0.0
  0
LINE
  5
4317
330
18
100
AcDbEntity
  8
OBJECT
  6
Continuous
 48
100.0
100
AcDbLine
 10
-34776.44968913165
 20
-22973.11732460499
 30
0.0
 11
-10372.62086726958
 21
-22973.34445542244
 31
0.0
  0
LINE
  5
4318
330
18
100
AcDbEntity
  8
OBJECT
  6
CENTER2
 48
0.04
100
AcDbLine
 10
-34776.53890734381
 20
-35754.3917272521
 30
0.0
 11
-2872.650606697164
 21
-35754.61442864488
 31
0.0
  0
LINE
  5
4319
330
18
100
AcDbEntity
  8
DIM
  6
Continuous
 48
100.0
100
AcDbLine
 10
-30872.62966162339
 20
-32754.36546167407
 30
0.0
 11
-30872.65060314907
 21
-35754.41897789172
 31
0.0
  0
LINE
  5
431A
330
18
100
AcDbEntity
  8
OBJECT
  6
Continuous
 48
100.0
100
AcDbLine
 10
-30872.650606015
 20
-35754.41897787686
 30
0.0
 11
-30872.64362563031
 21
-32754.41897793198
 31
0.0
  0
LINE
  5
431B
330
18
100
AcDbEntity
  8
OBJECT
  6
Continuous
 48
100.0
100
AcDbLine
 10
-30872.62966486094
 20
-32754.41897796446
 30
0.0
 11
-30872.650606015
 21
-35754.41897787686
 31
0.0
  0
LINE
  5
431C
330
18
100
AcDbEntity
  8
OBJECT
  6
Continuous
 48
100.0
100
AcDbLine
 10
-30672.6061284148
 20
-30299.31369061522
 30
0.0
 11
-30672.60899037252
 21
-30709.31369060522
 31
0.0
  0
LINE
  5
431D
330
18
100
AcDbEntity
  8
OBJECT
  6
Continuous
 48
100.0
100
AcDbLine
 10
-30922.60624476917
 20
-30324.31787884603
 30
0.0
 11
-30922.60792003659
 21
-30684.31252721247
 31
0.0
  0
CIRCLE
  5
431E
330
18
100
AcDbEntity
  8
OBJECT
  6
Continuous
 48
100.0
100
AcDbCircle
 10
-30922.60708239801
 20
-30504.31415597142
 30
0.0
 40
150.0
  0
CIRCLE
  5
431F
330
18
100
AcDbEntity
  8
OBJECT
  6
Continuous
 48
100.0
100
AcDbCircle
 10
-30922.60708239801
 20
-30504.31415597142
 30
0.0
 40
159.0
  0
LINE
  5
4320
330
18
100
AcDbEntity
  8
OBJECT
  6
Continuous
 48
100.0
100
AcDbLine
 10
-32072.60899035737
 20
-30709.30717557951
 30
0.0
 11
-32072.6061284148
 21
-30299.31369061522
 31
0.0
  0
LINE
  5
4321
330
18
100
AcDbEntity
  8
OBJECT
  6
Continuous
 48
100.0
100
AcDbLine
 10
-31822.60624475942
 20
-30324.31369061522
 30
0.0
 11
-31822.60792002685
 21
-30684.30833898167
 31
0.0
  0
CIRCLE
  5
4322
330
18
100
AcDbEntity
  8
OBJECT
  6
Continuous
 48
100.0
100
AcDbCircle
 10
-31822.60708238827
 20
-30504.30996774061
 30
0.0
 40
159.0
  0
CIRCLE
  5
4323
330
18
100
AcDbEntity
  8
OBJECT
  6
Continuous
 48
100.0
100
AcDbCircle
 10
-31822.60708238827
 20
-30504.30996774061
 30
0.0
 40
150.0
  0
LINE
  5
4324
330
18
100
AcDbEntity
  8
OBJECT
  6
Continuous
 48
100.0
100
AcDbLine
 10
-30672.60899037252
 20
-30709.31369060522
 30
0.0
 11
-32072.60899035737
 21
-30709.30717557951
 31
0.0
  0
ARC
  5
4325
330
18
100
AcDbEntity
  8
OBJECT
  6
Continuous
 48
100.0
100
AcDbCircle
 10
-30372.62966487312
 20
-32754.4224681568
 30
0.0
 40
500.0
100
AcDbArc
 50
89.99960005345499
 51
179.9996000534181
  0
LINE
  5
4326
330
18
100
AcDbEntity
  8
OBJECT
  6
Continuous
 48
100.0
100
AcDbLine
 10
-31102.6044065861
 20
-30504.31436539554
 30
0.0
 11
-30742.60975821965
 21
-30504.31604066296
 31
0.0
  0
LINE
  5
4327
330
18
100
AcDbEntity
  8
OBJECT
  6
Continuous
 48
100.0
100
AcDbLine
 10
-32072.6061284148
 20
-30299.31369061522
 30
0.0
 11
-30672.6061284148
 21
-30299.31369061522
 31
0.0
  0
LINE
  5
4328
330
18
100
AcDbEntity
  8
OBJECT
  6
Continuous
 48
100.0
100
AcDbLine
 10
-32002.60440657636
 20
-30504.31017716473
 30
0.0
 11
-31642.6097582099
 21
-30504.31185243215
 31
0.0
  0
DIMENSION
  5
4329
330
18
100
AcDbEntity
  8
DIM
  6
Continuous
 48
100.0
100
AcDbDimension
  2
*D13
 10
-32193.97396957158
 20
-22973.1536580785
 30
0.0
 11
-32568.97396957158
 21
-21723.15365813264
 31
0.0
 70
    32
 71
     5
 42
-1.0
  3
STANDARD_WS
100
AcDbAlignedDimension
 13
-30872.61504964484
 23
-20473.15365818678
 33
0.0
 14
-30872.63831759381
 24
-22973.1536580785
 34
0.0
 50
90.0
100
AcDbRotatedDimension
1001
ACAD
1000
DSTYLE
1002
{
1070
    40
1040
200.0
1070
   271
1070
     1
1002
}
  0
LINE
  5
432A
330
18
100
AcDbEntity
  8
OBJECT
  6
Continuous
 48
100.0
100
AcDbLine
 10
-30872.61737643973
 20
-21473.15365820843
 30
0.0
 11
-30872.61481696535
 21
-20373.15365818705
 31
0.0
  0
LINE
  5
432B
330
18
100
AcDbEntity
  8
OBJECT
  6
Continuous
 48
100.0
100
AcDbLine
 10
-7872.6033036187
 20
-21424.91630372348
 30
0.0
 11
-11372.6177296826
 21
-21624.88452622757
 31
0.0
  0
LINE
  5
432C
330
18
100
AcDbEntity
  8
OBJECT
  6
Continuous
 48
100.0
100
AcDbLine
 10
-7872.602604441789
 20
-21124.42702644943
 30
0.0
 11
-11372.61703050568
 21
-21324.39524895351
 31
0.0
  0
LINE
  5
432D
330
18
100
AcDbEntity
  8
OBJECT
  6
Continuous
 48
100.0
100
AcDbLine
 10
-7872.601905264869
 20
-20823.93774917536
 30
0.0
 11
-11372.61633132877
 21
-21023.90597167945
 31
0.0
  0
LINE
  5
432E
330
18
100
AcDbEntity
  8
OBJECT
  6
Continuous
 48
100.0
100
AcDbLine
 10
-7872.601206087965
 20
-20523.4484719013
 30
0.0
 11
-11369.7634895626
 21
-20723.25374139592
 31
0.0
  0
LINE
  5
432F
330
18
100
AcDbEntity
  8
OBJECT
  6
Continuous
 48
100.0
100
AcDbLine
 10
-11272.61423588707
 20
-20123.33607889909
 30
0.0
 11
-10972.61546244607
 21
-20650.48172820724
 31
0.0
  0
LINE
  5
4330
330
18
100
AcDbEntity
  8
OBJECT
  6
Continuous
 48
100.0
100
AcDbLine
 10
-11372.61551562237
 20
-20673.33514819305
 30
0.0
 11
-7872.600856878053
 21
-20373.36652680766
 31
0.0
  0
LINE
  5
4331
330
18
100
AcDbEntity
  8
OBJECT
  6
Continuous
 48
100.0
100
AcDbLine
 10
-7872.61505032971
 20
-20473.36772331727
 30
0.0
 11
-11372.61551562237
 21
-20673.33514819305
 31
0.0
  0
MTEXT
  5
4332
330
18
100
AcDbEntity
  8
DIM
  6
Continuous
 48
100.0
100
AcDbMText
 10
-17089.61511231945
 20
-4627.940495865566
 30
0.0
 40
750.0
 41
15000.0
 71
     1
 72
     5
  1
X 5000=105m
 73
     1
 44
1.0
  0
LINE
  5
4333
330
18
100
AcDbEntity
  8
OBJECT
  6
CENTER
 48
0.5
100
AcDbLine
 10
-19372.53087073711
 20
-6169.742702111369
 30
0.0
 11
-19372.78840877437
 21
-44079.09354384252
 31
0.0
  0
LINE
  5
4334
330
18
100
AcDbEntity
  8
OBJECT
  6
Continuous
 48
100.0
100
AcDbLine
 10
-27372.63315513853
 20
-33254.44340929675
 30
0.0
 11
-19372.65060629516
 21
-35754.49925230075
 31
0.0
  0
LINE
  5
4335
330
18
100
AcDbEntity
  8
OBJECT
  6
Continuous
 48
0.04
100
AcDbLine
 10
-27372.63315513853
 20
-33254.44340929675
 30
0.0
 11
-11372.63315552834
 21
-33254.55509544142
 31
0.0
  0
LINE
  5
4336
330
18
100
AcDbEntity
  8
OBJECT
  6
Continuous
 48
100.0
100
AcDbLine
 10
-27372.63315513853
 20
-33254.44340929675
 30
0.0
 11
-27372.65060610025
 21
-35754.44340922324
 31
0.0
  0
ARC
  5
4337
330
18
100
AcDbEntity
  8
OBJECT
  6
Continuous
 48
100.0
100
AcDbCircle
 10
-26920.90564278711
 20
-32504.42567802454
 30
0.0
 40
201.5237022343279
100
AcDbArc
 50
277.1263201447069
 51
83.02494339248561
  0
LINE
  5
4338
330
18
100
AcDbEntity
  8
OBJECT
  6
Continuous
 48
100.0
100
AcDbLine
 10
-27021.00752277577
 20
-32875.84295921844
 30
0.0
 11
-27021.0026860188
 21
-32182.93589320512
 31
0.0
  0
ARC
  5
4339
330
18
100
AcDbEntity
  8
OBJECT
  6
Continuous
 48
100.0
100
AcDbCircle
 10
-27121.10421745972
 20
-32504.42071131163
 30
0.0
 40
201.5237022343279
100
AcDbArc
 50
96.97425671449884
 51
262.8728799622777
  0
LINE
  5
433A
330
18
100
AcDbEntity
  8
DIM
  6
Continuous
 48
100.0
100
AcDbLine
 10
-27433.51755304157
 20
-32504.42019527677
 30
0.0
 11
-26626.30785775394
 21
-32504.4271920875
 31
0.0
  0
LINE
  5
433B
330
18
100
AcDbEntity
  8
OBJECT
  6
Continuous
 48
100.0
100
AcDbLine
 10
-26895.9051535069
 20
-32704.3926205375
 30
0.0
 11
-27146.10749843828
 21
-32704.38730477909
 31
0.0
  0
LINE
  5
433C
330
18
100
AcDbEntity
  8
DIM
  6
Continuous
 48
100.0
100
AcDbLine
 10
-27145.57390554336
 20
-32304.38812164855
 30
0.0
 11
-26896.43316209751
 21
-32304.39342999656
 31
0.0
  0
MTEXT
  5
433D
330
18
100
AcDbEntity
  8
OBJECT
  6
Continuous
 48
100.0
100
AcDbMText
 10
-18940.03973371156
 20
-35005.1979253608
 30
0.0
 40
400.0
 41
7980.541999999998
 71
     1
 72
     5
  1
HOLD CAP 105m
 11
0.9544820600860475
 21
0.2982683304910108
 31
0.0
 73
     1
 44
1.0
  0
LINE
  5
433E
330
18
100
AcDbEntity
  8
OBJECT
  6
Continuous
 48
100.0
100
AcDbLine
 10
-19372.65060629516
 20
-35754.49925230075
 30
0.0
 11
-11372.63315552834
 21
-33254.55509544142
 31
0.0
  0
LWPOLYLINE
  5
433F
330
18
100
AcDbEntity
  8
OBJECT
  6
Continuous
 48
100.0
100
AcDbPolyline
 90
        8
 70
     1
 43
0.0
 10
-15822.63804172216
 20
-32454.52787190573
 10
-16222.63804168318
 20
-32454.52228759797
 42
-0.414213562373094
 10
-16322.63664559649
 20
-32354.52089153078
 10
-16322.63106128875
 20
-31954.52089156976
 42
-0.4142135623730951
 10
-16222.62966522155
 20
-31854.52228765644
 10
-15822.62966526053
 20
-31854.52787196419
 42
-0.4142135623730961
 10
-15722.63106134721
 20
-31954.52926803139
 10
-15722.63664565496
 20
-32354.52926799241
 42
-0.4142135623730951
  0
LINE
  5
4340
330
18
100
AcDbEntity
  8
OBJECT
  6
Continuous
 48
100.0
100
AcDbLine
 10
-15751.91939605024
 20
-31883.81818101816
 30
0.0
 11
-16293.34831089347
 21
-32425.23197854401
 31
0.0
  0
LINE
  5
4341
330
18
100
AcDbEntity
  8
OBJECT
  6
Continuous
 48
100.0
100
AcDbLine
 10
-16293.34075223478
 20
-31883.81062235947
 30
0.0
 11
-15751.92695470892
 21
-32425.23953720271
 31
0.0
  0
LINE
  5
4342
330
18
100
AcDbEntity
  8
OBJECT
  6
Continuous
 48
100.0
100
AcDbLine
 10
-11372.63315552834
 20
-33254.55509544142
 30
0.0
 11
-11372.65060649007
 21
-35754.55509537827
 31
0.0
  0
MTEXT
  5
4343
330
18
100
AcDbEntity
  8
OBJECT
  6
Continuous
 48
100.0
100
AcDbMText
 10
-14661.65371989306
 20
-33579.74520365623
 30
0.0
 40
150.0
 41
672.1758999999999
 71
     1
 72
     5
  1
3
 11
0.954481936596213
 21
0.2982687256678833
 31
0.0
 73
     1
 44
1.0
  0
ARC
  5
4344
330
18
100
AcDbEntity
  8
OBJECT
  6
Continuous
 48
100.0
100
AcDbCircle
 10
-11624.31533519788
 20
-32504.52598909941
 30
0.0
 40
201.5237022343279
100
AcDbArc
 50
277.1263415573596
 51
83.02496480513834
  0
ARC
  5
4345
330
18
100
AcDbEntity
  8
OBJECT
  6
Continuous
 48
100.0
100
AcDbCircle
 10
-11824.51390991948
 20
-32504.52823570517
 30
0.0
 40
201.5237022343279
100
AcDbArc
 50
96.97427812715156
 51
262.8729013749303
  0
LINE
  5
4346
330
18
100
AcDbEntity
  8
OBJECT
  6
Continuous
 48
100.0
100
AcDbLine
 10
-11724.41707640356
 20
-32875.94687695359
 30
0.0
 11
-11724.41249860071
 21
-32183.0398109385
 31
0.0
  0
LINE
  5
4347
330
18
100
AcDbEntity
  8
OBJECT
  6
Continuous
 48
100.0
100
AcDbLine
 10
-11849.51711615733
 20
-32704.49483851689
 30
0.0
 11
-11599.31477117682
 21
-32704.49292226913
 31
0.0
  0
LINE
  5
4348
330
18
100
AcDbEntity
  8
DIM
  6
Continuous
 48
100.0
100
AcDbLine
 10
-11311.90199963785
 20
-32504.52971783875
 30
0.0
 11
-12119.11169494604
 21
-32504.52574705462
 31
0.0
  0
LINE
  5
4349
330
18
100
AcDbEntity
  8
DIM
  6
Continuous
 48
100.0
100
AcDbLine
 10
-11599.84292926459
 20
-32304.49373192556
 30
0.0
 11
-11848.98367275957
 21
-32304.49565518695
 31
0.0
  0
LINE
  5
434A
330
18
100
AcDbEntity
  8
OBJECT
  6
Continuous
 48
100.0
100
AcDbLine
 10
-27372.62703466484
 20
-21623.2111325632
 30
0.0
 11
-11372.62703534226
 21
-21623.41385606585
 31
0.0
  0
LINE
  5
434B
330
18
100
AcDbEntity
  8
OBJECT
  6
Continuous
 48
100.0
100
AcDbLine
 10
-27372.62323359917
 20
-21323.21113258728
 30
0.0
 11
-11372.62323427659
 21
-21323.41385608993
 31
0.0
  0
LINE
  5
434C
330
18
100
AcDbEntity
  8
OBJECT
  6
Continuous
 48
100.0
100
AcDbLine
 10
-27372.61943253349
 20
-21023.21113261137
 30
0.0
 11
-11372.61943321092
 21
-21023.41385611401
 31
0.0
  0
LINE
  5
434D
330
18
100
AcDbEntity
  8
OBJECT
  6
Continuous
 48
100.0
100
AcDbLine
 10
-27372.61563146782
 20
-20723.21113263544
 30
0.0
 11
-11372.61563214525
 21
-20723.41385613809
 31
0.0
  0
DIMENSION
  5
434E
330
18
100
AcDbEntity
  8
DIM
  6
Continuous
 48
100.0
100
AcDbDimension
  2
*D12
 10
-16872.54476669672
 20
-8698.081103267265
 30
0.0
 11
-19372.5473261102
 21
-8323.081103267265
 31
0.0
 70
    32
 71
     5
 42
-1.0
  3
STANDARD_WS
100
AcDbAlignedDimension
 13
-21872.54988552368
 23
-9541.915911649949
 33
0.0
 14
-16872.54476669672
 24
-9541.950813609135
 34
0.0
100
AcDbRotatedDimension
1001
ACAD
1000
DSTYLE
1002
{
1070
    40
1040
200.0
1070
   271
1070
     1
1002
}
  0
DIMENSION
  5
434F
330
18
100
AcDbEntity
  8
OBJECT
  6
Continuous
 48
100.0
100
AcDbDimension
  2
*D11
 10
33791.83344571693
 20
-23733.95892630174
 30
0.0
 11
31756.38078339759
 21
-23733.95892630174
 31
0.0
 70
   160
 71
     5
 42
-1.0
  3
STANDARD_WS
100
AcDbAlignedDimension
 13
29791.83344604177
 23
-22223.24207643075
 33
0.0
 14
33791.83344571693
 24
-22223.27930514909
 34
0.0
100
AcDbRotatedDimension
1001
ACAD
1000
DSTYLE
1002
{
1070
    40
1040
200.0
1070
   271
1070
     1
1002
}
  0
DIMENSION
  5
4350
330
18
100
AcDbEntity
  8
OBJECT
  6
Continuous
 48
100.0
100
AcDbDimension
  2
*D8
 10
-11372.6142356253
 20
-19295.69875684639
 30
0.0
 11
-19372.61423547912
 21
-18920.69875684639
 31
0.0
 70
    32
 71
     5
 42
-1.0
  3
STANDARD_WS
100
AcDbAlignedDimension
 13
-27372.61423533295
 23
-20123.18623330775
 33
0.0
 14
-11372.6142356253
 24
-20123.22346202615
 34
0.0
100
AcDbRotatedDimension
1001
ACAD
1000
DSTYLE
1002
{
1070
    40
1040
200.0
1070
   271
1070
     1
1002
}
  0
HATCH
  5
4351
330
18
100
AcDbEntity
  8
OBJECT
  6
Continuous
 48
1000.0
100
AcDbHatch
 10
0.0
 20
0.0
 30
0.0
210
0.0
220
0.0
230
1.0
  2
ANSI31
 70
     0
 71
     0
 91
        6
 92
        7
 72
     0
 73
     1
 93
        4
 10
-19372.55066672286
 20
-10020.50479118336
 10
-19372.5473261102
 20
-9541.933362629542
 10
-21872.54988552368
 20
-9541.915911649949
 10
-21872.55116526088
 20
-10091.91591164846
 97
        0
 92
        7
 72
     0
 73
     1
 93
        4
 10
-19372.55136476134
 20
-10120.50479118092
 10
-19372.55066672286
 20
-10020.50479118336
 10
-21872.55116526087
 20
-10091.91591164846
 10
-21872.55136470044
 20
-10120.48734021919
 97
        0
 92
        7
 72
     0
 73
     1
 93
        4
 10
-21872.55136470044
 20
-10120.48734021919
 10
-21872.56148625823
 20
-11570.48734018387
 10
-19372.56148631913
 20
-11570.50479114559
 10
-19372.55136476133
 20
-10120.50479118092
 97
        0
 92
        7
 72
     0
 73
     1
 93
        4
 10
-16872.55116538268
 20
-10091.95081357192
 10
-16872.54476669671
 20
-9541.950813609139
 10
-19372.5473261102
 20
-9541.93336262954
 10
-19372.55066672287
 20
-10020.50479118336
 97
        0
 92
        7
 72
     0
 73
     1
 93
        4
 10
-16872.55136482225
 20
-10120.52224214265
 10
-16872.55116538268
 20
-10091.95081357192
 10
-19372.55066672287
 20
-10020.50479118336
 10
-19372.55136476134
 20
-10120.50479118092
 97
        0
 92
        7
 72
     0
 73
     1
 93
        4
 10
-19372.56148631914
 20
-11570.5047911456
 10
-16872.56148638006
 20
-11570.52224210733
 10
-16872.55136482224
 20
-10120.52224214265
 10
-19372.55136476133
 20
-10120.50479118092
 97
        0
 75
     0
 76
     1
 52
0.0
 41
100.0
 77
     0
 78
     1
 53
45.0
 43
-51164.45256775769
 44
0.0
 45
-224.5064030267288
 46
224.5064030267288
 79
     0
 47
8.122144350727497
 98
        6
 10
-20645.20263498049
 20
-9843.35202010523
 10
-20490.79256356845
 20
-10087.01648331593
 10
-20238.86067389196
 20
-10623.07808297564
 10
-18784.15559637413
 20
-9835.229907898844
 10
-19101.10258506203
 20
-10103.26070772868
 10
-18930.4388219224
 20
-10704.29942444327
  0
LINE
  5
4352
330
18
100
AcDbEntity
  8
OBJECT
  6
Continuous
 48
100.0
100
AcDbLine
 10
-27472.61423533105
 20
-20123.18530258979
 30
0.0
 11
-11272.61423588707
 21
-20123.33607889909
 31
0.0
  0
LINE
  5
4353
330
18
100
AcDbEntity
  8
OBJECT
  6
Continuous
 48
100.0
100
AcDbLine
 10
-21372.61912171592
 20
-22223.24207643075
 30
0.0
 11
-17372.61912204076
 21
-22223.27930514909
 31
0.0
  0
LINE
  5
4354
330
18
100
AcDbEntity
  8
OBJECT
  6
Continuous
 48
100.0
100
AcDbLine
 10
-21872.56148625823
 20
-11570.48734018387
 30
0.0
 11
-19372.56148631914
 21
-11570.5047911456
 31
0.0
  0
LINE
  5
4355
330
18
100
AcDbEntity
  8
OBJECT
  6
Continuous
 48
100.0
100
AcDbLine
 10
-21872.54988552368
 20
-9541.915911649949
 30
0.0
 11
-19372.5473261102
 21
-9541.93336262954
 31
0.0
  0
LINE
  5
4356
330
18
100
AcDbEntity
  8
OBJECT
  6
Continuous
 48
100.0
100
AcDbLine
 10
-22872.55136467607
 20
-10120.48035983451
 30
0.0
 11
-19372.55066672287
 21
-10020.50479118336
 31
0.0
  0
LINE
  5
4357
330
18
100
AcDbEntity
  8
OBJECT
  6
Continuous
 48
100.0
100
AcDbLine
 10
-22872.55136467607
 20
-10120.48035983451
 30
0.0
 11
-19372.55136476134
 21
-10120.50479118092
 31
0.0
  0
LINE
  5
4358
330
18
100
AcDbEntity
  8
DIM
  6
Continuous
 48
100.0
100
AcDbLine
 10
-29117.55139411278
 20
-5018.124978600586
 30
0.0
 11
-17481.58257899736
 21
-5018.233276652004
 31
0.0
  0
MTEXT
  5
4359
330
18
100
AcDbEntity
  8
DIM
  6
Continuous
 48
100.0
100
AcDbMText
 10
-28825.09971030289
 20
-4062.385555090998
 30
0.0
 40
750.0
 41
5649.7626
 71
     1
 72
     5
  1
(16000+4000)X21000
 73
     1
 44
1.0
  0
LINE
  5
435A
330
18
100
AcDbEntity
  8
OBJECT
  6
Continuous
 48
100.0
100
AcDbLine
 10
-22872.56672152239
 20
-12320.4803597809
 30
0.0
 11
-19372.56672160765
 21
-12320.50479112733
 31
0.0
  0
LINE
  5
435B
330
18
100
AcDbEntity
  8
OBJECT
  6
Continuous
 48
100.0
100
AcDbLine
 10
-27372.61830722401
 20
-21873.18623334565
 30
0.0
 11
-21372.61912171592
 21
-22223.24207643075
 31
0.0
  0
DIMENSION
  5
435C
330
18
100
AcDbEntity
  8
OBJECT
  6
Continuous
 48
100.0
100
AcDbDimension
  2
*D9
 10
-28591.49310455792
 20
-21873.18623334565
 30
0.0
 11
-28966.49310455791
 21
-23289.85290001232
 31
0.0
 70
    32
 71
     5
 42
-1.0
  3
STANDARD_WS
100
AcDbAlignedDimension
 13
-27372.61423533295
 23
-20123.18623330775
 33
0.0
 14
-27372.61830722401
 24
-21873.18623334565
 34
0.0
 50
90.0
100
AcDbRotatedDimension
1001
ACAD
1000
DSTYLE
1002
{
1070
    40
1040
200.0
1070
   271
1070
     1
1002
}
  0
LINE
  5
435D
330
18
100
AcDbEntity
  8
OBJECT
  6
Continuous
 48
100.0
100
AcDbLine
 10
-27772.61546187868
 20
-20650.32536759019
 30
0.0
 11
-27472.61423533105
 21
-20123.18530258979
 31
0.0
  0
LINE
  5
435E
330
18
100
AcDbEntity
  8
OBJECT
  6
Continuous
 48
100.0
100
AcDbLine
 10
-27372.61830722401
 20
-21873.18623334565
 30
0.0
 11
-27372.61423533295
 21
-20123.18623330775
 31
0.0
  0
MTEXT
  5
435F
330
18
100
AcDbEntity
  8
DIM
  6
Continuous
 48
100.0
100
AcDbMText
 10
-23698.87764173479
 20
-5369.093030682799
 30
0.0
 40
750.0
 41
1756.2356
 71
     1
 72
     5
  1
2
 73
     1
 44
1.0
  0
LINE
  5
4360
330
18
100
AcDbEntity
  8
OBJECT
  6
Continuous
 48
100.0
100
AcDbLine
 10
-22882.56679132599
 20
-12330.48028997682
 30
0.0
 11
-22782.56679132844
 21
-12330.48098801529
 31
0.0
  0
LINE
  5
4361
330
18
100
AcDbEntity
  8
OBJECT
  6
Continuous
 48
0.008
100
AcDbLine
 10
-22882.59147946356
 20
-10770.46397885323
 30
0.0
 11
-22882.5949696559
 21
-11070.46397883375
 31
0.0
  0
LINE
  5
4362
330
18
100
AcDbEntity
  8
OBJECT
  6
Continuous
 48
0.008
100
AcDbLine
 10
-22882.55590192604
 20
-10770.48031328455
 30
0.0
 11
-22882.55799604145
 21
-11070.48031327805
 31
0.0
  0
LINE
  5
4363
330
18
100
AcDbEntity
  8
OBJECT
  6
Continuous
 48
0.008
100
AcDbLine
 10
-22872.55136467607
 20
-10120.48035983451
 30
0.0
 11
-22872.56672152239
 21
-12320.4803597809
 31
0.0
  0
LINE
  5
4364
330
18
100
AcDbEntity
  8
DIM
  6
Continuous
 48
100.0
100
AcDbLine
 10
-22872.59275920114
 20
-11070.46407192612
 30
0.0
 11
-22882.5949696559
 21
-11070.46397883375
 31
0.0
  0
LINE
  5
4365
330
18
100
AcDbEntity
  8
DIM
  6
Continuous
 48
100.0
100
AcDbLine
 10
-22872.55578558637
 20
-11070.48035982423
 30
0.0
 11
-22882.55799604145
 21
-11070.48031327805
 31
0.0
  0
LINE
  5
4366
330
18
100
AcDbEntity
  8
OBJECT
  6
Continuous
 48
100.0
100
AcDbLine
 10
-22872.56609328776
 20
-12230.4803597831
 30
0.0
 11
-22882.56609328752
 21
-12230.48028997925
 31
0.0
  0
LINE
  5
4367
330
18
100
AcDbEntity
  8
OBJECT
  6
Continuous
 48
0.008
100
AcDbLine
 10
-22882.56609328752
 20
-12230.48028997925
 30
0.0
 11
-22882.56679132599
 21
-12330.48028997682
 31
0.0
  0
LINE
  5
4368
330
18
100
AcDbEntity
  8
DIM
  6
Continuous
 48
100.0
100
AcDbLine
 10
-22872.58996704727
 20
-10770.46407193912
 30
0.0
 11
-22882.59147946356
 21
-10770.46397885323
 31
0.0
  0
LINE
  5
4369
330
18
100
AcDbEntity
  8
DIM
  6
Continuous
 48
100.0
100
AcDbLine
 10
-22872.5871748934
 20
-10470.46407195211
 30
0.0
 11
-22882.5879892712
 21
-10470.46397887273
 31
0.0
  0
LINE
  5
436A
330
18
100
AcDbEntity
  8
DIM
  6
Continuous
 48
100.0
100
AcDbLine
 10
-22872.58438273952
 20
-10170.4640719651
 30
0.0
 11
-22882.58449907887
 21
-10170.46397889222
 31
0.0
  0
LINE
  5
436B
330
18
100
AcDbEntity
  8
OBJECT
  6
Continuous
 48
0.008
100
AcDbLine
 10
-22882.58449907887
 20
-10170.46397889222
 30
0.0
 11
-22882.5879892712
 21
-10470.46397887273
 31
0.0
  0
LINE
  5
436C
330
18
100
AcDbEntity
  8
DIM
  6
Continuous
 48
100.0
100
AcDbLine
 10
-22872.55438950943
 20
-10770.48035982749
 30
0.0
 11
-22882.55590192604
 21
-10770.48031328455
 31
0.0
  0
LINE
  5
436D
330
18
100
AcDbEntity
  8
DIM
  6
Continuous
 48
100.0
100
AcDbLine
 10
-22872.5529934325
 20
-10470.48035983073
 30
0.0
 11
-22882.55380781063
 21
-10470.48031329104
 31
0.0
  0
LINE
  5
436E
330
18
100
AcDbEntity
  8
DIM
  6
Continuous
 48
100.0
100
AcDbLine
 10
-22872.55159735556
 20
-10170.48035983398
 30
0.0
 11
-22882.55171369522
 21
-10170.48031329753
 31
0.0
  0
LINE
  5
436F
330
18
100
AcDbEntity
  8
OBJECT
  6
Continuous
 48
0.008
100
AcDbLine
 10
-22882.55171369522
 20
-10170.48031329753
 30
0.0
 11
-22882.55380781063
 21
-10470.48031329104
 31
0.0
  0
LINE
  5
4370
330
18
100
AcDbEntity
  8
OBJECT
  6
Continuous
 48
0.008
100
AcDbLine
 10
-21872.55116526087
 20
-10091.91591164846
 30
0.0
 11
-21872.56148625823
 21
-11570.48734018387
 31
0.0
  0
LINE
  5
4371
330
18
100
AcDbEntity
  8
OBJECT
  6
Continuous
 48
100.0
100
AcDbLine
 10
-22782.56672152458
 20
-12320.48098801553
 30
0.0
 11
-22782.56679132844
 21
-12330.48098801529
 31
0.0
  0
LINE
  5
4372
330
18
100
AcDbEntity
  8
OBJECT
  6
Continuous
 48
100.0
100
AcDbLine
 10
-22272.55380450158
 20
-10103.34176403285
 30
0.0
 11
-21972.5498855226
 21
-9541.915446290971
 31
0.0
  0
LINE
  5
4373
330
18
100
AcDbEntity
  8
OBJECT
  6
Continuous
 48
100.0
100
AcDbLine
 10
-21872.54988552368
 20
-9541.915911649949
 30
0.0
 11
-21972.5498855226
 21
-9541.915446290971
 31
0.0
  0
LINE
  5
4374
330
18
100
AcDbEntity
  8
OBJECT
  6
Continuous
 48
100.0
100
AcDbLine
 10
-21872.55116526087
 20
-10091.91591164846
 30
0.0
 11
-21872.54988552368
 21
-9541.915911649949
 31
0.0
  0
LINE
  5
4375
330
18
100
AcDbEntity
  8
DIM
  6
Continuous
 48
100.0
100
AcDbLine
 10
-18644.95072813648
 20
-13246.54775259105
 30
0.0
 11
-15476.2582113282
 21
-13246.57724418136
 31
0.0
  0
MTEXT
  5
4376
330
18
100
AcDbEntity
  8
DIM
  6
Continuous
 48
100.0
100
AcDbMText
 10
-18518.20493579755
 20
-12790.51977967834
 30
0.0
 40
300.0
 41
4081.2759
 71
     1
 72
     5
  1
MIDSHIP SEC
 73
     1
 44
1.0
  0
LINE
  5
4377
330
18
100
AcDbEntity
  8
OBJECT
  6
Continuous
 48
100.0
100
AcDbLine
 10
-17372.61912204076
 20
-22223.27930514909
 30
0.0
 11
-11372.61830777624
 21
-21873.33514821903
 31
0.0
  0
LINE
  5
4378
330
18
100
AcDbEntity
  8
DIM
  6
Continuous
 48
100.0
100
AcDbLine
 10
-19522.63177879192
 20
-21023.31059367342
 30
0.0
 11
-19522.63381684874
 21
-21323.31059367168
 31
0.0
  0
LINE
  5
4379
330
18
100
AcDbEntity
  8
DIM
  6
Continuous
 48
100.0
100
AcDbLine
 10
-19222.63177881081
 20
-21023.3143947391
 30
0.0
 11
-19222.63381686764
 21
-21323.31439473735
 31
0.0
  0
LINE
  5
437A
330
18
100
AcDbEntity
  8
DIM
  6
Continuous
 48
100.0
100
AcDbLine
 10
-18222.63177882192
 20
-21023.31942525299
 30
0.0
 11
-18222.63381687874
 21
-21323.31942525125
 31
0.0
  0
LINE
  5
437B
330
18
100
AcDbEntity
  8
DIM
  6
Continuous
 48
100.0
100
AcDbLine
 10
-18522.63177881499
 20
-21023.31738719616
 30
0.0
 11
-18522.63381687182
 21
-21323.31738719443
 31
0.0
  0
DIMENSION
  5
437C
330
18
100
AcDbEntity
  8
OBJECT
  6
Continuous
 48
100.0
100
AcDbDimension
  2
*D10
 10
-17372.62610242545
 20
-20123.27930524004
 30
0.0
 11
-17747.62610242545
 21
-21173.27930519457
 31
0.0
 70
    32
 71
     5
 42
-1.0
  3
STANDARD_WS
100
AcDbAlignedDimension
 13
-17372.61912204076
 23
-22223.27930514909
 33
0.0
 14
-17372.59957696363
 24
-20123.27930524004
 34
0.0
 50
90.0
100
AcDbRotatedDimension
1001
ACAD
1000
DSTYLE
1002
{
1070
    40
1040
200.0
1070
   271
1070
     1
1002
}
  0
LINE
  5
437D
330
18
100
AcDbEntity
  8
DIM
  6
Continuous
 48
100.0
100
AcDbLine
 10
-17522.63177883807
 20
-21023.32418071891
 30
0.0
 11
-17522.6338168949
 21
-21323.32418071717
 31
0.0
  0
LINE
  5
437E
330
18
100
AcDbEntity
  8
DIM
  6
Continuous
 48
100.0
100
AcDbLine
 10
-17222.63177884499
 20
-21023.32621877573
 30
0.0
 11
-17222.63381690182
 21
-21323.326218774
 31
0.0
  0
LINE
  5
437F
330
18
100
AcDbEntity
  8
DIM
  6
Continuous
 48
100.0
100
AcDbLine
 10
-16522.63177886115
 20
-21023.33097424166
 30
0.0
 11
-16522.63381691798
 21
-21323.33097423992
 31
0.0
  0
LINE
  5
4380
330
18
100
AcDbEntity
  8
DIM
  6
Continuous
 48
100.0
100
AcDbLine
 10
-16222.63177886807
 20
-21023.33301229848
 30
0.0
 11
-16222.6338169249
 21
-21323.33301229675
 31
0.0
  0
LINE
  5
4381
330
18
100
AcDbEntity
  8
DIM
  6
Continuous
 48
100.0
100
AcDbLine
 10
-15522.63177888423
 20
-21023.3377677644
 30
0.0
 11
-15522.63381694106
 21
-21323.33776776266
 31
0.0
  0
LINE
  5
4382
330
18
100
AcDbEntity
  8
DIM
  6
Continuous
 48
100.0
100
AcDbLine
 10
-15222.63177889115
 20
-21023.33980582123
 30
0.0
 11
-15222.63381694798
 21
-21323.33980581949
 31
0.0
  0
LINE
  5
4383
330
18
100
AcDbEntity
  8
DIM
  6
Continuous
 48
100.0
100
AcDbLine
 10
-14522.63177890731
 20
-21023.34456128714
 30
0.0
 11
-14522.63381696414
 21
-21323.34456128541
 31
0.0
  0
LINE
  5
4384
330
18
100
AcDbEntity
  8
DIM
  6
Continuous
 48
100.0
100
AcDbLine
 10
-14222.63177891423
 20
-21023.34659934398
 30
0.0
 11
-14222.63381697105
 21
-21323.34659934223
 31
0.0
  0
LINE
  5
4385
330
18
100
AcDbEntity
  8
DIM
  6
Continuous
 48
100.0
100
AcDbLine
 10
-13522.63177893038
 20
-21023.35135480989
 30
0.0
 11
-13522.63381698722
 21
-21323.35135480815
 31
0.0
  0
LINE
  5
4386
330
18
100
AcDbEntity
  8
DIM
  6
Continuous
 48
100.0
100
AcDbLine
 10
-13222.63177893731
 20
-21023.35339286672
 30
0.0
 11
-13222.63381699414
 21
-21323.35339286498
 31
0.0
  0
LINE
  5
4387
330
18
100
AcDbEntity
  8
DIM
  6
Continuous
 48
100.0
100
AcDbLine
 10
-12522.63177895346
 20
-21023.35814833264
 30
0.0
 11
-12522.63381701029
 21
-21323.3581483309
 31
0.0
  0
LINE
  5
4388
330
18
100
AcDbEntity
  8
OBJECT
  6
Continuous
 48
100.0
100
AcDbLine
 10
-11372.61830777624
 20
-21873.33514821903
 30
0.0
 11
-11372.61423588517
 21
-20123.33514818113
 31
0.0
  0
LINE
  5
4389
330
18
100
AcDbEntity
  8
DIM
  6
Continuous
 48
100.0
100
AcDbLine
 10
-12222.63177896038
 20
-21023.36018638946
 30
0.0
 11
-12222.63381701721
 21
-21323.36018638773
 31
0.0
  0
LINE
  5
438A
330
18
100
AcDbEntity
  8
DIM
  6
Continuous
 48
100.0
100
AcDbLine
 10
-11222.63177898346
 20
-21023.36697991221
 30
0.0
 11
-11222.63381704029
 21
-21323.36697991047
 31
0.0
  0
LINE
  5
438B
330
18
100
AcDbEntity
  8
DIM
  6
Continuous
 48
100.0
100
AcDbLine
 10
-11522.63177897653
 20
-21023.36494185538
 30
0.0
 11
-11522.63381703337
 21
-21323.36494185365
 31
0.0
  0
LINE
  5
438C
330
18
100
AcDbEntity
  8
OBJECT
  6
Continuous
 48
100.0
100
AcDbLine
 10
-15872.55136484661
 20
-10120.52922252734
 30
0.0
 11
-19372.55136476134
 21
-10120.50479118092
 31
0.0
  0
LINE
  5
438D
330
18
100
AcDbEntity
  8
OBJECT
  6
Continuous
 48
100.0
100
AcDbLine
 10
-15872.55136484661
 20
-10120.52922252734
 30
0.0
 11
-19372.55066672287
 21
-10020.50479118336
 31
0.0
  0
LINE
  5
438E
330
18
100
AcDbEntity
  8
OBJECT
  6
Continuous
 48
100.0
100
AcDbLine
 10
-16872.54476669672
 20
-9541.950813609131
 30
0.0
 11
-19372.5473261102
 21
-9541.93336262954
 31
0.0
  0
LINE
  5
438F
330
18
100
AcDbEntity
  8
OBJECT
  6
Continuous
 48
100.0
100
AcDbLine
 10
-15872.56672169294
 20
-12320.52922247374
 30
0.0
 11
-19372.56672160766
 21
-12320.50479112733
 31
0.0
  0
LINE
  5
4390
330
18
100
AcDbEntity
  8
OBJECT
  6
Continuous
 48
100.0
100
AcDbLine
 10
-16872.56148638006
 20
-11570.52224210733
 30
0.0
 11
-19372.56148631914
 21
-11570.5047911456
 31
0.0
  0
INSERT
  5
4391
330
18
100
AcDbEntity
  8
OBJECT
  6
Continuous
 48
100.0
100
AcDbBlockReference
  2
A$C28EC78B4
 10
-19517.9119886087
 20
-7290.17724270856
 30
0.0
 41
0.3200000000000001
 42
0.3200000000000001
 43
0.3200000000000001
  0
LINE
  5
4392
330
18
100
AcDbEntity
  8
OBJECT
  6
Continuous
 48
0.008
100
AcDbLine
 10
-15862.55590209706
 20
-10770.52931558506
 30
0.0
 11
-15862.55799621247
 21
-11070.52931557857
 31
0.0
  0
LINE
  5
4393
330
18
100
AcDbEntity
  8
OBJECT
  6
Continuous
 48
0.008
100
AcDbLine
 10
-15872.55136484661
 20
-10120.52922252734
 30
0.0
 11
-15872.56672169294
 21
-12320.52922247374
 31
0.0
  0
LINE
  5
4394
330
18
100
AcDbEntity
  8
OBJECT
  6
Continuous
 48
0.008
100
AcDbLine
 10
-16872.55116538268
 20
-10091.95081357191
 30
0.0
 11
-16872.56148638006
 21
-11570.52224210733
 31
0.0
  0
LINE
  5
4395
330
18
100
AcDbEntity
  8
DIM
  6
Continuous
 48
100.0
100
AcDbLine
 10
-15872.56020666723
 20
-11070.5292224862
 30
0.0
 11
-15862.55799621247
 21
-11070.52931557857
 31
0.0
  0
LINE
  5
4396
330
18
100
AcDbEntity
  8
OBJECT
  6
Continuous
 48
0.008
100
AcDbLine
 10
-15862.56609345856
 20
-12230.52929227978
 30
0.0
 11
-15862.56679149703
 21
-12330.52929227735
 31
0.0
  0
LINE
  5
4397
330
18
100
AcDbEntity
  8
OBJECT
  6
Continuous
 48
100.0
100
AcDbLine
 10
-15862.56679149703
 20
-12330.52929227735
 30
0.0
 11
-15962.56679149458
 21
-12330.52859423888
 31
0.0
  0
LINE
  5
4398
330
18
100
AcDbEntity
  8
OBJECT
  6
Continuous
 48
100.0
100
AcDbLine
 10
-15872.56609345831
 20
-12230.52922247593
 30
0.0
 11
-15862.56609345856
 21
-12230.52929227978
 31
0.0
  0
LINE
  5
4399
330
18
100
AcDbEntity
  8
OBJECT
  6
Continuous
 48
100.0
100
AcDbLine
 10
-15962.56672169074
 20
-12320.52859423912
 30
0.0
 11
-15962.56679149458
 21
-12330.52859423888
 31
0.0
  0
LINE
  5
439A
330
18
100
AcDbEntity
  8
OBJECT
  6
Continuous
 48
100.0
100
AcDbLine
 10
-16872.55116538268
 20
-10091.95081357191
 30
0.0
 11
-16872.54476669672
 21
-9541.950813609131
 31
0.0
  0
LINE
  5
439B
330
18
100
AcDbEntity
  8
OBJECT
  6
Continuous
 48
100.0
100
AcDbLine
 10
-16872.54476669672
 20
-9541.950813609131
 30
0.0
 11
-16772.54476670105
 21
-9541.951744327096
 31
0.0
  0
LINE
  5
439C
330
18
100
AcDbEntity
  8
OBJECT
  6
Continuous
 48
100.0
100
AcDbLine
 10
-16472.54868569465
 20
-10103.38225029978
 30
0.0
 11
-16772.54476670105
 21
-9541.951744327096
 31
0.0
  0
LINE
  5
439D
330
18
100
AcDbEntity
  8
OBJECT
  6
Continuous
 48
0.008
100
AcDbLine
 10
-15862.55171386625
 20
-10170.52931559805
 30
0.0
 11
-15862.55380798167
 21
-10470.52931559155
 31
0.0
  0
LINE
  5
439E
330
18
100
AcDbEntity
  8
DIM
  6
Continuous
 48
100.0
100
AcDbLine
 10
-15872.55741451335
 20
-10770.52922249918
 30
0.0
 11
-15862.55590209706
 21
-10770.52931558506
 31
0.0
  0
LINE
  5
439F
330
18
100
AcDbEntity
  8
DIM
  6
Continuous
 48
100.0
100
AcDbLine
 10
-15872.55462235947
 20
-10470.52922251218
 30
0.0
 11
-15862.55380798167
 21
-10470.52931559155
 31
0.0
  0
LINE
  5
43A0
330
18
100
AcDbEntity
  8
DIM
  6
Continuous
 48
100.0
100
AcDbLine
 10
-15872.55183020559
 20
-10170.52922252517
 30
0.0
 11
-15862.55171386625
 21
-10170.52931559805
 31
0.0
  0
LINE
  5
43A1
330
18
100
AcDbEntity
  8
OBJECT
  6
Continuous
 48
100.0
100
AcDbLine
 10
-14164.14425307756
 20
-9228.449047739559
 30
0.0
 11
-14287.82266944441
 21
-9014.23021198796
 31
0.0
  0
LINE
  5
43A2
330
18
100
AcDbEntity
  8
OBJECT
  6
Continuous
 48
100.0
100
AcDbLine
 10
-14164.14425307756
 20
-9228.449047739559
 30
0.0
 11
-14040.46450752978
 21
-9014.23021198796
 31
0.0
  0
MTEXT
  5
43A3
330
18
100
AcDbEntity
  8
OBJECT
  6
Continuous
 48
100.0
100
AcDbMText
 10
-14851.03148282393
 20
-8992.545303103685
 30
0.0
 40
150.0
 41
821.3852000000001
 71
     1
 72
     5
  1
LWL
 73
     1
 44
1.0
  0
LINE
  5
43A4
330
18
100
AcDbEntity
  8
OBJECT
  6
Continuous
 48
100.0
100
AcDbLine
 10
-15254.01438388739
 20
-9228.449047739559
 30
0.0
 11
-13736.27401607258
 21
-9228.449047739559
 31
0.0
  0
LINE
  5
43A5
330
18
100
AcDbEntity
  8
OBJECT
  6
ByBlock
 62
     0
 48
100.0
100
AcDbLine
 10
-14601.3941999801
 20
-9228.449047739559
 30
0.0
 11
-14824.91683911531
 21
-9228.449047739559
 31
0.0
  0
LINE
  5
43A6
330
18
100
AcDbEntity
  8
OBJECT
  6
Continuous
 48
100.0
100
AcDbLine
 10
-14492.0068116721
 20
-9328.449047739558
 30
0.0
 11
-13836.2751794768
 21
-9328.449047739558
 31
0.0
  0
LINE
  5
43A7
330
18
100
AcDbEntity
  8
OBJECT
  6
Continuous
 48
100.0
100
AcDbLine
 10
-14392.00844041526
 20
-9428.44904773956
 30
0.0
 11
-13936.276342881
 21
-9428.44904773956
 31
0.0
  0
LINE
  5
43A8
330
18
100
AcDbEntity
  8
OBJECT
  6
Continuous
 48
100.0
100
AcDbLine
 10
-14292.01006915843
 20
-9528.44904773956
 30
0.0
 11
-14036.27750628522
 21
-9528.44904773956
 31
0.0
  0
LINE
  5
43A9
330
18
100
AcDbEntity
  8
OBJECT
  6
Continuous
 48
100.0
100
AcDbLine
 10
-14192.01169790158
 20
-9628.449047739559
 30
0.0
 11
-14136.27866968944
 21
-9628.449047739559
 31
0.0
  0
LINE
  5
43AA
330
18
100
AcDbEntity
  8
OBJECT
  6
Continuous
 48
100.0
100
AcDbLine
 10
-14287.82266944441
 20
-9014.23021198796
 30
0.0
 11
-14040.46450752978
 21
-9014.23021198796
 31
0.0
  0
LINE
  5
43AB
330
18
100
AcDbEntity
  8
DIM
  6
Continuous
 48
100.0
100
AcDbLine
 10
-7872.629665421278
 20
-32754.57952680453
 30
0.0
 11
-7872.65060657535
 21
-35754.57952672467
 31
0.0
  0
LINE
  5
43AC
330
18
100
AcDbEntity
  8
OBJECT
  6
Continuous
 48
100.0
100
AcDbLine
 10
-7872.629665421278
 20
-32754.57952679808
 30
0.0
 11
-7872.650606575342
 21
-35754.57952672467
 31
0.0
  0
CIRCLE
  5
43AD
330
18
100
AcDbEntity
  8
OBJECT
  6
Continuous
 48
100.0
100
AcDbCircle
 10
-8372.650606563169
 20
-35754.57603653233
 30
0.0
 40
170.0
  0
CIRCLE
  5
43AE
330
18
100
AcDbEntity
  8
OBJECT
  6
Continuous
 48
100.0
100
AcDbCircle
 10
-8372.650606563162
 20
-35754.57603653233
 30
0.0
 40
150.0
  0
LINE
  5
43AF
330
18
100
AcDbEntity
  8
OBJECT
  6
Continuous
 48
100.0
100
AcDbLine
 10
-8372.649950010659
 20
-35660.51925694341
 30
0.0
 11
-8372.651263115674
 21
-35848.63281612125
 31
0.0
  0
ARC
  5
43B0
330
18
100
AcDbEntity
  8
OBJECT
  6
Continuous
 48
100.0
100
AcDbCircle
 10
-8372.629665409098
 20
-32754.57603660574
 30
0.0
 40
500.0
100
AcDbArc
 50
359.999600053418
 51
89.99960005345499
  0
INSERT
  5
43B1
330
18
100
AcDbEntity
  8
OBJECT
  6
Continuous
 48
100.0
100
AcDbBlockReference
  2
A$C28EC78B4
 10
-6372.069388725474
 20
-36116.83376776243
 30
0.0
 41
0.3200000000000001
 42
0.3200000000000001
 43
0.3200000000000001
  0
LINE
  5
43B2
330
18
100
AcDbEntity
  8
OBJECT
  6
Continuous
 48
100.0
100
AcDbLine
 10
-10164.24035426982
 20
-22973.3463948573
 30
0.0
 11
-97.04826490679989
 21
-22973.44009202201
 31
0.0
  0
LINE
  5
43B3
330
18
100
AcDbEntity
  8
OBJECT
  6
Continuous
 48
100.0
100
AcDbLine
 10
-10372.62086726958
 20
-22973.34445542244
 30
0.0
 11
-7872.603416335732
 21
-21473.35934700722
 31
0.0
  0
LINE
  5
43B4
330
18
100
AcDbEntity
  8
DIM
  6
Continuous
 48
100.0
100
AcDbLine
 10
-10226.34308552248
 20
-20958.41532062357
 30
0.0
 11
-10226.31725603132
 21
-21258.90308222086
 31
0.0
  0
LINE
  5
43B5
330
18
100
AcDbEntity
  8
DIM
  6
Continuous
 48
100.0
100
AcDbLine
 10
-10525.36688313555
 20
-20975.49960943388
 30
0.0
 11
-10525.3410536444
 21
-21275.98737103116
 31
0.0
  0
LINE
  5
43B6
330
18
100
AcDbEntity
  8
DIM
  6
Continuous
 48
100.0
100
AcDbLine
 10
-9528.620891091952
 20
-20918.55198006619
 30
0.0
 11
-9528.595061600798
 21
-21219.03974166348
 31
0.0
  0
LINE
  5
43B7
330
18
100
AcDbEntity
  8
DIM
  6
Continuous
 48
100.0
100
AcDbLine
 10
-9229.597093478878
 20
-20901.46769125589
 30
0.0
 11
-9229.571263987716
 21
-21201.95545285318
 31
0.0
  0
LINE
  5
43B8
330
18
100
AcDbEntity
  8
DIM
  6
Continuous
 48
100.0
100
AcDbLine
 10
-8531.874899048352
 20
-20861.60435069852
 30
0.0
 11
-8531.849069557196
 21
-21162.0921122958
 31
0.0
  0
LINE
  5
43B9
330
18
100
AcDbEntity
  8
DIM
  6
Continuous
 48
100.0
100
AcDbLine
 10
-8232.851101435278
 20
-20844.52006188821
 30
0.0
 11
-8232.825271944115
 21
-21145.00782348549
 31
0.0
  0
LINE
  5
43BA
330
18
100
AcDbEntity
  8
OBJECT
  6
Continuous
 48
100.0
100
AcDbLine
 10
-7872.603416335732
 20
-21473.35934700722
 30
0.0
 11
-7872.600856878053
 21
-20373.36652680766
 31
0.0
  0
MTEXT
  5
43BB
330
18
100
AcDbEntity
  8
DIM
  6
Continuous
 48
100.0
100
AcDbMText
 10
-10144.56036762102
 20
-4531.770735577109
 30
0.0
 40
300.0
 41
1756.2356
 71
     1
 72
     5
  1
3
 73
     1
 44
1.0
  0
MTEXT
  5
43BC
330
18
100
AcDbEntity
  8
DIM
  6
Continuous
 48
100.0
100
AcDbMText
 10
-1425.735330392097
 20
-22347.91719516772
 30
0.0
 40
520.0
 41
2028.4917
 71
     1
 72
     5
  1
B.L
 73
     1
 44
1.0
  0
LINE
  5
443D
330
18
100
AcDbEntity
  8
OBJECT
  6
Continuous
 48
0.04
100
AcDbLine
 10
20791.7775303883
 20
-32924.98756728286
 30
0.0
 11
42791.77752985232
 21
-32925.14113573179
 31
0.0
  0
LINE
  5
443E
330
18
100
AcDbEntity
  8
DIM
  6
Continuous
 48
100.0
100
AcDbLine
 10
20291.78102308292
 20
-32425.03759339378
 30
0.0
 11
20291.80196460862
 21
-29424.98407717613
 31
0.0
  0
LINE
  5
443F
330
18
100
AcDbEntity
  8
OBJECT
  6
Continuous
 48
100.0
100
AcDbLine
 10
20291.80196174269
 20
-29424.98407719094
 30
0.0
 11
20291.76705982313
 21
-32424.98407694092
 31
0.0
  0
LINE
  5
4440
330
18
100
AcDbEntity
  8
OBJECT
  6
Continuous
 48
100.0
100
AcDbLine
 10
20291.7810205925
 20
-32424.98407710334
 30
0.0
 11
20291.80196174269
 21
-29424.98407719094
 31
0.0
  0
ARC
  5
4441
330
18
100
AcDbEntity
  8
OBJECT
  6
Continuous
 48
100.0
100
AcDbCircle
 10
20791.78102058031
 20
-32424.98756729505
 30
0.0
 40
500.0
100
AcDbArc
 50
179.9996000534919
 51
269.999600053455
  0
LINE
  5
4442
330
18
100
AcDbEntity
  8
OBJECT
  6
Continuous
 48
100.0
100
AcDbLine
 10
23791.78451069895
 20
-31925.00850845934
 30
0.0
 11
31791.80196146254
 21
-29425.06435160002
 31
0.0
  0
LINE
  5
4443
330
18
100
AcDbEntity
  8
OBJECT
  6
Continuous
 48
0.04
100
AcDbLine
 10
23791.78451069895
 20
-31925.00850845934
 30
0.0
 11
39791.78451030913
 21
-31925.12019460403
 31
0.0
  0
LINE
  5
4444
330
18
100
AcDbEntity
  8
OBJECT
  6
Continuous
 48
100.0
100
AcDbLine
 10
23791.78451069895
 20
-31925.00850845934
 30
0.0
 11
23791.80196165744
 21
-29425.00850853285
 31
0.0
  0
LINE
  5
444C
330
18
100
AcDbEntity
  8
OBJECT
  6
Continuous
 48
100.0
100
AcDbLine
 10
31791.80196146254
 20
-29425.06435160002
 30
0.0
 11
39791.78451030913
 21
-31925.12019460403
 31
0.0
  0
LINE
  5
4450
330
18
100
AcDbEntity
  8
OBJECT
  6
Continuous
 48
100.0
100
AcDbLine
 10
39791.78451030913
 20
-31925.12019460403
 30
0.0
 11
39791.80196126762
 21
-29425.12019466718
 31
0.0
  0
LINE
  5
4458
330
18
100
AcDbEntity
  8
DIM
  6
Continuous
 48
100.0
100
AcDbLine
 10
43291.78102003215
 20
-32425.14462592922
 30
0.0
 11
43291.80196118234
 21
-29425.14462600907
 31
0.0
  0
LINE
  5
4459
330
18
100
AcDbEntity
  8
OBJECT
  6
Continuous
 48
100.0
100
AcDbLine
 10
43291.78102003215
 20
-32425.14462593566
 30
0.0
 11
43291.80196118235
 21
-29425.14462600907
 31
0.0
  0
CIRCLE
  5
445A
330
18
100
AcDbEntity
  8
OBJECT
  6
Continuous
 48
100.0
100
AcDbCircle
 10
42791.80196119452
 20
-29425.14113581737
 30
0.0
 40
170.0
  0
CIRCLE
  5
445B
330
18
100
AcDbEntity
  8
OBJECT
  6
Continuous
 48
100.0
100
AcDbCircle
 10
42791.80196119453
 20
-29425.14113581737
 30
0.0
 40
150.0
  0
LINE
  5
445C
330
18
100
AcDbEntity
  8
OBJECT
  6
Continuous
 48
100.0
100
AcDbLine
 10
42791.80130464213
 20
-29519.19791540629
 30
0.0
 11
42791.8026177469
 21
-29331.08435622845
 31
0.0
  0
ARC
  5
445D
330
18
100
AcDbEntity
  8
OBJECT
  6
Continuous
 48
100.0
100
AcDbCircle
 10
42791.78102004434
 20
-32425.14113574396
 30
0.0
 40
500.0
100
AcDbArc
 50
269.999600053455
 51
359.999600053492
  0
DIMENSION
  5
446C
330
18
100
AcDbEntity
  8
DIM
  6
Continuous
100
AcDbDimension
  2
*D14
 10
43291.84915142195
 20
-24629.50462365808
 30
0.0
 11
31791.84217136996
 21
-24629.50462365808
 31
0.0
 70
   160
 71
     5
 42
-1.0
  3
STANDARD_WS
100
AcDbAlignedDimension
 13
20291.83519131796
 23
-21473.15365820843
 33
0.0
 14
43291.84915142195
 24
-21473.35934700722
 34
0.0
100
AcDbRotatedDimension
1001
ACAD
1000
DSTYLE
1002
{
1070
    40
1040
200.0
1070
   271
1070
     1
1002
}
  0
DIMENSION
  5
4479
330
18
100
AcDbEntity
  8
DIM
  6
Continuous
100
AcDbDimension
  2
*D15
 10
18970.4785981861
 20
-32924.98756728286
 30
0.0
 11
18595.47859818611
 21
-29424.98756736812
 31
0.0
 70
    32
 71
     5
 42
-1.0
  3
STANDARD_WS
100
AcDbAlignedDimension
 13
20791.82639307659
 23
-25924.98756745338
 33
0.0
 14
20791.77753038829
 24
-32924.98756728286
 34
0.0
 50
90.0
100
AcDbRotatedDimension
1001
ACAD
1000
DSTYLE
1002
{
1070
    40
1040
200.0
1070
   271
1070
     1
1002
}
  0
LINE
  5
44B8
330
18
100
AcDbEntity
  8
DIM
  6
Continuous
 48
100.0
100
AcDbLine
 10
24018.87866221432
 20
-25974.95322093295
 30
0.0
 11
24268.01940566018
 21
-25974.95852928096
 31
0.0
  0
LINE
  5
44B9
330
18
100
AcDbEntity
  8
OBJECT
  6
Continuous
 48
100.0
100
AcDbLine
 10
24268.5474142508
 20
-26374.9577198219
 30
0.0
 11
24018.34506931941
 21
-26374.95240406349
 31
0.0
  0
LINE
  5
44BA
330
18
100
AcDbEntity
  8
DIM
  6
Continuous
 48
100.0
100
AcDbLine
 10
23730.93501471613
 20
-26174.98529456117
 30
0.0
 11
24538.14471000375
 21
-26174.9922913719
 31
0.0
  0
ARC
  5
44BB
330
18
100
AcDbEntity
  8
OBJECT
  6
Continuous
 48
100.0
100
AcDbCircle
 10
24043.34835029797
 20
-26174.98581059603
 30
0.0
 40
201.5237022343279
100
AcDbArc
 50
96.97425671449884
 51
262.8728799622777
  0
LINE
  5
44BC
330
18
100
AcDbEntity
  8
OBJECT
  6
Continuous
 48
100.0
100
AcDbLine
 10
24143.44504498192
 20
-26546.40805850284
 30
0.0
 11
24143.4498817389
 21
-25853.50099248952
 31
0.0
  0
ARC
  5
44BD
330
18
100
AcDbEntity
  8
OBJECT
  6
Continuous
 48
100.0
100
AcDbCircle
 10
24243.54692497058
 20
-26174.99077730894
 30
0.0
 40
201.5237022343279
100
AcDbArc
 50
277.1263201447069
 51
83.02494339248561
  0
ARC
  5
44BE
330
18
100
AcDbEntity
  8
OBJECT
  6
Continuous
 48
100.0
100
AcDbCircle
 10
39339.93865783821
 20
-26175.09333498957
 30
0.0
 40
201.5237022343279
100
AcDbArc
 50
96.97427812715156
 51
262.8729013749303
  0
LINE
  5
44BF
330
18
100
AcDbEntity
  8
DIM
  6
Continuous
 48
100.0
100
AcDbLine
 10
39852.55056811983
 20
-26175.09481712315
 30
0.0
 11
39045.34087281165
 21
-26175.09084633902
 31
0.0
  0
LINE
  5
44C0
330
18
100
AcDbEntity
  8
OBJECT
  6
Continuous
 48
100.0
100
AcDbLine
 10
39440.03549135413
 20
-26546.51197623799
 30
0.0
 11
39440.04006915698
 21
-25853.6049102229
 31
0.0
  0
ARC
  5
44C1
330
18
100
AcDbEntity
  8
OBJECT
  6
Continuous
 48
100.0
100
AcDbCircle
 10
39540.13723255981
 20
-26175.09108838381
 30
0.0
 40
201.5237022343279
100
AcDbArc
 50
277.1263415573596
 51
83.02496480513834
  0
LINE
  5
44C2
330
18
100
AcDbEntity
  8
OBJECT
  6
Continuous
 48
100.0
100
AcDbLine
 10
39314.93545160035
 20
-26375.05993780129
 30
0.0
 11
39565.13779658087
 21
-26375.05802155353
 31
0.0
  0
LINE
  5
44C3
330
18
100
AcDbEntity
  8
DIM
  6
Continuous
 48
100.0
100
AcDbLine
 10
39564.6096384931
 20
-25975.05883120996
 30
0.0
 11
39315.46889499812
 21
-25975.06075447135
 31
0.0
  0
CIRCLE
  5
44C4
330
18
100
AcDbEntity
  8
OBJECT
  6
Continuous
 48
100.0
100
AcDbCircle
 10
31341.82543883514
 20
-26241.89240658676
 30
0.0
 40
150.0
  0
CIRCLE
  5
44C5
330
18
100
AcDbEntity
  8
OBJECT
  6
Continuous
 48
100.0
100
AcDbCircle
 10
31341.82543883514
 20
-26241.89240658676
 30
0.0
 40
159.0
  0
LINE
  5
44C6
330
18
100
AcDbEntity
  8
OBJECT
  6
Continuous
 48
100.0
100
AcDbLine
 10
31341.82627646398
 20
-26061.89612946137
 30
0.0
 11
31341.82460119656
 21
-26421.89077782782
 31
0.0
  0
LINE
  5
44C7
330
18
100
AcDbEntity
  8
OBJECT
  6
Continuous
 48
100.0
100
AcDbLine
 10
31091.82353086604
 20
-26446.88961442567
 30
0.0
 11
31091.8263928086
 21
-26036.89612946137
 31
0.0
  0
CIRCLE
  5
44C8
330
18
100
AcDbEntity
  8
OBJECT
  6
Continuous
 48
100.0
100
AcDbCircle
 10
32241.8254388254
 20
-26241.89659481757
 30
0.0
 40
159.0
  0
CIRCLE
  5
44C9
330
18
100
AcDbEntity
  8
OBJECT
  6
Continuous
 48
100.0
100
AcDbCircle
 10
32241.8254388254
 20
-26241.89659481757
 30
0.0
 40
150.0
  0
LINE
  5
44CA
330
18
100
AcDbEntity
  8
OBJECT
  6
Continuous
 48
100.0
100
AcDbLine
 10
32241.82627645424
 20
-26061.90031769218
 30
0.0
 11
32241.82460118682
 21
-26421.89496605863
 31
0.0
  0
LINE
  5
44CB
330
18
100
AcDbEntity
  8
OBJECT
  6
Continuous
 48
100.0
100
AcDbLine
 10
32491.8263928086
 20
-26036.89612946137
 30
0.0
 11
32491.82353085088
 21
-26446.89612945138
 31
0.0
  0
LINE
  5
44CC
330
18
100
AcDbEntity
  8
OBJECT
  6
Continuous
 48
100.0
100
AcDbLine
 10
32491.82353085088
 20
-26446.89612945138
 30
0.0
 11
31091.82353086604
 21
-26446.88961442567
 31
0.0
  0
LINE
  5
44CD
330
18
100
AcDbEntity
  8
OBJECT
  6
Continuous
 48
100.0
100
AcDbLine
 10
31091.8263928086
 20
-26036.89612946137
 30
0.0
 11
32491.8263928086
 21
-26036.89612946137
 31
0.0
  0
LINE
  5
44CE
330
18
100
AcDbEntity
  8
OBJECT
  6
Continuous
 48
100.0
100
AcDbLine
 10
31161.82811464705
 20
-26241.89261601089
 30
0.0
 11
31521.8227630135
 21
-26241.89429127831
 31
0.0
  0
LINE
  5
44CF
330
18
100
AcDbEntity
  8
OBJECT
  6
Continuous
 48
100.0
100
AcDbLine
 10
32061.8281146373
 20
-26241.8968042417
 30
0.0
 11
32421.82276300375
 21
-26241.89847950912
 31
0.0
  0
LINE
  5
44D0
330
18
100
AcDbEntity
  8
OBJECT
  6
Continuous
 48
100.0
100
AcDbLine
 10
22986.83268258628
 20
-26446.89612945138
 30
0.0
 11
21586.83268260144
 21
-26446.88961442567
 31
0.0
  0
LINE
  5
44D1
330
18
100
AcDbEntity
  8
OBJECT
  6
Continuous
 48
100.0
100
AcDbLine
 10
21586.835544544
 20
-26036.89612946137
 30
0.0
 11
22986.835544544
 21
-26036.89612946137
 31
0.0
  0
CIRCLE
  5
44D2
330
18
100
AcDbEntity
  8
OBJECT
  6
Continuous
 48
100.0
100
AcDbCircle
 10
21836.83459057054
 20
-26241.89240658676
 30
0.0
 40
150.0
  0
CIRCLE
  5
44D3
330
18
100
AcDbEntity
  8
OBJECT
  6
Continuous
 48
100.0
100
AcDbCircle
 10
21836.83459057054
 20
-26241.89240658676
 30
0.0
 40
159.0
  0
LINE
  5
44D4
330
18
100
AcDbEntity
  8
OBJECT
  6
Continuous
 48
100.0
100
AcDbLine
 10
21836.83542819938
 20
-26061.89612946137
 30
0.0
 11
21836.83375293196
 21
-26421.89077782782
 31
0.0
  0
LINE
  5
44D5
330
18
100
AcDbEntity
  8
OBJECT
  6
Continuous
 48
100.0
100
AcDbLine
 10
21586.83268260144
 20
-26446.88961442567
 30
0.0
 11
21586.835544544
 21
-26036.89612946137
 31
0.0
  0
LINE
  5
44D6
330
18
100
AcDbEntity
  8
OBJECT
  6
Continuous
 48
100.0
100
AcDbLine
 10
21656.83726638245
 20
-26241.89261601089
 30
0.0
 11
22016.8319147489
 21
-26241.89429127831
 31
0.0
  0
CIRCLE
  5
44D7
330
18
100
AcDbEntity
  8
OBJECT
  6
Continuous
 48
100.0
100
AcDbCircle
 10
22736.8345905608
 20
-26241.89659481757
 30
0.0
 40
159.0
  0
CIRCLE
  5
44D8
330
18
100
AcDbEntity
  8
OBJECT
  6
Continuous
 48
100.0
100
AcDbCircle
 10
22736.8345905608
 20
-26241.89659481757
 30
0.0
 40
150.0
  0
LINE
  5
44D9
330
18
100
AcDbEntity
  8
OBJECT
  6
Continuous
 48
100.0
100
AcDbLine
 10
22736.83542818964
 20
-26061.90031769218
 30
0.0
 11
22736.83375292222
 21
-26421.89496605863
 31
0.0
  0
LINE
  5
44DA
330
18
100
AcDbEntity
  8
OBJECT
  6
Continuous
 48
100.0
100
AcDbLine
 10
22986.835544544
 20
-26036.89612946137
 30
0.0
 11
22986.83268258628
 21
-26446.89612945138
 31
0.0
  0
LINE
  5
44DB
330
18
100
AcDbEntity
  8
OBJECT
  6
Continuous
 48
100.0
100
AcDbLine
 10
22556.83726637271
 20
-26241.8968042417
 30
0.0
 11
22916.83191473915
 21
-26241.89847950912
 31
0.0
  0
LINE
  5
44DC
330
18
100
AcDbEntity
  8
OBJECT
  6
Continuous
 48
100.0
100
AcDbLine
 10
41926.81109508054
 20
-26242.03410821274
 30
0.0
 11
41566.81644672579
 21
-26242.03075767836
 31
0.0
  0
CIRCLE
  5
44DD
330
18
100
AcDbEntity
  8
OBJECT
  6
Continuous
 48
100.0
100
AcDbCircle
 10
41746.81377091292
 20
-26242.03138588772
 30
0.0
 40
159.0
  0
CIRCLE
  5
44DE
330
18
100
AcDbEntity
  8
OBJECT
  6
Continuous
 48
100.0
100
AcDbCircle
 10
41746.81377091292
 20
-26242.03138588772
 30
0.0
 40
150.0
  0
LINE
  5
44DF
330
18
100
AcDbEntity
  8
OBJECT
  6
Continuous
 48
100.0
100
AcDbLine
 10
41996.81567882058
 20
-26037.03859896101
 30
0.0
 11
40596.815678957
 21
-26037.01905388569
 31
0.0
  0
LINE
  5
44E0
330
18
100
AcDbEntity
  8
OBJECT
  6
Continuous
 48
100.0
100
AcDbLine
 10
40596.8128169998
 20
-26447.0190538757
 30
0.0
 11
41996.81281693918
 21
-26447.03208392531
 31
0.0
  0
LINE
  5
44E1
330
18
100
AcDbEntity
  8
OBJECT
  6
Continuous
 48
100.0
100
AcDbLine
 10
41996.81281693918
 20
-26447.03208392531
 30
0.0
 11
41996.81567882058
 21
-26037.03859896101
 31
0.0
  0
LINE
  5
44E2
330
18
100
AcDbEntity
  8
OBJECT
  6
Continuous
 48
100.0
100
AcDbLine
 10
41746.81544617036
 20
-26062.03510876817
 30
0.0
 11
41746.81209563598
 21
-26422.02975712293
 31
0.0
  0
LINE
  5
44E3
330
18
100
AcDbEntity
  8
OBJECT
  6
Continuous
 48
100.0
100
AcDbLine
 10
41026.81109511952
 20
-26242.02573175228
 30
0.0
 11
40666.81644676477
 21
-26242.0223812179
 31
0.0
  0
LINE
  5
44E4
330
18
100
AcDbEntity
  8
OBJECT
  6
Continuous
 48
100.0
100
AcDbLine
 10
40596.815678957
 20
-26037.01905388569
 30
0.0
 11
40596.8128169998
 21
-26447.0190538757
 31
0.0
  0
LINE
  5
44E5
330
18
100
AcDbEntity
  8
OBJECT
  6
Continuous
 48
100.0
100
AcDbLine
 10
40846.81544620933
 20
-26062.02673230771
 30
0.0
 11
40846.81209567496
 21
-26422.02138066247
 31
0.0
  0
CIRCLE
  5
44E6
330
18
100
AcDbEntity
  8
OBJECT
  6
Continuous
 48
100.0
100
AcDbCircle
 10
40846.81377095189
 20
-26242.02300942726
 30
0.0
 40
150.0
  0
CIRCLE
  5
44E7
330
18
100
AcDbEntity
  8
OBJECT
  6
Continuous
 48
100.0
100
AcDbCircle
 10
40846.81377095189
 20
-26242.02300942726
 30
0.0
 40
159.0
  0
CIRCLE
  5
44EE
330
18
100
AcDbEntity
  8
OBJECT
  6
Continuous
 48
100.0
100
AcDbCircle
 10
20791.80196173376
 20
-29424.9875673678
 30
0.0
 40
150.0
  0
CIRCLE
  5
44EF
330
18
100
AcDbEntity
  8
OBJECT
  6
Continuous
 48
100.0
100
AcDbCircle
 10
20791.80196173377
 20
-29424.9875673678
 30
0.0
 40
170.0
  0
CIRCLE
  5
44F0
330
18
100
AcDbEntity
  8
OBJECT
  6
Continuous
 48
100.0
100
AcDbCircle
 10
20791.80196173377
 20
-29424.98756736844
 30
0.0
 40
170.0
  0
CIRCLE
  5
44F1
330
18
100
AcDbEntity
  8
OBJECT
  6
Continuous
 48
100.0
100
AcDbCircle
 10
20791.80196173376
 20
-29424.98756736844
 30
0.0
 40
150.0
  0
LINE
  5
44F2
330
18
100
AcDbEntity
  8
OBJECT
  6
Continuous
 48
100.0
100
AcDbLine
 10
20791.80261828614
 20
-29330.93078777888
 30
0.0
 11
20791.80130518138
 21
-29519.04434695673
 31
0.0
  0
LINE
  5
44F3
330
18
100
AcDbEntity
  8
OBJECT
  6
Continuous
 48
100.0
100
AcDbLine
 10
20791.80130518126
 20
-29519.04434695736
 30
0.0
 11
20791.80261828628
 21
-29330.93078777952
 31
0.0
  0
LINE
  5
44F4
330
18
100
AcDbEntity
  8
OBJECT
  6
Continuous
 48
100.0
100
AcDbLine
 10
21656.79282785367
 20
-32608.09459500161
 30
0.0
 11
22016.78747620842
 21
-32608.09794553532
 31
0.0
  0
CIRCLE
  5
44F5
330
18
100
AcDbEntity
  8
OBJECT
  6
Continuous
 48
100.0
100
AcDbCircle
 10
21836.79015202129
 20
-32608.0973173263
 30
0.0
 40
159.0
  0
CIRCLE
  5
44F6
330
18
100
AcDbEntity
  8
OBJECT
  6
Continuous
 48
100.0
100
AcDbCircle
 10
21836.79015202129
 20
-32608.0973173263
 30
0.0
 40
150.0
  0
LINE
  5
44F7
330
18
100
AcDbEntity
  8
OBJECT
  6
Continuous
 48
100.0
100
AcDbLine
 10
21586.78824411401
 20
-32813.09010425348
 30
0.0
 11
22986.78824397758
 21
-32813.1096493262
 31
0.0
  0
LINE
  5
44F8
330
18
100
AcDbEntity
  8
OBJECT
  6
Continuous
 48
100.0
100
AcDbLine
 10
22986.79110593401
 20
-32403.10964933619
 30
0.0
 11
21586.79110599464
 21
-32403.09661928918
 31
0.0
  0
LINE
  5
44F9
330
18
100
AcDbEntity
  8
OBJECT
  6
Continuous
 48
100.0
100
AcDbLine
 10
21586.79110599464
 20
-32403.09661928918
 30
0.0
 11
21586.78824411401
 21
-32813.09010425348
 31
0.0
  0
LINE
  5
44FA
330
18
100
AcDbEntity
  8
OBJECT
  6
Continuous
 48
100.0
100
AcDbLine
 10
21836.78847676418
 20
-32788.09359444585
 30
0.0
 11
21836.79182729789
 21
-32428.09894609109
 31
0.0
  0
LINE
  5
44FB
330
18
100
AcDbEntity
  8
OBJECT
  6
Continuous
 48
100.0
100
AcDbLine
 10
22556.79282781468
 20
-32608.1029714604
 30
0.0
 11
22916.78747616944
 21
-32608.10632199412
 31
0.0
  0
LINE
  5
44FC
330
18
100
AcDbEntity
  8
OBJECT
  6
Continuous
 48
100.0
100
AcDbLine
 10
22986.78824397758
 20
-32813.1096493262
 30
0.0
 11
22986.79110593401
 21
-32403.10964933619
 31
0.0
  0
LINE
  5
44FD
330
18
100
AcDbEntity
  8
OBJECT
  6
Continuous
 48
100.0
100
AcDbLine
 10
22736.7884767252
 20
-32788.10197090464
 30
0.0
 11
22736.79182725891
 21
-32428.10732254989
 31
0.0
  0
CIRCLE
  5
44FE
330
18
100
AcDbEntity
  8
OBJECT
  6
Continuous
 48
100.0
100
AcDbCircle
 10
22736.79015198231
 20
-32608.10569378509
 30
0.0
 40
150.0
  0
CIRCLE
  5
44FF
330
18
100
AcDbEntity
  8
OBJECT
  6
Continuous
 48
100.0
100
AcDbCircle
 10
22736.79015198231
 20
-32608.10569378509
 30
0.0
 40
159.0
  0
LINE
  5
4500
330
18
100
AcDbEntity
  8
DIM
  6
Continuous
 48
100.0
100
AcDbLine
 10
23730.88964190774
 20
-32675.03087243861
 30
0.0
 11
24538.09933721438
 21
-32675.03514489373
 31
0.0
  0
LINE
  5
4501
330
18
100
AcDbEntity
  8
OBJECT
  6
Continuous
 48
100.0
100
AcDbLine
 10
24268.5048331583
 20
-32475.0659526784
 30
0.0
 11
24018.30248817709
 21
-32475.06777542036
 31
0.0
  0
LINE
  5
4502
330
18
100
AcDbEntity
  8
DIM
  6
Continuous
 48
100.0
100
AcDbLine
 10
24018.83049677686
 20
-32875.06696596128
 30
0.0
 11
24267.97124027254
 21
-32875.06513580896
 31
0.0
  0
LINE
  5
4503
330
18
100
AcDbEntity
  8
OBJECT
  6
Continuous
 48
100.0
100
AcDbLine
 10
24143.40485747971
 20
-32303.61386748922
 30
0.0
 11
24143.40002072313
 21
-32996.52093350255
 31
0.0
  0
ARC
  5
4504
330
18
100
AcDbEntity
  8
OBJECT
  6
Continuous
 48
100.0
100
AcDbCircle
 10
24043.30297746635
 20
-32675.03471793329
 30
0.0
 40
201.5237022343279
100
AcDbArc
 50
97.1263201447388
 51
263.0249433925176
  0
ARC
  5
4505
330
18
100
AcDbEntity
  8
OBJECT
  6
Continuous
 48
100.0
100
AcDbCircle
 10
24243.50155218879
 20
-32675.03254614588
 30
0.0
 40
201.5237022343279
100
AcDbArc
 50
276.9742567145308
 51
82.87287996230958
  0
LINE
  5
4506
330
18
100
AcDbEntity
  8
OBJECT
  6
Continuous
 48
100.0
100
AcDbLine
 10
32491.78195327234
 20
-32403.24234629141
 30
0.0
 11
31091.78195333297
 21
-32403.2293162444
 31
0.0
  0
LINE
  5
4507
330
18
100
AcDbEntity
  8
OBJECT
  6
Continuous
 48
100.0
100
AcDbLine
 10
31091.77909145234
 20
-32813.2228012087
 30
0.0
 11
32491.7790913159
 21
-32813.24234628142
 31
0.0
  0
CIRCLE
  5
4508
330
18
100
AcDbEntity
  8
OBJECT
  6
Continuous
 48
100.0
100
AcDbCircle
 10
31341.78099935962
 20
-32608.23001428152
 30
0.0
 40
150.0
  0
CIRCLE
  5
4509
330
18
100
AcDbEntity
  8
OBJECT
  6
Continuous
 48
100.0
100
AcDbCircle
 10
31341.78099935962
 20
-32608.23001428152
 30
0.0
 40
159.0
  0
LINE
  5
450A
330
18
100
AcDbEntity
  8
OBJECT
  6
Continuous
 48
100.0
100
AcDbLine
 10
31341.77932410251
 20
-32788.22629140107
 30
0.0
 11
31341.78267463622
 21
-32428.23164304631
 31
0.0
  0
LINE
  5
450B
330
18
100
AcDbEntity
  8
OBJECT
  6
Continuous
 48
100.0
100
AcDbLine
 10
31091.78195333297
 20
-32403.2293162444
 30
0.0
 11
31091.77909145234
 21
-32813.2228012087
 31
0.0
  0
LINE
  5
450C
330
18
100
AcDbEntity
  8
OBJECT
  6
Continuous
 48
100.0
100
AcDbLine
 10
31161.78367519199
 20
-32608.22729195683
 30
0.0
 11
31521.77832354675
 21
-32608.23064249054
 31
0.0
  0
CIRCLE
  5
450D
330
18
100
AcDbEntity
  8
OBJECT
  6
Continuous
 48
100.0
100
AcDbCircle
 10
32241.78099932064
 20
-32608.23839074031
 30
0.0
 40
159.0
  0
CIRCLE
  5
450E
330
18
100
AcDbEntity
  8
OBJECT
  6
Continuous
 48
100.0
100
AcDbCircle
 10
32241.78099932064
 20
-32608.23839074031
 30
0.0
 40
150.0
  0
LINE
  5
450F
330
18
100
AcDbEntity
  8
OBJECT
  6
Continuous
 48
100.0
100
AcDbLine
 10
32241.77932406353
 20
-32788.23466785985
 30
0.0
 11
32241.78267459724
 21
-32428.2400195051
 31
0.0
  0
LINE
  5
4510
330
18
100
AcDbEntity
  8
OBJECT
  6
Continuous
 48
100.0
100
AcDbLine
 10
32491.7790913159
 20
-32813.24234628142
 30
0.0
 11
32491.78195327234
 21
-32403.24234629141
 31
0.0
  0
LINE
  5
4511
330
18
100
AcDbEntity
  8
OBJECT
  6
Continuous
 48
100.0
100
AcDbLine
 10
32061.78367515301
 20
-32608.23566841562
 30
0.0
 11
32421.77832350776
 21
-32608.23901894933
 31
0.0
  0
LINE
  5
4512
330
18
100
AcDbEntity
  8
OBJECT
  6
Continuous
 48
100.0
100
AcDbLine
 10
40596.77124034753
 20
-32403.23257372779
 30
0.0
 11
41996.77124033239
 21
-32403.2390887509
 31
0.0
  0
LINE
  5
4513
330
18
100
AcDbEntity
  8
OBJECT
  6
Continuous
 48
100.0
100
AcDbLine
 10
41996.76837839058
 20
-32813.2325737152
 30
0.0
 11
40596.76837839058
 21
-32813.2325737178
 31
0.0
  0
CIRCLE
  5
4514
330
18
100
AcDbEntity
  8
OBJECT
  6
Continuous
 48
100.0
100
AcDbCircle
 10
41746.76933236367
 20
-32608.23629659027
 30
0.0
 40
150.0
  0
CIRCLE
  5
4515
330
18
100
AcDbEntity
  8
OBJECT
  6
Continuous
 48
100.0
100
AcDbCircle
 10
41746.76933236367
 20
-32608.23629659027
 30
0.0
 40
159.0
  0
LINE
  5
4516
330
18
100
AcDbEntity
  8
OBJECT
  6
Continuous
 48
100.0
100
AcDbLine
 10
41926.76665655175
 20
-32608.23608716581
 30
0.0
 11
41566.7720081853
 21
-32608.23441189906
 31
0.0
  0
LINE
  5
4517
330
18
100
AcDbEntity
  8
DIM
  6
Continuous
 48
100.0
100
AcDbLine
 10
39564.56147301508
 20
-32875.17838600026
 30
0.0
 11
39315.42072957123
 21
-32875.1729845432
 31
0.0
  0
LINE
  5
4518
330
18
100
AcDbEntity
  8
OBJECT
  6
Continuous
 48
100.0
100
AcDbLine
 10
39314.8928704686
 20
-32475.17379380496
 30
0.0
 11
39565.09521539798
 21
-32475.17920306917
 31
0.0
  0
LINE
  5
4519
330
18
100
AcDbEntity
  8
DIM
  6
Continuous
 48
100.0
100
AcDbLine
 10
39852.5051952694
 20
-32675.14641998257
 30
0.0
 11
39045.29549998444
 21
-32675.13912150084
 31
0.0
  0
ARC
  5
451A
330
18
100
AcDbEntity
  8
OBJECT
  6
Continuous
 48
100.0
100
AcDbCircle
 10
39339.89328501703
 20
-32675.14074566111
 30
0.0
 40
201.5237022343279
100
AcDbArc
 50
97.12629873208612
 51
263.0249219798649
  0
ARC
  5
451B
330
18
100
AcDbEntity
  8
OBJECT
  6
Continuous
 48
100.0
100
AcDbCircle
 10
39540.09185968775
 20
-32675.14578719237
 30
0.0
 40
201.5237022343279
100
AcDbArc
 50
276.9742353018781
 51
82.87285854965688
  0
LINE
  5
451C
330
18
100
AcDbEntity
  8
OBJECT
  6
Continuous
 48
100.0
100
AcDbLine
 10
39439.99530381202
 20
-32303.72350187737
 30
0.0
 11
39439.99020810131
 21
-32996.63056788885
 31
0.0
  0
CIRCLE
  5
451D
330
18
100
AcDbEntity
  8
OBJECT
  6
Continuous
 48
100.0
100
AcDbCircle
 10
40846.7693323734
 20
-32608.23210836113
 30
0.0
 40
159.0
  0
CIRCLE
  5
451E
330
18
100
AcDbEntity
  8
OBJECT
  6
Continuous
 48
100.0
100
AcDbCircle
 10
40846.7693323734
 20
-32608.23210836113
 30
0.0
 40
150.0
  0
LINE
  5
451F
330
18
100
AcDbEntity
  8
OBJECT
  6
Continuous
 48
100.0
100
AcDbLine
 10
40846.7684947449
 20
-32788.22838548653
 30
0.0
 11
40846.77017001165
 21
-32428.23373712007
 31
0.0
  0
LINE
  5
4520
330
18
100
AcDbEntity
  8
OBJECT
  6
Continuous
 48
100.0
100
AcDbLine
 10
40596.76837839058
 20
-32813.2325737178
 30
0.0
 11
40596.77124034753
 21
-32403.23257372779
 31
0.0
  0
LINE
  5
4521
330
18
100
AcDbEntity
  8
OBJECT
  6
Continuous
 48
100.0
100
AcDbLine
 10
41026.76665656151
 20
-32608.23189893668
 30
0.0
 11
40666.77200819506
 21
-32608.23022366992
 31
0.0
  0
LINE
  5
4522
330
18
100
AcDbEntity
  8
OBJECT
  6
Continuous
 48
100.0
100
AcDbLine
 10
41746.76849473517
 20
-32788.23257371567
 30
0.0
 11
41746.77017000191
 21
-32428.23792534922
 31
0.0
  0
LINE
  5
4523
330
18
100
AcDbEntity
  8
OBJECT
  6
Continuous
 48
100.0
100
AcDbLine
 10
41996.77124033239
 20
-32403.2390887509
 30
0.0
 11
41996.76837839058
 21
-32813.2325737152
 31
0.0
  0
LINE
  5
4527
330
18
100
AcDbEntity
  8
OBJECT
  6
Continuous
 48
100.0
100
AcDbLine
 10
21593.28155131403
 20
-20504.38708569453
 30
0.0
 11
22991.00123548403
 21
-20584.26001279573
 31
0.0
  0
LINE
  5
4529
330
18
100
AcDbEntity
  8
OBJECT
  6
Continuous
 48
100.0
100
AcDbLine
 10
21588.71682652399
 20
-20584.25675007283
 30
0.0
 11
21593.28155131403
 21
-20504.38708569453
 31
0.0
  0
LINE
  5
452C
330
18
100
AcDbEntity
  8
OBJECT
  6
Continuous
 48
100.0
100
AcDbLine
 10
22991.00123548403
 20
-20584.26001279573
 30
0.0
 11
22986.4365106999
 21
-20664.12967717437
 31
0.0
  0
LINE
  5
4530
330
18
100
AcDbEntity
  8
DIM
  6
Continuous
100
AcDbLine
 10
21693.11771919225
 20
-20510.092240347
 30
0.0
 11
21693.11771919226
 21
-20471.59088808976
 31
0.0
  0
LINE
  5
4531
330
18
100
AcDbEntity
  8
DIM
  6
Continuous
100
AcDbLine
 10
21693.11771919225
 20
-20510.092240347
 30
0.0
 11
21693.11771919225
 21
-20010.092240347
 31
0.0
  0
LINE
  5
4532
330
18
100
AcDbEntity
  8
DIM
  6
Continuous
100
AcDbLine
 10
21993.11771918211
 20
-20527.23579094656
 30
0.0
 11
21993.11771918211
 21
-20010.092240347
 31
0.0
  0
LINE
  5
4533
330
18
100
AcDbEntity
  8
DIM
  6
Continuous
100
AcDbLine
 10
21684.11771919226
 20
-20010.092240347
 30
0.0
 11
21684.11771919226
 21
-19998.092240347
 31
0.0
  0
LINE
  5
4534
330
18
100
AcDbEntity
  8
DIM
  6
Continuous
100
AcDbLine
 10
22002.11771919226
 20
-20010.092240347
 30
0.0
 11
22002.11771919226
 21
-19998.092240347
 31
0.0
  0
LINE
  5
4536
330
18
100
AcDbEntity
  8
OBJECT
  6
Continuous
 48
100.0
100
AcDbLine
 10
21588.71682652399
 20
-20584.25675007283
 30
0.0
 11
22986.4365106999
 21
-20664.12967717437
 31
0.0
  0
LINE
  5
4566
330
18
100
AcDbEntity
  8
OBJECT
  6
Continuous
 48
100.0
100
AcDbLine
 10
21684.11771919226
 20
-20010.092240347
 30
0.0
 11
22002.11771919226
 21
-20010.092240347
 31
0.0
  0
LINE
  5
4567
330
18
100
AcDbEntity
  8
OBJECT
  6
Continuous
 48
100.0
100
AcDbLine
 10
21684.11771919226
 20
-19998.092240347
 30
0.0
 11
22002.11771919226
 21
-19998.092240347
 31
0.0
  0
LINE
  5
45CE
330
18
100
AcDbEntity
  8
DIM
  6
Continuous
100
AcDbLine
 10
31192.56516170744
 20
-20643.30046375597
 30
0.0
 11
31192.57519948969
 21
-20143.30046385673
 31
0.0
  0
LINE
  5
45CF
330
18
100
AcDbEntity
  8
OBJECT
  6
Continuous
 48
100.0
100
AcDbLine
 10
31092.56611570105
 20
-20643.29845621867
 30
0.0
 11
32492.56611541893
 21
-20643.32656200898
 31
0.0
  0
LINE
  5
45D0
330
18
100
AcDbEntity
  8
OBJECT
  6
Continuous
 48
100.0
100
AcDbLine
 10
31092.5639512192
 20
-20723.29845619134
 30
0.0
 11
32492.56395094299
 21
-20723.32656198164
 31
0.0
  0
LINE
  5
45D1
330
18
100
AcDbEntity
  8
OBJECT
  6
Continuous
 48
100.0
100
AcDbLine
 10
31092.5639512192
 20
-20723.29845619134
 30
0.0
 11
31092.56611570105
 21
-20643.29845621867
 31
0.0
  0
LINE
  5
45D2
330
18
100
AcDbEntity
  8
DIM
  6
Continuous
100
AcDbLine
 10
31192.56516170744
 20
-20643.30046375597
 30
0.0
 11
31192.56593464382
 21
-20604.79911150649
 31
0.0
  0
LINE
  5
45D3
330
18
100
AcDbEntity
  8
DIM
  6
Continuous
100
AcDbLine
 10
31492.56516163683
 20
-20643.30648642532
 30
0.0
 11
31492.57519941909
 21
-20143.30648652608
 31
0.0
  0
LINE
  5
45D4
330
18
100
AcDbEntity
  8
DIM
  6
Continuous
100
AcDbLine
 10
31501.57519942742
 20
-20143.30666720615
 30
0.0
 11
31501.5754403342
 21
-20131.30666720857
 31
0.0
  0
LINE
  5
45D5
330
18
100
AcDbEntity
  8
DIM
  6
Continuous
100
AcDbLine
 10
31183.5751994915
 20
-20143.30028317665
 30
0.0
 11
31183.57544039828
 21
-20131.30028317906
 31
0.0
  0
LINE
  5
45D6
330
18
100
AcDbEntity
  8
OBJECT
  6
Continuous
 48
100.0
100
AcDbLine
 10
31183.57544039828
 20
-20131.30028317906
 30
0.0
 11
31501.5754403342
 21
-20131.30666720857
 31
0.0
  0
LINE
  5
45D7
330
18
100
AcDbEntity
  8
OBJECT
  6
Continuous
 48
100.0
100
AcDbLine
 10
31183.5751994915
 20
-20143.30028317665
 30
0.0
 11
31501.57519942742
 21
-20143.30666720615
 31
0.0
  0
LINE
  5
45D8
330
18
100
AcDbEntity
  8
DIM
  6
Continuous
100
AcDbLine
 10
32392.5670691859
 20
-20643.33293099101
 30
0.0
 11
32392.58408738983
 21
-20143.33293128062
 31
0.0
  0
LINE
  5
45D9
330
18
100
AcDbEntity
  8
DIM
  6
Continuous
100
AcDbLine
 10
32092.56706936983
 20
-20643.32272006865
 30
0.0
 11
32092.58408757376
 21
-20143.32272035828
 31
0.0
  0
LINE
  5
45DA
330
18
100
AcDbEntity
  8
OBJECT
  6
Continuous
 48
100.0
100
AcDbLine
 10
32492.56611541893
 20
-20643.32656200898
 30
0.0
 11
32492.56395094299
 21
-20723.32656198164
 31
0.0
  0
LINE
  5
45DB
330
18
100
AcDbEntity
  8
DIM
  6
Continuous
100
AcDbLine
 10
32392.5670691859
 20
-20643.33293099101
 30
0.0
 11
32392.56837963363
 21
-20604.83157875607
 31
0.0
  0
LINE
  5
45DC
330
18
100
AcDbEntity
  8
OBJECT
  6
Continuous
 48
100.0
100
AcDbLine
 10
32401.58408738462
 20
-20143.3332376083
 30
0.0
 11
32083.58408756882
 21
-20143.3224140306
 31
0.0
  0
LINE
  5
45DD
330
18
100
AcDbEntity
  8
OBJECT
  6
Continuous
 48
100.0
100
AcDbLine
 10
32401.58449582151
 20
-20131.33323761524
 30
0.0
 11
32083.58449600571
 21
-20131.32241403754
 31
0.0
  0
LINE
  5
45DE
330
18
100
AcDbEntity
  8
DIM
  6
Continuous
100
AcDbLine
 10
32401.58408738462
 20
-20143.3332376083
 30
0.0
 11
32401.58449582151
 21
-20131.33323761524
 31
0.0
  0
LINE
  5
45DF
330
18
100
AcDbEntity
  8
DIM
  6
Continuous
100
AcDbLine
 10
32083.58408756882
 20
-20143.3224140306
 30
0.0
 11
32083.58449600571
 21
-20131.32241403754
 31
0.0
  0
LINE
  5
45E2
330
18
100
AcDbEntity
  8
OBJECT
  6
Continuous
 48
100.0
100
AcDbLine
 10
22582.65370675156
 20
-20061.43923090953
 30
0.0
 11
22900.65370675156
 21
-20061.43923090953
 31
0.0
  0
LINE
  5
45E3
330
18
100
AcDbEntity
  8
OBJECT
  6
Continuous
 48
100.0
100
AcDbLine
 10
22582.65370675156
 20
-20049.43923090953
 30
0.0
 11
22900.65370675156
 21
-20049.43923090953
 31
0.0
  0
LINE
  5
45E4
330
18
100
AcDbEntity
  8
DIM
  6
Continuous
100
AcDbLine
 10
22582.65370675156
 20
-20061.43923090953
 30
0.0
 11
22582.65370675156
 21
-20049.43923090953
 31
0.0
  0
LINE
  5
45E5
330
18
100
AcDbEntity
  8
DIM
  6
Continuous
100
AcDbLine
 10
22591.65370675155
 20
-20561.43923090953
 30
0.0
 11
22591.65370675156
 21
-20522.93787865229
 31
0.0
  0
LINE
  5
45E6
330
18
100
AcDbEntity
  8
DIM
  6
Continuous
100
AcDbLine
 10
22591.65370675155
 20
-20561.43923090953
 30
0.0
 11
22591.65370675155
 21
-20061.43923090953
 31
0.0
  0
LINE
  5
45E7
330
18
100
AcDbEntity
  8
DIM
  6
Continuous
100
AcDbLine
 10
22900.65370675156
 20
-20061.43923090953
 30
0.0
 11
22900.65370675156
 21
-20049.43923090953
 31
0.0
  0
LINE
  5
45E8
330
18
100
AcDbEntity
  8
DIM
  6
Continuous
100
AcDbLine
 10
22891.65370674141
 20
-20578.58278150908
 30
0.0
 11
22891.65370674141
 21
-20061.43923090953
 31
0.0
  0
LINE
  5
45E9
330
18
100
AcDbEntity
  8
OBJECT
  6
Continuous
 48
100.0
100
AcDbLine
 10
41899.56171147941
 20
-20010.33959139529
 30
0.0
 11
41581.56171157464
 21
-20010.33180946051
 31
0.0
  0
LINE
  5
45EA
330
18
100
AcDbEntity
  8
OBJECT
  6
Continuous
 48
100.0
100
AcDbLine
 10
41899.56200513733
 20
-19998.33959139888
 30
0.0
 11
41581.56200523255
 21
-19998.3318094641
 31
0.0
  0
LINE
  5
45EB
330
18
100
AcDbEntity
  8
OBJECT
  6
Continuous
 48
100.0
100
AcDbLine
 10
41990.38578319759
 20
-20504.63665949146
 30
0.0
 11
40592.66414483633
 21
-20584.47538228125
 31
0.0
  0
LINE
  5
45EC
330
18
100
AcDbEntity
  8
OBJECT
  6
Continuous
 48
100.0
100
AcDbLine
 10
41994.94855345633
 20
-20584.50643555148
 30
0.0
 11
40597.22691508916
 21
-20664.34515834161
 31
0.0
  0
LINE
  5
45ED
330
18
100
AcDbEntity
  8
DIM
  6
Continuous
100
AcDbLine
 10
41899.56171147941
 20
-20010.33959139529
 30
0.0
 11
41899.56200513733
 21
-19998.33959139888
 31
0.0
  0
LINE
  5
45EE
330
18
100
AcDbEntity
  8
DIM
  6
Continuous
100
AcDbLine
 10
41890.5494757356
 20
-20510.33937100214
 30
0.0
 11
41890.55041792117
 21
-20471.83801875643
 31
0.0
  0
LINE
  5
45EF
330
18
100
AcDbEntity
  8
DIM
  6
Continuous
100
AcDbLine
 10
41890.5494757356
 20
-20510.33937100214
 30
0.0
 11
41890.56171148211
 21
-20010.33937115185
 31
0.0
  0
LINE
  5
45F0
330
18
100
AcDbEntity
  8
OBJECT
  6
Continuous
 48
100.0
100
AcDbLine
 10
41994.94855345633
 20
-20584.50643555148
 30
0.0
 11
41990.38578319759
 21
-20504.63665949146
 31
0.0
  0
LINE
  5
45F1
330
18
100
AcDbEntity
  8
DIM
  6
Continuous
100
AcDbLine
 10
41590.54905630731
 20
-20527.47558014865
 30
0.0
 11
41590.56171158209
 21
-20010.33202970395
 31
0.0
  0
LINE
  5
45F2
330
18
100
AcDbEntity
  8
DIM
  6
Continuous
100
AcDbLine
 10
41581.56171157464
 20
-20010.33180946051
 30
0.0
 11
41581.56200523255
 21
-19998.3318094641
 31
0.0
  0
LINE
  5
45F3
330
18
100
AcDbEntity
  8
DIM
  6
Continuous
100
AcDbLine
 10
40692.01181247953
 20
-20578.80058217866
 30
0.0
 11
40692.02446775431
 21
-20061.65703173395
 31
0.0
  0
LINE
  5
45F4
330
18
100
AcDbEntity
  8
DIM
  6
Continuous
100
AcDbLine
 10
40683.02446774685
 20
-20061.65681149052
 30
0.0
 11
40683.02476140478
 21
-20049.65681149411
 31
0.0
  0
LINE
  5
45F5
330
18
100
AcDbEntity
  8
DIM
  6
Continuous
100
AcDbLine
 10
40992.01223190783
 20
-20561.66437303215
 30
0.0
 11
40992.02446765434
 21
-20061.66437318186
 31
0.0
  0
LINE
  5
45F6
330
18
100
AcDbEntity
  8
DIM
  6
Continuous
100
AcDbLine
 10
40992.01223190783
 20
-20561.66437303215
 30
0.0
 11
40992.0131740934
 21
-20523.16302078643
 31
0.0
  0
LINE
  5
45F7
330
18
100
AcDbEntity
  8
DIM
  6
Continuous
100
AcDbLine
 10
41001.02446765164
 20
-20061.6645934253
 30
0.0
 11
41001.02476130955
 21
-20049.66459342889
 31
0.0
  0
LINE
  5
45F8
330
18
100
AcDbEntity
  8
OBJECT
  6
Continuous
 48
100.0
100
AcDbLine
 10
41001.02476130955
 20
-20049.66459342889
 30
0.0
 11
40683.02476140478
 21
-20049.65681149411
 31
0.0
  0
LINE
  5
45F9
330
18
100
AcDbEntity
  8
OBJECT
  6
Continuous
 48
100.0
100
AcDbLine
 10
41001.02446765164
 20
-20061.6645934253
 30
0.0
 11
40683.02446774685
 21
-20061.65681149052
 31
0.0
  0
LINE
  5
45FA
330
18
100
AcDbEntity
  8
OBJECT
  6
Continuous
 48
100.0
100
AcDbLine
 10
40592.66414483633
 20
-20584.47538228125
 30
0.0
 11
40597.22691508916
 21
-20664.34515834161
 31
0.0
  0
LINE
  5
45FB
330
18
100
AcDbEntity
  8
DIM
  6
Continuous
 48
100.0
100
AcDbLine
 10
30641.82380543531
 20
-21023.29801876802
 30
0.0
 11
30641.82025918438
 21
-21323.29801875225
 31
0.0
  0
LINE
  5
45FC
330
18
100
AcDbEntity
  8
DIM
  6
Continuous
 48
100.0
100
AcDbLine
 10
30941.82380541434
 20
-21023.30156501895
 30
0.0
 11
30941.82025916342
 21
-21323.30156500318
 31
0.0
  0
LINE
  5
45FD
330
18
100
AcDbEntity
  8
DIM
  6
Continuous
 48
100.0
100
AcDbLine
 10
29941.82380548421
 20
-21023.28974418253
 30
0.0
 11
29941.82025923329
 21
-21323.28974416675
 31
0.0
  0
LINE
  5
45FE
330
18
100
AcDbEntity
  8
DIM
  6
Continuous
 48
100.0
100
AcDbLine
 10
29641.82380550518
 20
-21023.2861979316
 30
0.0
 11
29641.82025925425
 21
-21323.28619791582
 31
0.0
  0
LINE
  5
45FF
330
18
100
AcDbEntity
  8
DIM
  6
Continuous
 48
100.0
100
AcDbLine
 10
28641.82380557505
 20
-21023.27437709517
 30
0.0
 11
28641.82025932412
 21
-21323.2743770794
 31
0.0
  0
LINE
  5
4600
330
18
100
AcDbEntity
  8
DIM
  6
Continuous
 48
100.0
100
AcDbLine
 10
28941.82380555408
 20
-21023.27792334611
 30
0.0
 11
28941.82025930316
 21
-21323.27792333033
 31
0.0
  0
LINE
  5
4601
330
18
100
AcDbEntity
  8
DIM
  6
Continuous
 48
100.0
100
AcDbLine
 10
27641.82380564491
 20
-21023.26255625876
 30
0.0
 11
27641.82025939398
 21
-21323.26255624298
 31
0.0
  0
LINE
  5
4602
330
18
100
AcDbEntity
  8
DIM
  6
Continuous
 48
100.0
100
AcDbLine
 10
27941.82380562394
 20
-21023.26610250968
 30
0.0
 11
27941.82025937303
 21
-21323.26610249391
 31
0.0
  0
LINE
  5
4603
330
18
100
AcDbEntity
  8
DIM
  6
Continuous
 48
100.0
100
AcDbLine
 10
26941.82380569381
 20
-21023.25428167326
 30
0.0
 11
26941.82025944289
 21
-21323.25428165748
 31
0.0
  0
LINE
  5
4604
330
18
100
AcDbEntity
  8
DIM
  6
Continuous
 48
100.0
100
AcDbLine
 10
25941.82380576369
 20
-21023.24246083684
 30
0.0
 11
25941.82025951277
 21
-21323.24246082106
 31
0.0
  0
LINE
  5
4605
330
18
100
AcDbEntity
  8
DIM
  6
Continuous
 48
100.0
100
AcDbLine
 10
26641.82380571478
 20
-21023.25073542234
 30
0.0
 11
26641.82025946385
 21
-21323.25073540656
 31
0.0
  0
LINE
  5
4606
330
18
100
AcDbEntity
  8
DIM
  6
Continuous
 48
100.0
100
AcDbLine
 10
25641.82380578465
 20
-21023.23891458591
 30
0.0
 11
25641.82025953372
 21
-21323.23891457013
 31
0.0
  0
LINE
  5
4607
330
18
100
AcDbEntity
  8
DIM
  6
Continuous
 48
100.0
100
AcDbLine
 10
24641.82380585451
 20
-21023.22709374949
 30
0.0
 11
24641.82025960358
 21
-21323.22709373372
 31
0.0
  0
LINE
  5
4608
330
18
100
AcDbEntity
  8
DIM
  6
Continuous
 48
100.0
100
AcDbLine
 10
24941.82380583355
 20
-21023.23064000041
 30
0.0
 11
24941.82025958263
 21
-21323.23063998464
 31
0.0
  0
LINE
  5
4609
330
18
100
AcDbEntity
  8
DIM
  6
Continuous
 48
100.0
100
AcDbLine
 10
23641.82380592438
 20
-21023.21527291307
 30
0.0
 11
23641.82025967346
 21
-21323.21527289729
 31
0.0
  0
LINE
  5
460A
330
18
100
AcDbEntity
  8
DIM
  6
Continuous
 48
100.0
100
AcDbLine
 10
23941.82380590342
 20
-21023.21881916399
 30
0.0
 11
23941.8202596525
 21
-21323.21881914822
 31
0.0
  0
LINE
  5
460B
330
18
100
AcDbEntity
  8
DIM
  6
Continuous
 48
100.0
100
AcDbLine
 10
22645.53632166952
 20
-20958.24506836011
 30
0.0
 11
22645.50489879124
 21
-21258.73282942453
 31
0.0
  0
LINE
  5
460C
330
18
100
AcDbEntity
  8
DIM
  6
Continuous
 48
100.0
100
AcDbLine
 10
22944.5598012177
 20
-20975.33492330382
 30
0.0
 11
22944.52837833943
 21
-21275.82268436825
 31
0.0
  0
LINE
  5
460D
330
18
100
AcDbEntity
  8
DIM
  6
Continuous
 48
100.0
100
AcDbLine
 10
21947.81486939041
 20
-20918.36874015811
 30
0.0
 11
21947.78344651214
 21
-21218.85650122254
 31
0.0
  0
LINE
  5
460E
330
18
100
AcDbEntity
  8
DIM
  6
Continuous
 48
100.0
100
AcDbLine
 10
21648.79138984223
 20
-20901.2788852144
 30
0.0
 11
21648.75996696395
 21
-21201.76664627883
 31
0.0
  0
LINE
  5
460F
330
18
100
AcDbEntity
  8
DIM
  6
Continuous
 48
100.0
100
AcDbLine
 10
20951.06993756312
 20
-20861.4025570124
 30
0.0
 11
20951.03851468484
 21
-21161.89031807683
 31
0.0
  0
LINE
  5
4610
330
18
100
AcDbEntity
  8
DIM
  6
Continuous
 48
100.0
100
AcDbLine
 10
20652.04645801494
 20
-20844.31270206869
 30
0.0
 11
20652.01503513665
 21
-21144.80046313312
 31
0.0
  0
LINE
  5
4640
330
18
100
AcDbEntity
  8
OBJECT
  6
Continuous
 48
100.0
100
AcDbLine
 10
40307.52434824576
 20
-28755.16642868474
 30
0.0
 11
40848.93814577161
 21
-29296.59534352797
 31
0.0
  0
LINE
  5
4641
330
18
100
AcDbEntity
  8
OBJECT
  6
Continuous
 48
100.0
100
AcDbLine
 10
40848.9457044303
 20
-28755.17398734343
 30
0.0
 11
40307.51678958707
 21
-29296.58778486928
 31
0.0
  0
LWPOLYLINE
  5
4642
330
18
100
AcDbEntity
  8
OBJECT
  6
Continuous
 48
100.0
100
AcDbPolyline
 90
        8
 70
     1
 43
0.0
 10
40778.22705875838
 20
-29325.883678231
 10
40378.22705879736
 20
-29325.87809392325
 42
-0.414213562373094
 10
40278.22845488405
 20
-29225.87669785605
 10
40278.23403919179
 20
-28825.87669789503
 42
-0.4142135623730951
 10
40378.23543525899
 20
-28725.87809398172
 10
40778.23543522001
 20
-28725.88367828947
 42
-0.4142135623730961
 10
40878.23403913333
 20
-28825.88507435666
 10
40878.22845482557
 20
-29225.88507431768
 42
-0.4142135623730951
  0
LWPOLYLINE
  5
4644
330
18
100
AcDbEntity
  8
OBJECT
  6
Continuous
 48
100.0
100
AcDbPolyline
 90
        8
 70
     1
 43
0.0
 10
22805.34196869071
 20
-29325.62240723743
 10
23205.34196864503
 20
-29325.62845249242
 42
0.414213562373094
 10
23305.34347994735
 20
-29225.62996381759
 10
23305.34952520236
 20
-28825.62996386327
 42
0.4142135623730951
 10
23205.35103652752
 20
-28725.62845256095
 10
22805.3510365732
 20
-28725.62240730595
 42
0.4142135623730961
 10
22705.34952527087
 20
-28825.62089598078
 10
22705.34348001588
 20
-29225.6208959351
 42
0.4142135623730951
  0
LINE
  5
4645
330
18
100
AcDbEntity
  8
OBJECT
  6
Continuous
 48
100.0
100
AcDbLine
 10
23276.06127198455
 20
-28754.91884309915
 30
0.0
 11
22734.63173323369
 21
-29296.33201669923
 31
0.0
  0
LINE
  5
4646
330
18
100
AcDbEntity
  8
OBJECT
  6
Continuous
 48
100.0
100
AcDbLine
 10
22734.63991580907
 20
-28754.91066052375
 30
0.0
 11
23276.05308940916
 21
-29296.34019927462
 31
0.0
  0
LINE
  5
4647
330
18
100
AcDbEntity
  8
OBJECT
  6
Continuous
 48
0.04
100
AcDbLine
 10
23691.82011066008
 20
-26825.00781054518
 30
0.0
 11
39891.82011026538
 21
-26825.12089276667
 31
0.0
  0
LINE
  5
4648
330
18
100
AcDbEntity
  8
OBJECT
  6
Continuous
 48
100.0
100
AcDbLine
 10
23691.82011066008
 20
-26825.00781054518
 30
0.0
 11
23691.80196165987
 21
-29425.00781046918
 31
0.0
  0
LINE
  5
4649
330
18
100
AcDbEntity
  8
OBJECT
  6
Continuous
 48
100.0
100
AcDbLine
 10
39891.82011026538
 20
-26825.12089276667
 30
0.0
 11
39891.80196126519
 21
-29425.12089270114
 31
0.0
  0
LINE
  5
464A
330
18
100
AcDbEntity
  8
OBJECT
  6
Continuous
 48
0.04
100
AcDbLine
 10
23491.82150674189
 20
-26625.00641447326
 30
0.0
 11
40091.82150633743
 21
-26625.12228884835
 31
0.0
  0
LINE
  5
464B
330
18
100
AcDbEntity
  8
OBJECT
  6
Continuous
 48
100.0
100
AcDbLine
 10
23491.82150674189
 20
-26625.00641447326
 30
0.0
 11
23491.80196166475
 21
-29425.00641439224
 31
0.0
  0
LINE
  5
464C
330
18
100
AcDbEntity
  8
OBJECT
  6
Continuous
 48
100.0
100
AcDbLine
 10
40091.82150633743
 20
-26625.12228884835
 30
0.0
 11
40091.8019612603
 21
-29425.12228877808
 31
0.0
  0
LINE
  5
464D
330
18
100
AcDbEntity
  8
DIM
  6
Continuous
100
AcDbLine
 10
39891.82011026538
 20
-26825.12089276667
 30
0.0
 11
40091.82150633743
 21
-26625.12228884835
 31
0.0
  0
LINE
  5
464E
330
18
100
AcDbEntity
  8
DIM
  6
Continuous
100
AcDbLine
 10
23691.82011066008
 20
-26825.00781054518
 30
0.0
 11
23491.82150674189
 21
-26625.00641447326
 31
0.0
  0
LINE
  5
464F
330
18
100
AcDbEntity
  8
DIM
  6
Continuous
100
AcDbLine
 10
23691.78381266452
 20
-32025.00781042308
 30
0.0
 11
23491.78241659283
 21
-32225.0064143415
 31
0.0
  0
LINE
  5
4650
330
18
100
AcDbEntity
  8
OBJECT
  6
Continuous
 48
100.0
100
AcDbLine
 10
23691.78381266452
 20
-32025.00781042308
 30
0.0
 11
23691.80196165987
 21
-29425.00781049909
 31
0.0
  0
LINE
  5
4651
330
18
100
AcDbEntity
  8
OBJECT
  6
Continuous
 48
100.0
100
AcDbLine
 10
23491.78241659283
 20
-32225.0064143415
 30
0.0
 11
23491.80196166475
 21
-29425.00641442252
 31
0.0
  0
LINE
  5
4652
330
18
100
AcDbEntity
  8
OBJECT
  6
Continuous
 48
0.04
100
AcDbLine
 10
23491.78241659283
 20
-32225.0064143415
 30
0.0
 11
40091.78241618838
 21
-32225.12228870725
 31
0.0
  0
LINE
  5
4653
330
18
100
AcDbEntity
  8
OBJECT
  6
Continuous
 48
0.04
100
AcDbLine
 10
23691.78381266452
 20
-32025.00781042308
 30
0.0
 11
39891.78381226983
 21
-32025.12089263542
 31
0.0
  0
LINE
  5
4654
330
18
100
AcDbEntity
  8
OBJECT
  6
Continuous
 48
100.0
100
AcDbLine
 10
39891.78381226983
 20
-32025.12089263542
 30
0.0
 11
39891.80196126519
 21
-29425.12089270095
 31
0.0
  0
LINE
  5
4655
330
18
100
AcDbEntity
  8
OBJECT
  6
Continuous
 48
100.0
100
AcDbLine
 10
40091.78241618838
 20
-32225.12228870725
 30
0.0
 11
40091.8019612603
 21
-29425.12228877752
 31
0.0
  0
LINE
  5
4656
330
18
100
AcDbEntity
  8
DIM
  6
Continuous
100
AcDbLine
 10
39891.78381226983
 20
-32025.12089263542
 30
0.0
 11
40091.78241618838
 21
-32225.12228870725
 31
0.0
  0
LINE
  5
4722
330
18
100
AcDbEntity
  8
OBJECT
  6
Continuous
 48
1000.0
100
AcDbLine
 10
29291.9021463823
 20
-12936.92930960584
 30
0.0
 11
29593.62397825805
 21
-12635.20747773009
 31
0.0
  0
LINE
  5
4723
330
18
100
AcDbEntity
  8
OBJECT
  6
Continuous
 48
1000.0
100
AcDbLine
 10
29291.90049985963
 20
-13385.94376218196
 30
0.0
 11
29392.63888929728
 21
-13285.20537274432
 31
0.0
  0
LINE
  5
4724
330
18
100
AcDbEntity
  8
OBJECT
  6
Continuous
 48
1000.0
100
AcDbLine
 10
29425.01328784969
 20
-13252.8309741919
 30
0.0
 11
30042.63260530759
 21
-12635.21165673401
 31
0.0
  0
LINE
  5
4725
330
18
100
AcDbEntity
  8
OBJECT
  6
Continuous
 48
1000.0
100
AcDbLine
 10
29392.63888929728
 20
-13285.20537274432
 30
0.0
 11
29425.01328784969
 21
-13252.8309741919
 31
0.0
  0
LINE
  5
4726
330
18
100
AcDbEntity
  8
OBJECT
  6
Continuous
 48
1000.0
100
AcDbLine
 10
29291.89736555564
 20
-13834.95970253941
 30
0.0
 11
29841.6485610905
 21
-13285.20850700456
 31
0.0
  0
LINE
  5
4727
330
18
100
AcDbEntity
  8
OBJECT
  6
Continuous
 48
1000.0
100
AcDbLine
 10
29887.229028855
 20
-13239.62803924005
 30
0.0
 11
30491.64123235712
 21
-12635.21583573794
 31
0.0
  0
LINE
  5
4728
330
18
100
AcDbEntity
  8
OBJECT
  6
Continuous
 48
1000.0
100
AcDbLine
 10
29841.6485610905
 20
-13285.20850700456
 30
0.0
 11
29887.229028855
 21
-13239.62803924005
 31
0.0
  0
LINE
  5
4729
330
18
100
AcDbEntity
  8
OBJECT
  6
Continuous
 48
1000.0
100
AcDbLine
 10
29291.89423125165
 20
-14283.97564289687
 30
0.0
 11
30290.65823288372
 21
-13285.2116412648
 31
0.0
  0
LINE
  5
472A
330
18
100
AcDbEntity
  8
OBJECT
  6
Continuous
 48
1000.0
100
AcDbLine
 10
30349.44476986032
 20
-13226.4251042882
 30
0.0
 11
30940.64985940665
 21
-12635.22001474186
 31
0.0
  0
LINE
  5
472B
330
18
100
AcDbEntity
  8
OBJECT
  6
Continuous
 48
1000.0
100
AcDbLine
 10
30290.65823288372
 20
-13285.2116412648
 30
0.0
 11
30349.44476986032
 21
-13226.4251042882
 31
0.0
  0
LINE
  5
472C
330
18
100
AcDbEntity
  8
OBJECT
  6
Continuous
 48
1000.0
100
AcDbLine
 10
29291.89109694765
 20
-14732.99158325432
 30
0.0
 11
30739.66790467693
 21
-13285.21477552504
 31
0.0
  0
LINE
  5
472D
330
18
100
AcDbEntity
  8
OBJECT
  6
Continuous
 48
1000.0
100
AcDbLine
 10
30811.66051086562
 20
-13213.22216933635
 30
0.0
 11
31389.65848645618
 21
-12635.22419374579
 31
0.0
  0
LINE
  5
472E
330
18
100
AcDbEntity
  8
OBJECT
  6
Continuous
 48
1000.0
100
AcDbLine
 10
30739.66790467693
 20
-13285.21477552504
 30
0.0
 11
30811.66051086562
 21
-13213.22216933635
 31
0.0
  0
LINE
  5
472F
330
18
100
AcDbEntity
  8
OBJECT
  6
Continuous
 48
1000.0
100
AcDbLine
 10
29738.68769792197
 20
-14735.20778833345
 30
0.0
 11
31188.67757647015
 21
-13285.21790978528
 31
0.0
  0
LINE
  5
4730
330
18
100
AcDbEntity
  8
OBJECT
  6
Continuous
 48
1000.0
100
AcDbLine
 10
31273.87625187093
 20
-13200.01923438449
 30
0.0
 11
31838.6671135057
 21
-12635.22837274972
 31
0.0
  0
LINE
  5
4731
330
18
100
AcDbEntity
  8
OBJECT
  6
Continuous
 48
1000.0
100
AcDbLine
 10
31188.67757647015
 20
-13285.21790978528
 30
0.0
 11
31273.87625187093
 21
-13200.01923438449
 31
0.0
  0
LINE
  5
4732
330
18
100
AcDbEntity
  8
OBJECT
  6
Continuous
 48
1000.0
100
AcDbLine
 10
30187.69736971519
 20
-14735.21092259369
 30
0.0
 11
31637.68724826337
 21
-13285.22104404552
 31
0.0
  0
LINE
  5
4733
330
18
100
AcDbEntity
  8
OBJECT
  6
Continuous
 48
1000.0
100
AcDbLine
 10
31791.90227948411
 20
-13131.00601282477
 30
0.0
 11
32287.67574055524
 21
-12635.23255175364
 31
0.0
  0
LINE
  5
4734
330
18
100
AcDbEntity
  8
OBJECT
  6
Continuous
 48
1000.0
100
AcDbLine
 10
31637.68724826337
 20
-13285.22104404551
 30
0.0
 11
31736.09199287624
 21
-13186.81629943264
 31
0.0
  0
LINE
  5
4735
330
18
100
AcDbEntity
  8
OBJECT
  6
Continuous
 48
1000.0
100
AcDbLine
 10
31736.09199287625
 20
-13186.81629943264
 30
0.0
 11
31791.90227948411
 21
-13131.00601282478
 31
0.0
  0
LINE
  5
4736
330
18
100
AcDbEntity
  8
OBJECT
  6
Continuous
 48
1000.0
100
AcDbLine
 10
30636.70704150842
 20
-14735.21405685393
 30
0.0
 11
31791.89914518012
 21
-13580.02195318222
 31
0.0
  0
LINE
  5
4737
330
18
100
AcDbEntity
  8
OBJECT
  6
Continuous
 48
1000.0
100
AcDbLine
 10
32175.72978540566
 20
-13196.19131295668
 30
0.0
 11
32736.68436760478
 21
-12635.23673075757
 31
0.0
  0
LINE
  5
4738
330
18
100
AcDbEntity
  8
OBJECT
  6
Continuous
 48
1000.0
100
AcDbLine
 10
31791.89914518013
 20
-13580.02195318222
 30
0.0
 11
32086.69692005659
 21
-13285.22417830576
 31
0.0
  0
LINE
  5
4739
330
18
100
AcDbEntity
  8
OBJECT
  6
Continuous
 48
1000.0
100
AcDbLine
 10
32086.69692005659
 20
-13285.22417830575
 30
0.0
 11
32175.72978540566
 21
-13196.19131295668
 31
0.0
  0
LINE
  5
473A
330
18
100
AcDbEntity
  8
OBJECT
  6
Continuous
 48
1000.0
100
AcDbLine
 10
31085.71671330163
 20
-14735.21719111417
 30
0.0
 11
31791.89601087613
 21
-14029.03789353968
 31
0.0
  0
LINE
  5
473B
330
18
100
AcDbEntity
  8
OBJECT
  6
Continuous
 48
1000.0
100
AcDbLine
 10
32612.26704854055
 20
-13208.66685587525
 30
0.0
 11
33185.6929946543
 21
-12635.2409097615
 31
0.0
  0
LINE
  5
473C
330
18
100
AcDbEntity
  8
OBJECT
  6
Continuous
 48
1000.0
100
AcDbLine
 10
31791.89601087613
 20
-14029.03789353967
 30
0.0
 11
32535.70659184981
 21
-13285.22731256599
 31
0.0
  0
LINE
  5
473D
330
18
100
AcDbEntity
  8
OBJECT
  6
Continuous
 48
1000.0
100
AcDbLine
 10
32535.70659184982
 20
-13285.22731256599
 30
0.0
 11
32612.26704854055
 21
-13208.66685587525
 31
0.0
  0
LINE
  5
473E
330
18
100
AcDbEntity
  8
OBJECT
  6
Continuous
 48
1000.0
100
AcDbLine
 10
31534.72638509486
 20
-14735.22032537441
 30
0.0
 11
31791.89287657213
 21
-14478.05383389713
 31
0.0
  0
LINE
  5
473F
330
18
100
AcDbEntity
  8
OBJECT
  6
Continuous
 48
1000.0
100
AcDbLine
 10
33048.80431167544
 20
-13221.14239879382
 30
0.0
 11
33634.70162170383
 21
-12635.24508876542
 31
0.0
  0
LINE
  5
4740
330
18
100
AcDbEntity
  8
OBJECT
  6
Continuous
 48
1000.0
100
AcDbLine
 10
31791.89287657214
 20
-14478.05383389713
 30
0.0
 11
32984.71626364303
 21
-13285.23044682623
 31
0.0
  0
LINE
  5
4741
330
18
100
AcDbEntity
  8
OBJECT
  6
Continuous
 48
1000.0
100
AcDbLine
 10
32984.71626364303
 20
-13285.23044682623
 30
0.0
 11
33048.80431167544
 21
-13221.14239879382
 31
0.0
  0
LINE
  5
4742
330
18
100
AcDbEntity
  8
OBJECT
  6
Continuous
 48
1000.0
100
AcDbLine
 10
31983.73605688807
 20
-14735.22345963465
 30
0.0
 11
33433.72593543625
 21
-13285.23358108647
 31
0.0
  0
LINE
  5
4743
330
18
100
AcDbEntity
  8
OBJECT
  6
Continuous
 48
1000.0
100
AcDbLine
 10
33485.34157481032
 20
-13233.6179417124
 30
0.0
 11
34083.71024875337
 21
-12635.24926776935
 31
0.0
  0
LINE
  5
4744
330
18
100
AcDbEntity
  8
OBJECT
  6
Continuous
 48
1000.0
100
AcDbLine
 10
33433.72593543625
 20
-13285.23358108647
 30
0.0
 11
33485.34157481032
 21
-13233.6179417124
 31
0.0
  0
LINE
  5
4745
330
18
100
AcDbEntity
  8
OBJECT
  6
Continuous
 48
1000.0
100
AcDbLine
 10
32432.74572868128
 20
-14735.22659389489
 30
0.0
 11
33882.73560722947
 21
-13285.23671534671
 31
0.0
  0
LINE
  5
4746
330
18
100
AcDbEntity
  8
OBJECT
  6
Continuous
 48
1000.0
100
AcDbLine
 10
33921.8788379452
 20
-13246.09348463097
 30
0.0
 11
34291.9058302849
 21
-12876.06649229127
 31
0.0
  0
LINE
  5
4747
330
18
100
AcDbEntity
  8
OBJECT
  6
Continuous
 48
1000.0
100
AcDbLine
 10
33882.73560722947
 20
-13285.23671534671
 30
0.0
 11
33921.8788379452
 21
-13246.09348463097
 31
0.0
  0
LINE
  5
4748
330
18
100
AcDbEntity
  8
OBJECT
  6
Continuous
 48
1000.0
100
AcDbLine
 10
32881.7554004745
 20
-14735.22972815513
 30
0.0
 11
34291.90092480459
 21
-13325.08420382505
 31
0.0
  0
LINE
  5
4749
330
18
100
AcDbEntity
  8
OBJECT
  6
Continuous
 48
1000.0
100
AcDbLine
 10
33330.76507226772
 20
-14735.23286241537
 30
0.0
 11
34291.89779050059
 21
-13774.1001441825
 31
0.0
  0
LINE
  5
474A
330
18
100
AcDbEntity
  8
OBJECT
  6
Continuous
 48
1000.0
100
AcDbLine
 10
33779.77474406094
 20
-14735.23599667561
 30
0.0
 11
34291.89465619659
 21
-14223.11608453996
 31
0.0
  0
LINE
  5
474B
330
18
100
AcDbEntity
  8
OBJECT
  6
Continuous
 48
1000.0
100
AcDbLine
 10
34228.78441585416
 20
-14735.23913093585
 30
0.0
 11
34291.89152189259
 21
-14672.13202489742
 31
0.0
  0
DIMENSION
  5
474C
330
18
100
AcDbEntity
  8
DIM
  6
Continuous
100
AcDbDimension
  2
*D16
 10
27782.20656863204
 20
-14732.99158325432
 30
0.0
 11
27407.20656863205
 21
-13684.09789371597
 31
0.0
 70
    32
  1
2100
 71
     5
 42
-1.0
  3
STANDARD_WS
100
AcDbAlignedDimension
 13
29191.90062135961
 23
-12635.20420417764
 33
0.0
 14
29291.89109694765
 24
-14732.99158325432
 34
0.0
 50
90.0
100
AcDbRotatedDimension
1001
ACAD
1000
DSTYLE
1002
{
1070
    40
1040
200.0
1070
   271
1070
     1
1002
}
  0
MTEXT
  5
481B
330
18
100
AcDbEntity
  8
DIM
  6
Continuous
 48
100.0
100
AcDbMText
 10
38377.36539401709
 20
-7679.546837047972
 30
0.0
 40
600.0
 41
12000.0
 71
     1
 72
     5
  1
X5000=157.5m
 73
     1
 44
1.0
  0
MTEXT
  5
481C
330
18
100
AcDbEntity
  8
DIM
  6
Continuous
 48
100.0
100
AcDbMText
 10
44465.42549231176
 20
-7602.611028817206
 30
0.0
 40
240.0
 41
1404.98848
 71
     1
 72
     5
  1
3
 73
     1
 44
1.0
  0
MTEXT
  5
481E
330
18
100
AcDbEntity
  8
DIM
  6
Continuous
 48
100.0
100
AcDbMText
 10
22540.63871675944
 20
-7022.256553165735
 30
0.0
 40
1800.0
 41
4214.96544
 71
     1
 72
     5
  1
(
 73
     1
 44
1.0
  0
MTEXT
  5
481F
330
18
100
AcDbEntity
  8
DIM
  6
Continuous
 48
100.0
100
AcDbMText
 10
37489.36000990267
 20
-7022.256553165735
 30
0.0
 40
1800.0
 41
4214.96544
 71
     1
 72
     5
  1
)
 73
     1
 44
1.0
  0
VIEWPORT
  5
36
330
15
100
AcDbEntity
 67
     1
  8
0
100
AcDbViewport
 10
411.803940592644
 20
313.3926579441564
 30
0.0
 40
921.4547393745986
 41
485.5937953405252
 68
     1
 69
     1
 12
411.803940592644
 22
313.3926579441564
 13
0.0
 23
0.0
 14
10.0
 24
10.0
 15
10.0
 25
10.0
 16
0.0
 26
0.0
 36
1.0
 17
0.0
 27
0.0
 37
0.0
 42
50.0
 43
0.0
 44
0.0
 45
485.5937953405252
 50
0.0
 51
0.0
 72
   100
 90
    32800
  1

281
     0
 71
     1
 74
     0
110
0.0
120
0.0
130
0.0
111
1.0
121
0.0
131
0.0
112
0.0
122
1.0
132
0.0
 79
     0
146
0.0
170
     0
  0
VIEWPORT
  5
E4
330
15
100
AcDbEntity
 67
     1
  8
ZUWAKU
100
AcDbViewport
 10
297.0043951214808
 20
210.2518772484058
 30
0.0
 40
592.0087902429616
 41
415.5037544968115
 68
     2
 69
     2
 12
34502.27971471571
 22
-20353.77281012936
 13
0.0
 23
0.0
 14
10.0
 24
10.0
 15
10.0
 25
10.0
 16
0.0
 26
0.0
 36
1.0
 17
0.0
 27
0.0
 37
0.0
 42
50.0
 43
0.0
 44
0.0
 45
33428.82539278823
 50
0.0
 51
0.0
 72
   100
 90
    32800
  1

281
     0
 71
     1
 74
     0
110
0.0
120
0.0
130
0.0
111
1.0
121
0.0
131
0.0
112
0.0
122
1.0
132
0.0
 79
     0
146
0.0
170
     0
  0
LINE
  5
EC
330
15
100
AcDbEntity
 67
     1
  8
ZUWAKU
100
AcDbLine
 10
25.0
 20
10.0
 30
0.0
 11
25.0
 21
410.0
 31
0.0
  0
LINE
  5
ED
330
15
100
AcDbEntity
 67
     1
  8
ZUWAKU
100
AcDbLine
 10
584.0
 20
10.0
 30
0.0
 11
25.0
 21
10.0
 31
0.0
  0
LINE
  5
EE
330
15
100
AcDbEntity
 67
     1
  8
ZUWAKU
100
AcDbLine
 10
584.0
 20
410.0
 30
0.0
 11
584.0
 21
10.0
 31
0.0
  0
LINE
  5
EF
330
15
100
AcDbEntity
 67
     1
  8
ZUWAKU
100
AcDbLine
 10
25.0
 20
410.0
 30
0.0
 11
584.0
 21
410.0
 31
0.0
  0
LINE
  5
163
330
15
100
AcDbEntity
 67
     1
  8
ZUWAKU
 62
     0
100
AcDbLine
 10
522.7517730496447
 20
49.00000000000034
 30
0.0
 11
584.0
 21
49.00000000000036
 31
0.0
  0
LINE
  5
164
330
15
100
AcDbEntity
 67
     1
  8
ZUWAKU
 62
     0
100
AcDbLine
 10
522.7517730496447
 20
13.00000000000004
 30
0.0
 11
584.0
 21
13.00000000000004
 31
0.0
  0
LINE
  5
165
330
15
100
AcDbEntity
 67
     1
  8
ZUWAKU
 62
     0
100
AcDbLine
 10
522.7517730496447
 20
37.00000000000024
 30
0.0
 11
584.0
 21
37.00000000000024
 31
0.0
  0
LINE
  5
166
330
15
100
AcDbEntity
 67
     1
  8
ZUWAKU
 62
     0
100
AcDbLine
 10
522.7517730496447
 20
22.00000000000012
 30
0.0
 11
584.0
 21
22.00000000000012
 31
0.0
  0
LINE
  5
167
330
15
100
AcDbEntity
 67
     1
  8
ZUWAKU
 62
     0
100
AcDbLine
 10
454.2978723404242
 20
10.0
 30
0.0
 11
584.0
 21
10.0
 31
0.0
  0
LINE
  5
168
330
15
100
AcDbEntity
 67
     1
  8
ZUWAKU
 62
     0
100
AcDbLine
 10
584.0
 20
49.00000000000036
 30
0.0
 11
522.7517730496447
 21
49.00000000000034
 31
0.0
  0
LINE
  5
16E
330
15
100
AcDbEntity
 67
     1
  8
ZUWAKU
 62
     0
100
AcDbLine
 10
522.7517730496447
 20
49.00000000000036
 30
0.0
 11
522.7517730496447
 21
10.0
 31
0.0
  0
LINE
  5
16F
330
15
100
AcDbEntity
 67
     1
  8
ZUWAKU
 62
     0
100
AcDbLine
 10
564.014184397163
 20
22.00000000000008
 30
0.0
 11
564.014184397163
 21
10.0
 31
0.0
  0
LINE
  5
170
330
15
100
AcDbEntity
 67
     1
  8
ZUWAKU
 62
     0
100
AcDbLine
 10
574.6524822695037
 20
22.00000000000008
 30
0.0
 11
574.6524822695037
 21
10.0
 31
0.0
  0
TEXT
  5
173
330
15
100
AcDbEntity
 67
     1
  8
ZUWAKU
 62
     0
100
AcDbText
 10
556.9657204784495
 20
10.48329012996929
 30
0.0
 40
1.791674070777747
  1
製図
  7
ADESK1
 72
     1
 11
558.8171170182532
 21
10.48329012996929
 31
0.0
100
AcDbText
  0
TEXT
  5
174
330
15
100
AcDbEntity
 67
     1
  8
ZUWAKU
 62
     0
100
AcDbText
 10
567.5442958817639
 20
10.48329012996929
 30
0.0
 40
1.791674070777747
  1
設計
  7
ADESK1
 72
     1
 11
569.4554148905935
 21
10.48329012996929
 31
0.0
100
AcDbText
  0
TEXT
  5
175
330
15
100
AcDbEntity
 67
     1
  8
ZUWAKU
 62
     0
100
AcDbText
 10
577.4929433347957
 20
10.55220101068186
 30
0.0
 40
1.791674070777747
  1
照査
  7
ADESK1
 72
     1
 11
579.4040623436253
 21
10.55220101068186
 31
0.0
100
AcDbText
  0
LINE
  5
17F
330
15
100
AcDbEntity
 67
     1
  8
ZUWAKU
 62
     0
100
AcDbLine
 10
536.7003315772742
 20
49.00000000000036
 30
0.0
 11
536.7003315772742
 21
22.00000000000012
 31
0.0
  0
LINE
  5
181
330
15
100
AcDbEntity
 67
     1
  8
ZUWAKU
 62
     0
100
AcDbLine
 10
584.0
 20
49.00000000000036
 30
0.0
 11
584.0
 21
10.0
 31
0.0
  0
LINE
  5
182
330
15
100
AcDbEntity
 67
     1
  8
ZUWAKU
 62
     0
100
AcDbLine
 10
584.0
 20
10.0
 30
0.0
 11
584.0
 21
49.00000000000036
 31
0.0
  0
LINE
  5
184
330
15
100
AcDbEntity
 67
     1
  8
ZUWAKU
100
AcDbLine
 10
522.7517730496447
 20
49.00000000000035
 30
0.0
 11
522.7517730496447
 21
207.9063163388383
 31
0.0
  0
LINE
  5
185
330
15
100
AcDbEntity
 67
     1
  8
ZUWAKU
100
AcDbLine
 10
522.7517730496447
 20
207.9063163388383
 30
0.0
 11
584.0
 21
207.9063163388383
 31
0.0
  0
LINE
  5
187
330
15
100
AcDbEntity
 67
     1
  8
ZUWAKU
 62
     0
100
AcDbLine
 10
553.3758865248223
 20
22.00000000000008
 30
0.0
 11
553.3758865248223
 21
10.0
 31
0.0
  0
LINE
  5
188
330
15
100
AcDbEntity
 67
     1
  8
ZUWAKU
100
AcDbLine
 10
522.7517730496447
 20
191.1445336339673
 30
0.0
 11
584.0
 21
191.1445336339674
 31
0.0
  0
MTEXT
  5
1E31
330
15
100
AcDbEntity
 67
     1
  8
ZUWAKU
  6
Continuous
 48
100.0
100
AcDbMText
 10
529.8372516711006
 20
203.7228089578061
 30
0.0
 40
6.0
 41
61.24819999999999
 71
     1
 72
     5
  1
\fＭＳ Ｐゴシック|b0|i0|c128|p2;高砂建設（株）
 73
     1
 44
1.0
  0
LINE
  5
1E33
330
15
100
AcDbEntity
 67
     1
  8
ZUWAKU
100
AcDbLine
 10
522.7517730496447
 20
178.5504516688046
 30
0.0
 11
584.0
 21
178.5504516688048
 31
0.0
  0
MTEXT
  5
1E34
330
15
100
AcDbEntity
 67
     1
  8
ZUWAKU
  6
Continuous
 48
100.0
100
AcDbMText
 10
525.9532013444665
 20
185.950748862892
 30
0.0
 40
4.0
 41
61.24819999999999
 71
     1
 72
     5
  1
\fＭＳ Ｐゴシック|b0|i0|c128|p2;　１００ｍ 積　土運船
 73
     1
 44
1.0
  0
MTEXT
  5
1E3D
330
15
100
AcDbEntity
 67
     1
  8
ZUWAKU
  6
Continuous
 48
100.0
100
AcDbMText
 10
565.0178760791187
 20
171.2867873107553
 30
0.0
 40
8.0
 41
61.24819999999999
 71
     1
 72
     1
  1
\fＭＳ Ｐゴシック|b0|i0|c128|p2;一\P般\P配\P置\P図
 73
     1
 44
1.0
  0
MTEXT
  5
1E3E
330
15
100
AcDbEntity
 67
     1
  8
ZUWAKU
  6
Continuous
 48
100.0
100
AcDbMText
 10
523.7968692979843
 20
31.92791581718154
 30
0.0
 40
4.0
 41
13.9486
 71
     1
 72
     5
  1
\fＭＳ Ｐゴシック|b0|i0|c128|p2;尺度
 73
     1
 44
1.0
  0
MTEXT
  5
1E40
330
15
100
AcDbEntity
 67
     1
  8
ZUWAKU
  6
Continuous
 48
100.0
100
AcDbMText
 10
551.0330806322738
 20
31.33690910072676
 30
0.0
 40
4.0
 41
11.6454
 71
     1
 72
     5
  1
1
 73
     1
 44
1.0
  0
MTEXT
  5
1E41
330
15
100
AcDbEntity
 67
     1
  8
ZUWAKU
  6
Continuous
 48
100.0
100
AcDbMText
 10
559.9910492346992
 20
27.57960453124645
 30
0.0
 40
4.0
 41
11.6454
 71
     1
 72
     5
  1
xxx
 73
     1
 44
1.0
  0
MTEXT
  5
1E42
330
15
100
AcDbEntity
 67
     1
  8
ZUWAKU
  6
Continuous
 48
100.0
100
AcDbMText
 10
555.2134656256323
 20
28.95004510316039
 30
0.0
 40
4.0
 41
11.6454
 71
     1
 72
     5
  1
/
 73
     1
 44
1.0
  0
MTEXT
  5
1E43
330
15
100
AcDbEntity
 67
     1
  8
ZUWAKU
  6
Continuous
 48
100.0
100
AcDbMText
 10
555.512069363993
 20
18.95505932528029
 30
0.0
 40
3.0
 41
10.6383
 71
     1
 72
     5
  1
H,M
 73
     1
 44
1.0
  0
MTEXT
  5
1F3F
330
15
100
AcDbEntity
 67
     1
  8
ZUWAKU
  6
Continuous
 48
100.0
100
AcDbMText
 10
492.2847935734875
 20
379.8610045542156
 30
0.0
 40
3.5
 41
82.7834
 71
     1
 72
     5
  1
PRINCIPAL DIMENSIONS\P\PLENGTH  (O,A)  23.00\PBREADTH (MLD)   7.00\PDEPTH   (MLD)   \PDRAFT           
 73
     1
 44
1.0
  0
MTEXT
  5
2855
330
15
100
AcDbEntity
 67
     1
  8
ZUWAKU
  6
Continuous
 48
100.0
100
AcDbMText
 10
547.5612609151291
 20
152.8715799031332
 30
0.0
 40
10.0
 41
61.24819999999999
 71
     1
 72
     1
  1
\fＭＳ Ｐゴシック|b0|i0|c128|p2;Ｂ\PＯ\PＸ\P１
 73
     1
 44
1.0
  0
MTEXT
  5
2899
330
15
100
AcDbEntity
 67
     1
  8
OBJECT
  6
Continuous
 48
100.0
100
AcDbMText
 10
538.9201001710651
 20
350.7235480522277
 30
0.0
 40
3.5
 41
17.411
 71
     1
 72
     5
  1
0.40
 73
     1
 44
1.0
  0
MTEXT
  5
289A
330
15
100
AcDbEntity
 67
     1
  8
OBJECT
  6
Continuous
 48
100.0
100
AcDbMText
 10
538.5212494580363
 20
356.4528715984626
 30
0.0
 40
3.5
 41
17.411
 71
     1
 72
     5
  1
2.20
 73
     1
 44
1.0
  0
LINE
  5
289C
330
15
100
AcDbEntity
 67
     1
  8
OBJECT
  6
Continuous
 48
100.0
100
AcDbLine
 10
491.2479410949941
 20
375.0426651825646
 30
0.0
 11
557.8717542876488
 21
375.0426651825646
 31
0.0
  0
MTEXT
  5
3AA2
330
15
100
AcDbEntity
 67
     1
  8
ZUWAKU
  6
Continuous
 48
100.0
100
AcDbMText
 10
547.263932642567
 20
64.75868626508182
 30
0.0
 40
10.0
 41
61.24819999999999
 71
     1
 72
     1
  1
\fＭＳ Ｐゴシック|b0|i0|c128|p2;１
 73
     1
 44
1.0
  0
MTEXT
  5
3AA4
330
15
100
AcDbEntity
 67
     1
  8
ZUWAKU
  6
Continuous
 48
100.0
100
AcDbMText
 10
547.684655623494
 20
83.78057548450426
 30
0.0
 40
10.0
 41
61.24819999999999
 71
     1
 72
     1
  1
\fＭＳ Ｐゴシック|b0|i0|c128|p2;０
 73
     1
 44
1.0
  0
MTEXT
  5
3AA8
330
15
100
AcDbEntity
 67
     1
  8
DIM
  6
Continuous
 48
100.0
100
AcDbMText
 10
546.5022284797514
 20
186.3528970886535
 30
0.0
 40
2.0
 41
5.722199999999999
 71
     1
 72
     5
  1
3
 73
     1
 44
1.0
  0
MTEXT
  5
3AEB
330
15
100
AcDbEntity
 67
     1
  8
ZUWAKU
  6
Continuous
 48
100.0
100
AcDbMText
 10
529.1783498900752
 20
83.78066160525973
 30
0.0
 40
10.0
 41
61.24819999999999
 71
     1
 72
     1
  1
\fＭＳ Ｐゴシック|b0|i0|c128|p2;０
 73
     1
 44
1.0
  0
MTEXT
  5
3AEC
330
15
100
AcDbEntity
 67
     1
  8
ZUWAKU
  6
Continuous
 48
100.0
100
AcDbMText
 10
528.7576269091481
 20
64.75877238583729
 30
0.0
 40
10.0
 41
61.24819999999999
 71
     1
 72
     1
  1
\fＭＳ Ｐゴシック|b0|i0|c128|p2;２
 73
     1
 44
1.0
  0
MTEXT
  5
3AED
330
15
100
AcDbEntity
 67
     1
  8
ZUWAKU
  6
Continuous
 48
100.0
100
AcDbMText
 10
529.0549551817102
 20
152.8716660238887
 30
0.0
 40
10.0
 41
61.24819999999999
 71
     1
 72
     1
  1
\fＭＳ Ｐゴシック|b0|i0|c128|p2;Ｂ\PＯ\PＸ\P１
 73
     1
 44
1.0
  0
ENDSEC
  0
SECTION
  2
OBJECTS
  0
DICTIONARY
  5
C
330
0
100
AcDbDictionary
281
     1
  3
ACAD_COLOR
350
47EA
  3
ACAD_GROUP
350
D
  3
ACAD_LAYOUT
350
4302
  3
ACAD_MATERIAL
350
47E9
  3
ACAD_MLINESTYLE
350
1B
  3
ACAD_PLOTSETTINGS
350
4303
  3
ACAD_PLOTSTYLENAME
350
4300
  3
ACAD_TABLESTYLE
350
47EB
  3
ACDBVARIABLEDICTIONARY
350
E5
  3
CONTENTDICTIONARY
350
23
  3
DRAWINGVARIABLESDICT
350
282
  0
DICTIONARY
  5
47F7
330
2
100
AcDbDictionary
280
     1
281
     1
  3
ACAD_LAYERSTATES
360
47F8
  0
DICTIONARY
  5
46E4
330
18
100
AcDbDictionary
280
     1
281
     1
  3
ACAD_LAYOUTSELFREF
360
47DF
  0
DICTIONARY
  5
46E2
330
15
100
AcDbDictionary
280
     1
281
     1
  3
ACAD_LAYOUTSELFREF
360
47DE
  0
DICTIONARY
  5
47EA
102
{ACAD_REACTORS
330
C
102
}
330
C
100
AcDbDictionary
281
     1
  0
DICTIONARY
  5
D
102
{ACAD_REACTORS
330
C
102
}
330
C
100
AcDbDictionary
281
     1
  0
DICTIONARY
  5
4302
102
{ACAD_REACTORS
330
C
102
}
330
C
100
AcDbDictionary
281
     1
  3
Model
350
4304
  3
ﾚｲｱｳﾄ1
350
4305
  0
DICTIONARY
  5
47E9
102
{ACAD_REACTORS
330
C
102
}
330
C
100
AcDbDictionary
281
     1
  0
DICTIONARY
  5
1B
102
{ACAD_REACTORS
330
C
102
}
330
C
100
AcDbDictionary
281
     1
  3
STANDARD
350
1C
  0
DICTIONARY
  5
4303
102
{ACAD_REACTORS
330
C
102
}
330
C
100
AcDbDictionary
281
     1
  0
ACDBDICTIONARYWDFLT
  5
4300
102
{ACAD_REACTORS
330
C
102
}
330
C
100
AcDbDictionary
281
     1
  3
Normal
350
4301
100
AcDbDictionaryWithDefault
340
4301
  0
DICTIONARY
  5
47EB
102
{ACAD_REACTORS
330
C
102
}
330
C
100
AcDbDictionary
281
     1
  3
Standard
350
47EC
  0
DICTIONARY
  5
E5
102
{ACAD_REACTORS
330
C
102
}
330
C
100
AcDbDictionary
281
     1
  3
CTABLESTYLE
350
480C
  3
DIMADEC
350
E6
  3
SORTENTS
350
B67
  0
DICTIONARY
  5
23
102
{ACAD_REACTORS
330
C
102
}
330
C
100
AcDbDictionary
281
     1
  0
DICTIONARY
  5
282
102
{ACAD_REACTORS
330
C
102
}
330
C
100
AcDbDictionary
281
     1
1001
DRAWINGVARIABLESXDATA
1000
POLARANG
1000
0.261799
1000
POLARMODE
1000
1
  0
DICTIONARY
  5
47F8
102
{ACAD_REACTORS
330
47F7
102
}
330
47F7
100
AcDbDictionary
281
     1
  0
XRECORD
  5
47DF
102
{ACAD_REACTORS
330
46E4
102
}
330
46E4
100
AcDbXrecord
280
     1
340
18
  0
XRECORD
  5
47DE
102
{ACAD_REACTORS
330
46E2
102
}
330
46E2
100
AcDbXrecord
280
     1
340
15
  0
LAYOUT
  5
4304
102
{ACAD_REACTORS
330
4302
102
}
330
4302
100
AcDbPlotSettings
  1

  2
C:\Program Files\AutoCAD LT 2000i\plotters\DWF Classic.pc3
  4

  6

 40
0.0
 41
0.0
 42
0.0
 43
0.0
 44
0.0
 45
0.0
 46
0.0
 47
0.0
 48
0.0
 49
0.0
140
0.0
141
0.0
142
1.0
143
1.0
 70
  1712
 72
     0
 73
     0
 74
     0
  7

 75
     0
147
1.0
 76
     0
 77
     2
 78
   300
148
0.0
149
0.0
100
AcDbLayout
  1
Model
 70
     1
 71
     0
 10
0.0
 20
0.0
 11
12.0
 21
9.0
 12
0.0
 22
0.0
 32
0.0
 14
0.0
 24
0.0
 34
0.0
 15
0.0
 25
0.0
 35
0.0
146
0.0
 13
0.0
 23
0.0
 33
0.0
 16
1.0
 26
0.0
 36
0.0
 17
0.0
 27
1.0
 37
0.0
 76
     0
330
18
  0
LAYOUT
  5
4305
102
{ACAD_XDICTIONARY
360
47FA
102
}
102
{ACAD_REACTORS
330
4302
102
}
330
4302
100
AcDbPlotSettings
  1

  2
Canon LBP-740.pc3
  4
A4
  6

 40
5.873749732971191
 41
5.873747825622558
 42
5.873748779296875
 43
5.873748779296875
 44
209.9733276367187
 45
296.9259948730469
 46
0.0
 47
0.0
 48
0.0
 49
0.0
140
0.0
141
0.0
142
1.0
143
2.096396968124832
 70
   688
 72
     1
 73
     1
 74
     1
  7
1.ctb
 75
     0
147
0.4770088944053719
 76
     0
 77
     2
 78
   300
148
-0.9995573386217984
149
-2.473688651703355
100
AcDbLayout
  1
ﾚｲｱｳﾄ1
 70
     1
 71
     1
 10
-11.31415179382311
 20
-9.840022480021495
 11
611.1606036154819
 21
430.3474249646778
 12
0.0
 22
0.0
 32
0.0
 14
0.9670364792377768
 24
2.471739899017848
 34
-0.0000000000000058
 15
593.0380184756886
 25
418.0356646354209
 35
0.0000000000000104
146
0.0
 13
0.0
 23
0.0
 33
0.0
 16
1.0
 26
0.0
 36
0.0
 17
0.0
 27
1.0
 37
0.0
 76
     0
330
15
331
36
  0
MLINESTYLE
  5
1C
102
{ACAD_REACTORS
330
1B
102
}
330
1B
100
AcDbMlineStyle
  2
STANDARD
 70
     0
  3

 62
   256
 51
90.0
 52
90.0
 71
     2
 49
0.5
 62
   256
  6
BYLAYER
 49
-0.5
 62
   256
  6
BYLAYER
  0
ACDBPLACEHOLDER
  5
4301
102
{ACAD_REACTORS
330
4300
102
}
330
4300
  0
TABLESTYLE
  5
47EC
102
{ACAD_REACTORS
330
47EB
102
}
330
47EB
100
AcDbTableStyle
  3
Standard
 70
     0
 71
     8
 40
1.5
 41
1.5
280
     0
281
     0
  7
STANDARD
140
4.5
170
     2
 62
     0
 63
     7
283
     0
274
    -2
284
     1
 64
     0
275
    -2
285
     1
 65
     0
276
    -2
286
     1
 66
     0
277
    -2
287
     1
 67
     0
278
    -2
288
     1
 68
     0
279
    -2
289
     1
 69
     0
  7
STANDARD
140
6.0
170
     5
 62
     0
 63
     7
283
     0
274
    -2
284
     1
 64
     0
275
    -2
285
     1
 65
     0
276
    -2
286
     1
 66
     0
277
    -2
287
     1
 67
     0
278
    -2
288
     1
 68
     0
279
    -2
289
     1
 69
     0
  7
STANDARD
140
4.5
170
     5
 62
     0
 63
     7
283
     0
274
    -2
284
     1
 64
     0
275
    -2
285
     1
 65
     0
276
    -2
286
     1
 66
     0
277
    -2
287
     1
 67
     0
278
    -2
288
     1
 68
     0
279
    -2
289
     1
 69
     0
  0
DICTIONARYVAR
  5
480C
102
{ACAD_REACTORS
330
E5
102
}
330
E5
100
DictionaryVariables
280
     0
  1
STANDARD
  0
DICTIONARYVAR
  5
E6
102
{ACAD_REACTORS
330
E5
102
}
330
E5
100
DictionaryVariables
280
     0
  1
0
  0
DICTIONARYVAR
  5
B67
102
{ACAD_REACTORS
330
E5
102
}
330
E5
100
DictionaryVariables
280
     0
  1
96
  0
DICTIONARY
  5
47FA
330
4305
100
AcDbDictionary
280
     1
281
     1
  3
ADSK_XREC_LAYOUTTHUMBNAIL
360
47FB
  0
XRECORD
  5
47FB
102
{ACAD_REACTORS
330
47FA
102
}
330
47FA
100
AcDbXrecord
280
     1
310
28000000B40000007F00000001000800000000004C59000000000000000000000001000000000000FFFFFF0000000000FFFFFF000000000000000000000000000000000000000000000000000000000000000000330000006600000099000000CC000000FF00000000330000333300006633000099330000CC330000FF3300
310
0000660000336600006666000099660000CC660000FF66000000990000339900006699000099990000CC990000FF99000000CC000033CC000066CC000099CC0000CCCC0000FFCC000000FF000033FF000066FF000099FF0000CCFF0000FFFF000000003300330033006600330099003300CC003300FF003300003333003333
310
33006633330099333300CC333300FF33330000663300336633006666330099663300CC663300FF66330000993300339933006699330099993300CC993300FF99330000CC330033CC330066CC330099CC3300CCCC3300FFCC330000FF330033FF330066FF330099FF3300CCFF3300FFFF330000006600330066006600660099
310
006600CC006600FF00660000336600333366006633660099336600CC336600FF33660000666600336666006666660099666600CC666600FF66660000996600339966006699660099996600CC996600FF99660000CC660033CC660066CC660099CC6600CCCC6600FFCC660000FF660033FF660066FF660099FF6600CCFF6600
310
FFFF660000009900330099006600990099009900CC009900FF00990000339900333399006633990099339900CC339900FF33990000669900336699006666990099669900CC669900FF66990000999900339999006699990099999900CC999900FF99990000CC990033CC990066CC990099CC9900CCCC9900FFCC990000FF99
310
0033FF990066FF990099FF9900CCFF9900FFFF99000000CC003300CC006600CC009900CC00CC00CC00FF00CC000033CC003333CC006633CC009933CC00CC33CC00FF33CC000066CC003366CC006666CC009966CC00CC66CC00FF66CC000099CC003399CC006699CC009999CC00CC99CC00FF99CC0000CCCC0033CCCC0066CC
310
CC0099CCCC00CCCCCC00FFCCCC0000FFCC0033FFCC0066FFCC0099FFCC00CCFFCC00FFFFCC000000FF003300FF006600FF009900FF00CC00FF00FF00FF000033FF003333FF006633FF009933FF00CC33FF00FF33FF000066FF003366FF006666FF009966FF00CC66FF00FF66FF000099FF003399FF006699FF009999FF00CC
310
99FF00FF99FF0000CCFF0033CCFF0066CCFF0099CCFF00CCCCFF00FFCCFF0000FFFF0033FFFF0066FFFF0099FFFF00CCFFFF00FFFFFF00000000000D0D0D001A1A1A00282828003535350043434300505050005D5D5D006B6B6B00787878008686860093939300A1A1A100AEAEAE00BBBBBB00C9C9C900D6D6D600E4E4E400
310
F1F1F100FFFFFF0000000000000000000000000000000000000000000000000000000000000000000000000000000000E2E2E2E2E2E2E2E2E2E2E2E2E2E2E2E2E2E2E2E2E2E2E2E2E2E2E2E2E2E2E2E2E2E2E2E2E2E2E2E2E2E2E2E2E2E2E2E2E2E2E2E2E2E2E2E2E2E2E2E2E2E2E2E2E2E2E2E2E2E2E2E2E2E2E2E2E2E2E2
310
E2E2E2E2E2E2E2E2E2E2E2E2E2E2E2E2E2E2E2E2E2E2E2E2E2E2E2E2E2E2E2E2E2E2E2E2E2E2E2E2E2E2E2E2E2E2E2E2E2E2E2E2E2E2E2E2E2E2E2E2E2E2E2E2E2E2E2E2E2E2E2E2E2E2E2E2E2E2E2E2E2E2E2E2E2E2E2E2E2E2E2E2E2E2E2E2E2E2E2E2E2E2F5F5F5F5F5F5F5F5F5F5F5F5F5F5F5F5F5F5F5F5F5F5F5F5F5
310
F5F5F5F5F5F5F5F5F5F5F5F5F5F5F5F5F5F5F5F5F5F5F5F5F5F5F5F5F5F5F5F5F5F5F5F5F5F5F5F5F5F5F5F5F5F5F5F5F5F5F5F5F5F5F5F5F5F5F5F5F5F5F5F5F5F5F5F5F5F5F5F5F5F5F5F5F5F5F5F5F5F5F5F5F5F5F5F5F5F5F5F5F5F5F5F5F5F5F5F5F5F5F5F5F5F5F5F5F5F5F5F5F5F5F5F5F5F5F5F5F5F5F5F5F5F5F5
310
F5F5F5F5F5F5F5F5F5F5F5F5F5F5F5F5F5F5F5F5F5F5F5F5F5E2E2E2F5F5F5F5F5F5F5F5F5F5F5F5F5F5F5F5F5F5F5F5F5F5F5F5F5F5F5F5F5F5F5F5F5F5F5F5F5F5F5F5F5F5F5F5F5F5F5F5F5F5F5F5F5F5F5F5F5F5F5F5F5F5F5F5F5F5F5F5F5F5F5F5F5F5F5F5F5F5F5F5F5F5F5F5F5F5F5F5F5F5F5F5F5F5F5F5F5F5F5
310
F5F5F5F5F5F5F5F5F5F5F5F5F5F5F5F5F5F5F5F5F5F5F5F5F5F5F5F5F5F5F5F5F5F5F5F5F5F5F5F5F5F5F5F5F5F5F5F5F5F5F5F5F5F5F5F5F5F5F5F5F5F5F5F5F5F5F5F5F5F5F5F5F5F5F5F5F5F5E2E2E2F5F5F5F5F5F5F5F5F5F5F5F5F5F5F5F5F5F5F5F5F5F5F5F5F5F5F5F5F5F5F5F5F5F5F5F5F5F5F5F5F5F5F5F5F5F5
310
F5F5F5F5F5F5F5F5F5F5F5F5F5F5F5F5F5F5F5F5F5F5F5F5F5F5F5F5F5F5F5F5F5F5F5F5F5F5F5F5F5F5F5F5F5F5F5F5F5F5F5F5F5F5F5F5F5F5F5F5F5F5F5F5F5F5F5F5F5F5F5F5F5F5F5F5F5F5F5F5F5F5F5F5F5F5F5F5F5F5F5F5F5F5F5F5F5F5F5F5F5F5F5F5F5F5F5F5F5F5F5F5F5F5F5F5F5F5F5F5F5F5F5F5F5F5F5
310
F5F5F5F5E2E2E2F5F5E2E2E2E2E2E2E2E2E2E2E2E2E2E2E2E2E2E2E2E2E2E2E2E2E2E2E2E2E2E2E2E2E2E2E2E2E2E2E2E2E2E2E2E2E2E2E2E2E2E2E2E2E2E2E2E2E2E2E2E2E2E2E2E2E2E2E2E2E2E2E2E2E2E2E2E2E2E2E2E2E2E2E2E2E2E2E2E2E2E2E2E2E2E2E2E2E2E2E2E2E2E2E2E2E2E2E2E2E2E2E2E2E2E2E2E2E2E2
310
E2E2E2E2E2E2E2E2E2E2E2E2E2E2E2E2E2E2E2E2E2E2E2E2E2E2E2E2E2E2E2E2E2E2E2E2E2E2E2E2E2E2E2E2E2E2E2E2E2E2E2E2E2E2E2F5F5E2E2E2F5F5E2F5F5F5F5F5F5F5F5F5F5F5F5F5F5F5F5F5F5F5F5F5F5F5F5F5F5F5F5F5F5F5F5F5F5F5F5F5F5F5F5F5F5F5F5F5F5F5F5F5F5F5F5F5F5F5F5F5F5F5F5F5F5F5F5
310
F5F5F5F5F5F5F5F5F5F5F5F5F5F5F5F5F5F5F5F5F5F5F5F5F5F5F5F5F5F5F5F5F5F5F5F5F5F5F5F5F5F5F5F5F5F5F5F5F5F5F5F5F5F5F5F5F5F5F5F5F5F5F5F5F5F5F5F5F5F5F5F5F5F5F5F5F5F5F5F5F5F5F5F5F5F5F5F5F5F5F5F5F5F5F5F5F5F5F5F5F5F5F5F5F5E2F5E2F5F5E2E2E2F5F5E2F5F5F5F5F5F5E2E2E2E2E2
310
E2E2E2E2E2E2E2E2E2E2E2E2E2E2E2E2E2E2E2E2E2E2E2E2E2E2E2E2E2E2E2E2E2E2E2E2E2E2E2E2E2E2E2E2E2E2E2E2E2E2E2E2E2E2E2E2E2E2E2E2E2E2E2E2E2E2E2E2E2E2E2E2E2E2E2E2E2E2E2E2E2E2E2E2E2E2E2E2E2E2E2E2E2E2E2E2E2E2E2E2E2E2E2E2E2E2E2E2E2E2E2E2E2E2E2E2E2E2E2E2E2E2E2E2E2E2E2
310
E2E2E2E2E2E2E2E2E2E2E2E2E2E2E2E2E2E2E2E2E2E2E2E2E2E2E2E2E2F5F5E2F5E2F5F5E2E2E2F5F5E2F5F5F5F5F5F5E2F5F5F5F5F5F5F5F5F5F5F5F5F5F5F5F5F5F5F5F5F5F5F5F5F5F5F5F5F5F5F5F5F5F5F5F5F5F5F5F5F5F5F5F5F5F5F5F5F5F5F5F5F5F5F5F5F5F5F5F5F5F5F5F5F5F5F5F5F5F5F5F5F5F5F5F5F5F5
310
F5F5F5F5F5F5F5F5F5F5F5F5F5F5F5F5F5F5F5F5F5F5F5F5F5F5F5F5F5F5F5F5F5F5F5F5F5F5F5F5F5F5F5F5F5F5F5F5F5F5F5F5F5F5F5F5F5F5F5F5F5F5F5F5E2E2E2E2E2E2E2E2E2E2E2E2E2E2E2E2E2E2F5F5E2F5E2F5F5E2E2E2F5F5E2F5F5F5F5F5F5E2F5F5F5F5F5F5F5F5F5F5F5F5F5F5F5F5F5F5F5F5F5F5F5F5F5
310
F5F5F5F5F5F5F5F5F5F5F5F5F5F5F5F5F5F5F5F5F5F5F5F5F5F5F5F5F5F5F5F5F5F5F5F5F5F5F5F5F5F5F5F5F5F5F5F5F5F5F5F5F5F5F5F5F5F5F5F5F5F5F5F5F5F5F5F5F5F5F5F5F5F5F5F5F5F5F5F5F5F5F5F5F5F5F5F5F5F5F5F5F5F5F5F5F5F5F5F5F5F5F5F5F5F5F5F5F5F5F5F5F5F5F5F5F5E2F5F5F5F5F5F5F5F5E2
310
E2E2E2F5F5E2F5E2F5F5E2F5E2F5F5E2E2E2F5F5E2F5F5F5F5F5F5E2F5F5F5F5F5F5F5F5F5F5F5F5F5F5F5F5F5F5F5F5F5F5F5F5F5F5F5F5F5F5F5F5F5F5F5F5F5F5F5F5F5F5F5F5F5F5F5F5F5F5F5F5F5F5F5F5F5F5F5F5F5F5F5F5F5F5F5F5F5F5F5F5F5F5F5F5F5F5F5F5F5F5F5F5F5F5F5F5F5F5F5F5F5F5F5F5F5F5F5
310
F5F5F5F5F5F5F5F5F5F5F5F5F5F5F5F5F5F5F5F5F5F5F5F5F5F5F5F5F5F5F5F5F5F5F5F5F5F5F5F5F5F5F5E2E2E2E2E2E2E2E2E2E2E2E2E2E2E2E2E2E2F5F5E2F5E2F5F5E2E2E2F5F5E2F5F5F5F5F5F5E2F5F5F5F5F5F5F5F5F5F5F5F5F5F5F5F5F5F5F5F5F5F5F5F5F5F5F5F5F5F5F5F5F5F5F5F5F5F5F5F5F5F5F5F5F5F5
310
F5F5F5F5F5F5F5F5F5F5F5F5F5F5F5F5F5F5F5F5F5F5F5F5F5F5F5F5F5F5F5F5F5F5F5F5F5F5F5F5F5F5F5F5F5F5F5F5F5F5F5F5F5F5F5F5F5F5F5F5F5F5F5F5F5F5F5F5F5F5F5F5F5F5F5F5F5F5F5F5F5F5F5F5F5F5F5F5F5F5F5F5F5F5F5F5E2E2E2F5E2F5F5F5F5E2F5E2E2E2E2F5F5E2F5F5E2F5E2F5F5E2E2E2F5F5E2
310
F5F5F5F5F5F5E2F5F5F5F5F5F5F5F5F5F5F5F5F5F5F5F5F5F5F5F5F5F5F5F5F5F5F5F5F5F5F5F5F5F5F5F5F5F5F5F5F5F5F5F5F5F5F5F5F5F5F5F5F5F5F5F5F5F5F5F5F5F5F5F5F5F5F5F5F5F5F5F5F5F5F5F5F5F5F5F5F5F5F5F5F5F5F5F5F5F5F5F5F5F5F5F5F5F5F5F5F5F5F5F5F5F5F5F5F5F5F5F5F5F5F5F5F5F5F5F5
310
F5F5F5F5F5F5F5F5F5F5F5F5F5F5F5F5F5F5F5F5F5F5E2E2E2F5E2F5F5F5E2F5E2F5F5F5F5F5F5E2F5F5E2F5E2F5F5E2E2E2F5F5E2F5F5F5F5F5F5E2F5F5F5F5F5F5F5F5F5F5F5F5F5F5F5F5F5F5F5F5F5F5F5F5F5F5F5F5F5F5F5F5F5F5F5F5F5F5F5F5F5F5F5F5F5F5F5F5F5F5F5F5F5F5F5F5F5F5F5F5F5F5F5F5F5F5F5
310
F5F5F5F5F5F5F5F5F5F5F5F5F5F5F5F5F5F5F5F5F5F5F5F5F5F5F5F5F5F5F5F5F5F5F5F5F5F5F5F5F5F5F5F5F5F5F5F5F5F5F5F5F5F5F5F5F5F5F5F5F5F5F5F5F5F5F5F5F5F5F5F5F5F5F5E2F5F5F5E2F5F5F5E2F5F5F5F5F5F5F5F5E2F5F5E2F5F5F5F5E2E2E2F5F5E2F5F5F5F5F5F5E2F5F5F5F5F5F5F5F5F5F5F5F5F5F5
310
F5F5F5F5F5F5F5F5F5F5F5F5F5F5F5F5F5F5F5F5F5F5F5F5F5F5F5F5F5F5F5F5F5F5F5F5F5F5F5F5F5F5F5F5F5F5F5F5F5F5F5F5F5F5F5F5F5F5F5F5F5F5F5F5F5F5F5F5F5F5F5F5F5F5F5F5F5F5F5F5F5F5F5F5F5F5F5F5F5F5F5F5F5F5F5F5F5F5F5F5F5F5F5F5F5F5F5F5F5F5F5F5F5F5F5F5F5F5F5F5F5F5F5F5F5F5F5
310
F5E2F5F5F5E2F5F5F5F5F5F5F5F5F5F5F5F5E2F5F5E2F5F5F5F5E2E2E2F5F5E2F5F5F5F5F5F5E2F5F5F5F5F5F5F5F5F5F5F5F5F5F5F5F5F5F5F5F5F5F5F5F5F5F5F5F5F5F5F5F5F5F5F5F5F5F5F5F5F5F5F5F5F5F5F5F5F5F5F5F5F5F5F5F5F5F5F5F5F5F5F5F5F5F5F5F5E2F5F5F5F5F5F5F5F5F5F5F5F5F5F5F5F5F5F5F5
310
F5F5F5F5F5F5F5F5F5F5F5F5F5F5F5F5F5F5F5F5F5F5F5F5F5F5F5F5F5F5F5F5F5F5F5F5F5F5F5F5F5F5F5F5F5F5F5F5F5F5F5F5F5F5E2E2E2E2E2E2E2E2E2E2E2E2E2E2E2E2E2E2F5F5E2F5F5F5F5E2E2E2F5F5E2F5F5F5F5F5F5E2F5F5F5F5F5F5F5F5F5F5F5F5F5F5F5F5F5F5F5F5F5F5F5F5F5F5F5F5F5F5F5F5F5F5F5
310
F5F5F5F5F5F5F5F5F5F5F5F5F5F5F5F5F5F5F5F5F5F5F5F5F5F5F5F5F5F5F5F5F5E2F5F5F5F5F5F5F5F5F5F5F5F5F5F5F5F5F5F5F5F5F5F5F5F5F5F5F5F5F5F5F5F5F5F5F5F5F5F5F5F5F5F5F5F5F5F5F5F5F5F5F5F5F5F5F5F5F5F5F5F5F5F5F5F5F5F5F5F5F5F5F5F5F5E2F5F5F5E2F5F5F5F5F5F5F5F5F5F5F5F5E2F5F5
310
E2F5F5F5F5E2E2E2F5F5E2F5F5F5F5F5F5E2F5F5F5F5F5F5F5F5F5F5F5F5F5F5F5F5F5F5F5F5F5F5F5F5F5F5F5F5F5F5F5F5F5F5F5F5F5F5F5F5F5F5F5F5F5F5F5F5F5F5F5F5F5F5F5F5F5F5F5F5F5F5F5F5F5F5F5F5E2F5F5F5F5F5F5F5F5F5F5F5F5F5F5F5F5F5F5F5F5F5F5F5F5F5F5F5F5F5F5F5F5F5F5F5F5F5F5F5F5
310
F5F5F5F5F5F5F5F5F5F5F5F5F5F5F5F5F5F5F5F5F5F5F5F5F5F5F5F5F5F5F5F5F5E2F5F5F5E2F5F5F5F5F5F5F5F5F5F5F5F5E2F5F5E2F5F5F5F5E2E2E2F5F5E2F5F5F5F5F5F5E2F5F5F5F5F5F5F5F5F5F5F5F5F5F5F5F5F5F5F5F5F5F5F5F5F5F5F5F5F5F5F5F5F5F5F5F5F5F5F5F5F5F5F5F5F5F5F5F5F5F5F5F5F5F5F5F5
310
F5F5F5F5F5F5F5F5F5F5F5F5E2F5F5F5F5F5F5F5F5F5F5F5F5F5F5F5F5F5F5F5F5F5F5F5F5F5F5F5F5F5F5F5F5F5F5F5F5F5F5F5F5F5F5F5F5F5F5F5F5F5F5F5F5F5F5F5F5F5F5F5F5F5F5F5F5F5F5F5F5F5F5F5F5F5E2E2E2E2E2E2E2E2E2E2E2E2E2E2E2E2E2E2F5F5E2F5F5F5F5E2E2E2F5F5E2F5F5F5F5F5F5E2F5F5F5
310
F5F5F5F5F5F5F5F5F5F5F5F5F5F5F5F5F5F5E2E2E2E2E2E2E2E2E2E2E2E2E2E2E2E2E2E2E2E2E2E2E2E2E2E2E2E2E2E2E2E2E2E2E2E2E2E2E2E2E2E2E2E2E2E2E2E2E2E2E2E2E2E2E2E2E2E2E2E2E2E2E2E2E2E2E2E2E2E2E2E2E2E2E2E2E2E2E2E2E2E2E2E2E2E2E2F5F5F5F5F5F5F5F5F5F5F5F5F5F5F5F5F5F5F5F5F5F5
310
F5F5F5F5F5F5F5F5F5F5F5F5E2E2E2E2E2F5E2E2E2E2F5F5F5F5F5F5F5E2F5F5E2F5F5F5F5E2E2E2F5F5E2F5F5F5F5F5F5E2F5F5F5F5F5F5F5F5F5F5F5F5F5F5F5F5F5F5F5F5F5F5E2E2F5F5F5E2E2F5F5F5E2E2E2E2E2E2F5E2E2E2E2F5F5F5F5F5F5F5F5F5F5F5F5F5F5F5F5F5F5F5F5F5F5E2E2E2E2E2E2F5F5F5F5F5F5
310
F5F5F5F5F5F5F5F5F5F5F5F5F5F5F5F5F5E2E2E2E2F5E2E2E2E2E2E2F5F5F5E2E2F5F5F5F5F5F5F5F5F5F5F5F5F5F5F5F5F5F5F5F5F5F5F5F5F5F5F5F5F5F5F5F5E2E2E2E2E2F5E2E2E2E2F5F5F5F5F5F5F5E2F5F5E2F5F5F5F5E2E2E2F5F5E2F5F5F5F5F5F5E2F5F5F5F5F5F5F5F5F5F5F5F5F5F5F5F5F5F5F5F5F5F5E2E2
310
F5F5F5E2F5F5F5F5E2E2E2E2E2E2F5F5E2E2E2F5F5F5F5F5F5F5F5F5F5F5F5F5F5F5F5F5F5F5F5F5F5E2E2E2E2E2E2F5F5F5F5F5F5F5F5F5F5F5F5F5F5F5F5F5F5F5F5F5F5F5E2E2E2F5F5E2E2E2E2E2E2F5F5F5F5E2F5F5F5F5F5F5F5F5F5F5F5F5F5F5F5F5F5F5F5F5F5F5F5F5F5F5F5F5F5F5F5F5E2E2E2E2E2F5E2E2E2
310
E2F5F5F5F5F5F5F5E2F5F5E2F5F5F5F5E2E2E2F5F5E2F5F5F5F5F5F5E2F5F5F5F5F5F5F5F5F5F5F5F5F5F5F5F5F5F5F5F5F5F5E2F5F5F5F5E2F5F5F5F5F5F5F5F5F5F5E2E2E2E2E2E2E2E2E2E2E2E2E2E2E2E2E2E2E2E2E2E2E2E2E2E2E2E2E2E2E2E2E2E2E2E2E2E2E2E2E2E2E2E2E2E2E2E2E2E2E2E2E2E2E2E2E2E2E2E2
310
F5F5F5F5F5F5F5F5F5F5F5E2F5F5F5F5F5F5F5F5F5F5F5F5F5F5F5F5F5F5F5F5F5F5F5F5F5F5F5F5F5F5F5F5E2E2E2E2E2F5E2E2E2E2F5F5F5F5F5F5F5E2F5F5E2F5E2F5F5E2E2E2F5F5E2F5F5F5F5F5F5E2F5F5F5F5F5F5F5F5F5F5F5F5F5F5F5F5F5F5F5F5F5F5E2F5F5F5F5E2F5F5F5F5F5F5F5F5F5F5E2E2E2E2E2E2E2
310
E2E2E2E2E2E2E2E2E2E2E2E2E2E2E2E2E2E2E2E2E2E2E2E2E2E2E2E2E2E2E2E2E2E2E2E2E2E2E2E2E2E2E2E2E2E2E2E2E2E2E2E2E2F5F5F5F5F5F5F5F5F5F5F5E2F5F5F5F5F5F5F5F5F5F5F5F5F5F5F5F5F5F5F5F5F5F5F5F5F5F5F5F5F5F5F5F5E2F5F5F5F5F5F5F5F5F5F5F5F5F5F5F5F5E2F5F5E2F5E2F5F5E2E2E2F5F5
310
E2F5F5F5F5F5F5E2F5F5F5F5F5F5F5F5F5F5F5F5F5F5F5F5F5F5F5F5F5F5E2F5F5F5F5E2F5F5F5F5F5F5F5F5F5F5E2E2F5E2E2E2F5F5F5F5F5F5F5F5F5F5F5F5F5F5F5F5F5F5F5F5F5F5F5F5E2F5F5F5F5F5F5F5F5F5F5F5F5F5F5F5F5F5F5F5F5F5F5F5E2E2E2F5E2E2F5F5F5F5F5F5F5F5F5F5F5E2F5F5F5F5F5F5F5F5F5
310
F5F5F5F5F5F5F5F5F5F5F5F5F5F5F5F5F5F5F5F5F5F5F5E2E2E2E2E2F5E2E2E2E2F5F5F5F5F5F5F5E2F5F5E2F5E2F5F5E2E2E2F5F5E2F5F5F5F5F5F5E2F5F5F5F5F5F5F5F5F5F5F5F5F5F5F5F5F5F5F5F5F5F5E2F5F5F5F5E2F5F5F5F5F5F5F5F5F5F5E2E2F5F5F5F5E2E2E2E2F5F5F5F5F5F5F5F5F5F5F5F5F5F5F5F5F5F5
310
F5F5E2F5F5F5F5F5F5F5F5F5F5F5F5F5F5F5F5F5F5F5F5E2E2E2F5F5F5F5E2E2F5F5F5F5F5F5F5F5F5F5F5E2F5F5F5F5F5F5F5F5F5F5F5F5F5F5F5F5F5F5F5F5F5F5F5F5F5F5F5F5F5F5F5F5E2E2E2E2E2F5E2E2E2E2F5F5F5F5F5F5F5E2F5F5E2F5E2F5F5E2E2E2F5F5E2F5F5F5F5F5F5E2F5F5F5F5F5F5F5F5F5F5F5F5F5
310
F5F5F5F5F5F5F5F5F5E2F5F5F5F5E2F5F5F5F5F5F5F5F5F5F5E2E2F5F5F5F5F5F5F5F5E2E2E2F5F5F5F5F5F5F5F5F5F5F5F5F5F5F5F5F5E2F5F5F5F5F5F5F5F5F5F5F5F5F5F5F5F5F5E2E2E2F5F5F5F5F5F5F5E2E2F5F5F5F5F5F5F5F5F5F5F5E2F5F5F5F5F5F5F5F5F5F5F5F5F5F5F5F5F5F5F5F5F5F5F5F5F5F5F5F5F5F5
310
F5F5E2E2E2E2E2F5E2E2E2E2F5F5F5F5F5F5F5E2F5F5E2F5E2F5F5E2E2E2F5F5E2F5F5F5F5F5F5E2F5F5F5F5F5F5F5F5F5F5F5F5F5F5F5F5F5F5F5F5F5F5E2F5F5F5F5E2F5F5F5F5F5F5F5F5F5F5E2E2F5F5F5F5F5F5F5F5F5F5F5E2E2E2F5F5F5F5F5F5F5F5F5F5F5F5F5F5E2F5F5F5F5F5F5F5F5F5F5F5F5F5E2E2E2E2F5
310
F5F5F5F5F5F5F5F5F5E2E2F5F5F5F5F5F5F5F5F5F5F5E2F5F5F5F5F5F5F5F5F5F5F5F5F5F5F5F5F5F5F5F5F5F5F5F5F5F5F5F5F5F5F5F5E2E2E2E2E2F5E2E2E2E2F5F5F5F5F5F5F5E2F5F5E2F5E2F5F5E2E2E2F5F5E2F5F5F5F5F5F5E2F5F5F5F5F5F5F5F5F5F5F5F5F5F5F5F5F5F5F5F5F5F5E2F5F5F5F5E2F5F5F5F5F5F5
310
F5F5F5F5E2E2F5F5F5F5F5F5F5F5F5F5F5F5F5F5E2E2E2F5F5F5F5F5F5F5F5F5F5F5E2F5F5F5F5F5F5F5F5F5F5E2E2E2F5F5F5F5F5F5F5F5F5F5F5F5F5F5E2E2F5F5F5F5F5F5F5F5F5F5F5E2F5F5F5F5F5F5F5F5F5F5F5F5F5F5F5F5F5F5F5F5F5F5F5F5F5F5F5F5F5F5F5F5E2F5F5F5F5F5F5F5F5F5F5F5F5F5F5F5F5E2F5
310
F5E2F5E2F5F5E2E2E2F5F5E2F5F5F5F5F5F5E2F5F5F5F5F5F5F5F5F5F5F5F5F5F5F5F5F5F5F5F5E2F5E2F5F5F5F5E2F5F5F5F5F5F5F5F5F5F5E2E2F5F5F5F5F5F5F5F5F5F5F5F5F5F5F5F5F5E2E2E2F5F5F5F5F5F5F5F5E2F5F5F5F5F5F5F5E2E2E2F5F5F5F5F5F5F5F5F5F5F5F5F5F5F5F5F5E2E2F5F5F5F5F5F5F5F5F5F5
310
F5E2F5F5F5F5F5F5F5F5F5F5F5F5F5F5F5F5F5F5F5F5F5F5F5F5F5F5F5F5F5F5F5F5E2E2E2E2E2F5E2E2E2E2F5F5F5F5F5F5F5E2F5F5E2F5E2F5F5E2E2E2F5F5E2F5F5F5F5F5F5E2F5F5F5F5F5F5F5F5F5F5F5F5F5F5F5F5F5F5F5F5E2E2E2F5F5F5F5E2F5F5F5F5F5F5F5F5F5F5E2E2F5F5F5F5F5F5F5F5F5F5F5F5F5F5F5
310
F5F5F5F5F5E2E2E2E2F5F5F5F5E2F5F5F5F5E2E2E2F5F5F5F5F5F5F5F5F5F5F5F5F5F5F5F5F5F5F5F5E2E2F5F5F5F5F5F5F5F5F5F5F5E2F5F5F5F5F5F5F5F5F5F5F5F5F5F5F5F5F5F5F5F5F5F5F5F5F5F5F5F5F5F5F5F5E2E2E2E2E2F5E2E2E2E2F5F5F5F5F5F5F5E2F5F5E2F5E2F5F5E2E2E2F5F5E2F5F5F5F5F5F5E2F5F5
310
F5F5F5F5F5F5F5F5F5F5F5F5F5F5F5F5F5F5E2E2E2F5F5F5F5E2E2E2F5F5F5F5F5F5F5F5E2E2F5F5F5F5F5F5F5F5F5F5F5F5F5F5F5F5F5F5F5F5F5F5F5F5E2E2E2F5E2F5E2E2E2F5F5F5F5F5F5F5F5F5F5F5F5F5F5F5F5F5F5F5F5F5F5F5E2E2F5F5F5F5F5F5F5F5F5E2F5E2F5F5F5F5E2E2F5F5F5F5F5F5F5F5F5F5F5F5F5
310
F5F5F5F5F5F5F5F5F5F5F5F5F5E2E2E2E2E2F5E2E2E2E2F5F5F5F5F5F5F5E2F5F5E2F5E2F5F5E2E2E2F5F5E2F5F5F5F5F5F5E2F5F5F5F5F5F5F5F5F5F5F5F5F5E2E2E2E2E2E2E2E2E2E2E2E2E2E2E2E2E2E2E2E2E2E2E2E2E2E2E2E2E2E2E2E2E2E2E2E2E2E2E2E2E2E2E2E2E2E2E2E2E2E2E2E2E2E2E2E2E2E2E2E2E2E2E2
310
E2E2E2E2E2E2E2E2E2E2E2E2E2E2E2E2E2E2E2E2E2E2E2E2E2E2E2E2E2E2E2E2E2E2E2E2E2E2E2E2E2E2E2E2F5E2E2E2E2E2E2E2F5F5F5F5F5F5F5F5F5F5F5F5F5F5E2E2E2E2E2F5E2E2E2E2F5F5F5F5F5F5F5E2F5F5E2F5E2F5F5E2E2E2F5F5E2F5F5F5F5F5F5E2F5F5F5F5F5F5F5F5F5F5F5F5F5F5F5F5F5F5F5F5E2E2E2
310
F5F5F5F5E2F5F5F5F5F5F5F5F5E2E2E2E2F5F5F5F5F5F5F5F5F5F5F5F5F5F5F5F5F5F5F5F5F5F5F5F5E2E2E2F5E2F5E2E2E2F5F5F5F5F5F5F5F5F5F5F5F5F5F5F5F5F5F5F5F5F5F5F5E2E2E2E2E2F5F5F5F5F5F5F5F5E2F5F5F5F5F5E2F5F5F5F5F5F5F5F5F5F5F5F5F5F5F5F5F5F5F5F5F5F5F5F5F5F5E2E2E2E2E2F5E2E2
310
E2E2F5E2E2E2E2E2F5E2F5F5E2F5E2F5F5E2E2E2F5F5E2F5F5F5F5F5F5E2F5F5F5F5F5F5F5F5F5F5F5F5F5F5F5F5F5F5F5F5E2E2E2F5F5F5F5E2F5F5F5F5F5F5F5F5E2E2E2E2F5F5F5F5F5F5F5F5F5F5F5F5F5F5F5F5F5F5F5F5E2E2E2E2F5F5F5F5E2F5E2E2E2E2E2E2F5F5F5F5F5F5F5F5F5F5F5F5F5F5F5F5F5F5F5F5E2
310
E2E2E2E2F5F5F5F5F5F5F5F5E2F5F5F5F5F5F5F5F5F5F5F5F5F5F5F5F5F5F5F5F5F5F5F5F5F5F5F5F5F5F5F5F5E2E2E2E2E2F5E2E2E2E2F5E2E2E2E2E2F5E2F5F5E2F5E2F5F5E2E2E2F5F5E2F5F5F5F5F5F5E2F5F5F5F5F5F5F5F5F5F5F5F5F5F5F5F5F5F5F5F5E2E2E2F5F5F5F5E2F5F5F5F5F5F5F5F5F5F5E2E2F5F5F5F5
310
F5F5F5F5F5F5F5F5F5F5F5F5F5E2E2E2F5F5F5F5F5F5F5F5E2E2E2E2E2F5E2E2E2E2E2F5F5F5F5F5F5F5F5F5F5F5F5F5F5F5F5F5E2E2F5F5F5F5F5F5F5F5F5F5F5E2F5F5F5F5F5F5F5F5F5F5F5F5F5F5F5F5F5F5F5F5F5F5F5F5F5F5F5F5F5F5F5F5E2E2E2E2E2F5E2E2E2E2F5E2E2E2E2E2F5E2F5F5E2F5E2F5F5E2E2E2F5
310
F5E2F5F5F5F5F5F5E2F5F5F5F5F5F5F5F5F5F5F5F5F5F5F5F5F5F5F5F5F5F5E2F5F5F5F5E2F5F5F5F5F5F5F5F5F5F5E2E2F5F5F5F5F5F5F5F5F5F5F5F5F5F5E2E2E2F5F5F5F5F5F5F5F5F5F5F5E2F5F5F5F5E2E2F5E2E2E2E2E2E2F5F5F5F5F5F5F5F5F5F5F5F5F5F5E2E2F5F5F5F5F5F5F5F5F5F5F5E2F5F5F5F5F5F5F5F5
310
F5F5F5F5F5F5F5F5F5F5F5F5F5F5F5F5F5F5F5F5F5F5F5F5E2E2E2E2E2F5E2E2E2E2F5E2E2E2E2E2F5E2F5F5E2F5E2F5F5E2E2E2F5F5E2F5F5F5F5F5F5E2F5F5F5F5F5F5F5F5F5F5F5F5F5F5F5F5F5F5F5F5F5F5E2F5F5F5F5E2F5F5F5F5F5F5F5F5F5F5E2E2F5F5F5F5F5F5F5F5F5F5F5E2E2E2F5F5F5F5F5F5F5F5F5F5F5
310
F5F5F5E2F5F5F5F5F5F5F5E2E2E2E2F5E2E2E2E2E2F5F5F5F5F5F5F5F5F5F5E2E2F5F5F5F5F5F5F5F5F5F5F5E2F5F5F5F5F5F5F5F5F5F5F5F5F5F5F5F5F5F5F5F5F5F5F5F5F5F5F5F5F5F5F5F5E2E2E2E2E2F5E2E2E2E2F5E2E2E2E2E2F5E2F5F5E2F5F5F5F5E2E2E2F5F5E2F5F5F5F5F5F5E2F5F5F5F5F5F5F5F5F5F5F5F5
310
F5F5F5F5F5F5F5F5F5F5E2F5F5F5F5E2F5F5F5F5F5F5F5F5F5F5E2E2F5F5F5F5F5F5F5F5E2E2E2F5F5F5F5F5F5F5F5F5F5F5F5F5F5F5F5F5E2F5F5F5F5F5F5F5F5F5F5E2F5E2E2E2E2E2E2E2E2F5F5F5F5F5F5F5E2E2F5F5F5F5F5F5F5F5F5F5F5E2F5F5F5F5F5F5F5F5F5F5F5F5F5F5F5F5F5F5F5F5F5F5F5F5F5F5F5F5F5
310
F5F5F5E2F5F5F5F5F5F5F5F5F5F5E2E2E2E2E2F5E2F5F5E2F5F5F5F5E2E2E2F5F5E2F5F5F5F5F5F5E2F5F5F5F5F5F5F5F5F5F5F5F5F5F5F5F5F5F5F5F5F5F5E2F5F5F5F5E2F5F5F5F5F5F5F5F5F5F5E2E2F5F5F5F5E2E2E2E2F5F5F5F5F5F5F5F5F5F5F5F5F5F5F5F5F5F5F5F5E2F5F5F5F5F5F5F5F5F5F5F5F5F5F5E2E2E2
310
F5F5F5E2E2E2F5F5F5F5E2E2F5F5F5F5F5F5F5F5F5F5F5E2F5F5F5F5F5F5F5F5F5F5F5F5F5F5F5F5F5F5F5F5F5F5F5F5F5F5F5F5F5F5F5F5E2E2E2E2E2F5E2E2E2E2E2E2E2E2E2E2F5E2F5F5E2F5F5F5F5E2E2E2F5F5E2F5F5F5F5F5F5E2F5F5F5F5F5F5F5F5F5F5F5F5F5F5F5F5F5F5F5F5F5F5E2F5F5F5F5E2F5F5F5F5F5
310
F5F5F5F5F5E2E2F5E2E2E2F5F5F5F5F5F5F5F5F5F5F5F5F5F5F5F5F5F5F5F5F5F5F5F5E2F5F5F5F5F5F5F5F5F5F5F5F5F5F5F5F5E2F5F5F5F5F5F5E2E2E2F5E2E2F5F5F5F5F5F5F5F5F5F5F5E2F5F5F5F5F5F5F5F5F5F5F5F5F5F5F5F5F5F5F5F5F5F5F5F5F5F5F5F5F5F5F5F5E2E2E2E2E2F5E2E2E2E2E2E2E2E2E2E2F5E2
310
F5F5E2F5F5F5F5E2E2E2F5F5E2F5F5F5F5F5F5E2F5F5F5F5F5F5F5F5F5F5F5F5F5F5F5F5F5F5F5F5F5F5E2F5F5F5F5E2F5F5F5F5F5F5F5F5F5F5E2E2E2E2E2E2E2E2E2E2E2E2E2E2E2E2E2E2E2E2E2E2E2E2E2E2E2E2E2E2E2E2E2E2E2E2E2E2E2E2E2E2E2E2E2E2E2E2E2E2E2E2E2E2E2E2E2E2E2E2F5F5F5F5F5F5F5F5F5
310
F5F5E2F5F5F5F5F5F5F5F5F5F5F5F5F5F5F5F5F5F5F5F5F5F5F5F5F5F5F5F5F5F5F5F5E2E2E2E2E2F5E2E2E2E2E2E2E2E2E2E2F5E2F5F5E2F5F5F5F5E2E2E2F5F5E2F5F5F5F5F5F5E2F5F5F5F5F5F5F5F5F5F5F5F5F5F5F5F5F5F5F5F5F5F5E2E2F5F5F5E2F5F5F5F5E2E2E2E2E2E2E2E2E2E2E2E2E2E2E2E2E2E2E2E2E2E2
310
E2E2E2E2E2E2E2E2E2E2E2E2E2E2E2E2E2E2E2E2E2E2E2E2E2E2E2E2E2E2E2E2E2E2E2E2E2E2E2E2E2E2E2E2F5E2E2E2E2E2E2F5F5F5F5E2F5F5F5F5F5F5F5F5F5F5F5F5F5F5F5F5F5F5F5F5F5F5F5F5F5F5F5F5F5F5F5F5E2E2E2E2E2F5E2E2E2E2E2E2E2E2E2E2F5E2F5F5E2F5F5F5F5E2E2E2F5F5E2F5F5F5F5F5F5E2F5
310
F5F5F5F5F5F5F5F5F5F5F5F5F5F5F5F5F5F5F5F5F5E2E2F5F5F5E2F5F5F5F5E2E2F5E2E2E2F5E2E2E2E2F5F5F5F5F5F5F5F5F5F5F5F5F5F5F5F5F5F5F5F5F5F5E2E2E2F5E2E2F5F5F5F5F5F5F5F5F5F5F5F5F5F5F5F5F5F5F5F5F5F5F5E2E2E2E2F5E2E2E2F5E2E2F5F5F5F5E2F5F5F5F5F5F5F5F5F5F5F5F5F5F5F5F5F5F5
310
F5F5F5F5F5F5F5F5F5F5F5F5F5F5E2F5F5F5F5F5F5F5F5F5F5E2E2E2E2E2F5E2F5F5E2F5F5F5F5E2E2E2F5F5E2F5F5F5F5F5F5E2F5F5F5F5F5F5F5F5F5F5F5F5F5F5F5F5F5F5F5F5F5E2E2E2E2E2E2E2E2E2E2E2E2E2E2E2E2E2E2E2E2E2E2E2E2E2E2E2E2E2E2E2E2E2E2E2E2E2E2E2E2E2E2E2E2E2E2E2E2E2E2E2E2E2E2
310
E2E2E2E2E2E2E2E2E2E2E2E2E2E2E2E2E2E2E2E2E2E2E2E2E2E2E2E2E2E2E2E2E2E2F5F5F5F5F5F5F5F5F5F5F5F5F5F5F5F5F5F5F5F5F5F5F5F5F5F5F5F5F5F5F5F5F5E2E2E2E2E2F5E2E2E2E2F5E2E2E2E2E2F5E2F5F5E2F5F5F5F5E2E2E2F5F5E2F5F5F5F5F5F5E2F5F5F5F5F5F5F5F5F5F5F5F5F5F5F5F5F5F5F5F5F5F5
310
F5F5F5F5F5F5F5F5F5F5F5F5F5F5F5F5F5F5F5E2F5F5F5F5F5F5F5F5F5F5F5F5F5F5F5F5F5F5F5F5F5F5F5F5F5F5E2F5F5F5F5F5F5F5F5F5F5F5F5F5F5F5F5F5F5F5F5F5F5F5F5F5F5E2F5F5F5F5F5F5F5F5F5F5F5F5F5F5F5F5F5F5F5F5F5F5F5F5F5F5F5F5F5F5F5F5F5F5F5F5F5F5F5F5F5F5F5F5F5F5E2E2E2E2E2F5E2
310
E2E2E2F5E2E2E2E2E2F5E2F5F5E2F5E2F5F5E2E2E2F5F5E2F5F5F5F5F5F5E2F5F5F5F5F5F5F5F5F5F5F5F5F5F5F5F5F5F5F5F5F5F5F5F5F5F5F5F5F5F5F5F5F5F5F5F5F5F5F5F5F5F5F5F5F5F5F5F5F5F5F5F5F5F5F5F5F5F5F5F5F5F5F5F5F5F5F5F5E2F5F5F5F5F5F5F5F5F5F5F5F5F5F5F5F5F5F5F5F5F5F5F5F5F5F5F5
310
F5F5F5F5F5F5F5F5F5F5F5F5F5F5F5F5F5F5F5F5F5F5F5F5F5F5F5F5F5F5F5F5F5F5F5F5F5F5F5F5F5F5F5F5F5F5E2E2E2E2E2F5E2E2E2E2F5E2E2E2E2E2F5E2F5F5E2F5E2F5F5E2E2E2F5F5E2F5F5F5F5F5F5E2F5F5F5F5F5F5F5F5F5F5F5F5F5F5F5F5F5F5F5F5F5F5F5F5F5F5F5F5F5F5F5F5F5F5F5F5F5F5F5F5F5F5F5
310
F5F5F5F5F5F5F5F5F5F5F5F5F5F5F5F5F5F5F5F5F5F5F5F5F5E2F5F5F5F5F5F5F5F5F5F5F5F5F5F5F5F5F5F5F5F5F5F5F5F5F5F5F5F5F5F5F5F5F5F5F5F5F5F5F5F5F5F5F5F5F5F5F5F5F5F5F5F5F5F5F5F5F5F5F5F5F5F5F5F5F5F5F5F5F5F5F5F5F5E2E2E2E2E2F5E2E2E2E2F5E2E2E2E2E2F5E2F5F5E2F5E2F5F5E2E2E2
310
F5F5E2F5F5F5F5F5F5E2F5F5F5F5F5F5F5F5F5F5F5F5F5F5F5F5F5F5F5F5F5F5F5F5F5F5F5E2F5F5F5F5F5F5F5F5F5F5F5F5F5F5F5F5F5F5F5F5F5F5F5F5F5F5F5F5F5F5F5F5F5F5F5F5F5F5F5F5E2F5F5F5F5F5F5F5F5F5F5F5F5F5F5F5F5F5F5F5F5F5F5F5F5F5F5F5F5F5F5F5F5F5F5F5F5F5F5F5F5E2F5F5F5F5F5F5F5
310
F5F5F5F5F5F5F5F5F5F5F5F5F5F5F5F5F5F5F5F5F5F5F5F5F5E2F5F5F5F5F5F5F5F5F5F5E2E2E2E2E2F5E2F5F5E2F5E2F5F5E2E2E2F5F5E2F5F5F5F5F5F5E2F5F5F5F5F5F5F5F5F5F5F5F5F5F5F5F5F5F5F5F5F5F5F5F5F5F5F5E2E2E2E2E2E2E2E2E2E2E2E2E2E2E2E2E2E2E2E2E2E2E2E2E2E2E2E2E2E2E2E2E2E2E2E2E2
310
E2E2E2E2E2E2E2E2E2E2E2E2E2E2E2E2E2E2E2E2E2E2E2E2E2E2E2E2E2E2E2E2E2E2E2E2E2E2E2E2E2E2E2E2E2E2F5F5F5F5F5F5F5F5F5F5F5F5F5F5F5F5F5F5F5F5F5F5F5F5F5F5F5F5F5F5F5F5E2F5F5F5F5F5F5F5F5F5F5F5F5F5F5F5F5E2F5F5E2F5E2F5F5E2E2E2F5F5E2F5F5F5F5F5F5E2F5F5F5F5F5F5F5F5F5F5F5
310
F5F5F5F5F5F5F5F5F5F5F5F5F5F5F5F5E2F5F5F5F5F5F5F5F5F5F5F5F5F5F5F5F5F5F5F5F5F5F5F5F5F5F5F5F5F5F5F5F5F5F5F5F5E2E2E2E2E2E2E2E2E2F5F5F5F5F5F5F5F5F5F5F5F5F5F5F5F5F5F5F5F5F5F5F5F5F5F5F5F5F5F5F5F5F5F5F5F5E2F5F5F5F5F5F5F5F5F5F5F5F5F5F5F5F5F5F5F5F5F5F5F5F5F5F5F5F5
310
F5F5F5F5E2F5F5F5F5F5F5F5F5F5F5E2E2E2E2E2F5E2F5F5E2F5E2F5F5E2E2E2F5F5E2F5F5F5F5F5F5E2F5F5F5F5F5F5F5F5F5F5F5F5F5F5F5F5F5F5F5F5F5F5F5F5F5F5F5E2F5F5F5F5F5F5F5F5F5F5F5F5F5F5F5F5F5F5F5F5F5F5F5F5F5F5F5F5F5F5F5F5F5E2F5F5E2E2E2E2E2E2E2E2E2F5F5E2F5F5F5F5F5F5F5F5F5
310
F5F5F5F5F5F5F5F5F5F5F5F5F5F5F5F5F5F5F5F5F5F5F5F5E2F5F5F5F5F5F5F5F5F5F5F5F5F5F5F5F5F5F5F5F5F5F5F5F5F5F5F5F5F5F5F5F5E2F5F5F5F5F5F5F5F5F5F5E2E2E2E2E2F5E2F5F5E2F5E2F5F5E2E2E2F5F5E2F5F5F5F5F5F5E2F5F5F5F5F5F5F5F5F5F5F5F5F5F5F5F5F5F5F5F5F5F5F5F5F5F5F5E2F5F5F5F5
310
F5F5F5F5F5F5F5F5F5F5F5F5F5F5F5F5F5F5F5F5F5F5F5F5F5F5F5F5F5E2E2E2E2E2E2E2E2E2E2E2E2E2E2E2F5F5F5F5F5F5F5F5F5F5F5F5F5F5F5F5F5F5F5F5F5F5F5F5F5F5F5F5F5F5F5F5F5E2F5F5F5F5F5F5F5F5F5F5F5F5F5F5F5F5F5F5F5F5F5F5F5F5F5F5F5F5F5F5F5F5E2F5F5F5F5F5F5F5F5F5F5E2E2E2E2E2F5
310
E2F5F5E2F5E2F5F5E2E2E2F5F5E2F5F5F5F5F5F5E2F5F5F5F5F5F5F5F5F5F5F5F5F5F5F5F5F5F5F5F5F5F5F5F5F5F5F5E2F5F5F5F5F5F5F5F5F5F5F5F5F5F5F5F5F5F5F5F5F5F5F5F5F5F5F5F5F5F5F5F5F5E2F5F5F5E2E2E2E2E2E2E2F5F5F5E2F5F5F5F5F5F5F5F5F5F5F5F5F5F5F5F5F5F5F5F5F5F5F5F5F5F5F5F5F5F5
310
F5F5F5E2F5F5F5F5F5F5F5F5F5F5F5F5F5F5F5F5F5F5F5F5F5F5F5F5F5F5F5F5F5F5F5F5E2F5F5F5F5F5F5F5F5F5F5F5F5F5F5F5F5E2F5F5E2F5E2F5F5E2E2E2F5F5E2F5F5F5F5F5F5E2F5F5F5F5F5F5F5F5F5F5F5F5F5F5F5F5F5F5F5F5F5F5F5F5F5F5F5E2F5F5F5F5F5F5F5F5F5F5F5F5F5F5F5F5F5F5F5F5F5F5F5F5F5
310
F5F5F5F5F5F5F5F5E2F5F5F5F5E2E2E2E2E2E2F5F5F5E2F5F5F5F5F5F5F5F5F5F5F5F5F5F5F5F5F5F5F5F5F5F5F5F5F5F5F5F5F5F5F5F5F5E2F5F5F5F5F5F5F5F5F5F5F5F5F5F5F5F5F5F5F5F5F5F5F5F5F5F5F5F5F5F5F5F5E2F5F5F5F5F5F5F5F5F5F5F5F5F5F5F5F5E2F5F5E2F5E2F5F5E2E2E2F5F5E2F5F5F5F5F5F5E2
310
F5F5F5F5F5F5F5F5F5F5F5F5F5E2E2E2E2E2E2E2E2E2E2E2E2E2E2E2E2E2E2E2E2E2E2E2E2E2E2E2E2E2E2E2E2E2E2E2E2E2E2E2E2E2E2E2E2E2E2E2E2E2E2E2E2E2E2E2E2E2E2E2E2E2E2E2E2E2E2E2E2E2E2E2E2E2E2E2E2E2E2E2E2E2E2E2E2E2E2E2E2E2E2E2E2E2E2E2E2E2E2E2E2E2E2E2E2E2E2E2F5F5F5F5F5F5F5
310
F5F5F5F5F5F5F5F5F5F5F5F5F5F5F5E2E2E2E2E2E2E2E2E2E2E2E2E2E2E2E2E2E2F5F5E2F5E2F5F5E2E2E2F5F5E2F5F5F5F5F5F5E2F5F5F5F5F5F5F5F5F5F5F5F5F5F5F5F5F5F5F5F5E2E2E2E2F5F5F5E2F5F5F5F5F5F5E2E2F5F5F5F5F5F5F5F5F5F5F5F5F5F5F5F5F5F5F5F5F5F5F5F5F5E2F5F5F5F5F5F5E2F5F5F5F5F5
310
F5E2F5F5F5F5F5F5F5F5F5F5F5F5F5F5F5F5F5F5F5F5F5F5F5F5F5E2E2F5F5F5F5F5F5E2F5F5F5F5F5F5E2E2E2F5F5F5F5F5F5F5F5F5F5F5F5F5F5F5F5F5F5F5F5F5F5F5E2E2E2E2E2E2E2E2E2E2E2E2E2E2E2F5F5E2F5F5E2F5E2F5F5E2E2E2F5F5E2F5F5F5F5F5F5E2F5F5F5F5F5F5F5F5F5F5F5F5F5F5F5F5F5F5F5F5E2
310
E2E2F5F5F5F5E2F5F5F5F5E2E2F5F5F5F5F5F5F5F5F5F5F5F5F5F5F5F5F5F5F5F5F5F5F5F5F5E2E2E2E2E2E2E2E2E2E2E2E2E2E2E2E2E2E2E2F5F5F5F5F5F5F5F5F5F5F5F5F5F5F5F5F5F5F5F5F5F5F5F5F5E2E2F5F5F5F5E2F5F5F5F5F5E2E2E2E2F5F5F5F5F5F5F5F5F5F5F5F5F5F5F5F5F5F5F5F5F5F5F5E2F5F5F5F5F5
310
F5E2F5F5F5F5F5F5F5F5F5E2F5F5E2F5E2F5F5E2E2E2F5F5E2F5F5F5F5F5F5E2F5F5F5F5F5F5F5F5F5F5F5F5F5F5F5F5F5F5F5F5E2E2E2F5F5F5F5E2F5F5E2E2F5F5F5F5F5F5F5F5F5F5E2E2E2E2E2E2E2E2E2E2E2E2E2E2E2E2E2E2F5F5F5F5F5F5F5F5E2F5F5F5F5F5F5F5F5E2E2E2E2E2E2E2E2E2E2E2E2E2E2E2E2E2E2
310
F5F5F5F5F5F5F5F5F5F5E2E2F5F5E2F5F5F5F5F5F5F5F5F5F5F5F5F5F5F5F5F5F5F5F5F5F5F5F5F5F5F5F5F5F5F5F5E2F5F5F5F5F5F5F5F5F5F5F5F5F5F5F5F5E2F5F5E2F5E2F5F5E2E2E2F5F5E2F5F5F5F5F5F5E2F5F5F5F5F5F5F5F5F5F5F5F5F5F5F5F5F5F5F5F5E2E2E2F5F5F5F5E2E2E2F5F5F5F5F5F5F5F5F5E2E2E2
310
F5F5F5F5F5F5F5F5F5F5F5F5F5F5F5F5F5F5F5F5F5F5F5F5F5F5E2E2E2E2E2E2E2E2E2E2E2E2E2E2E2E2E2E2E2E2E2E2E2E2E2E2E2E2E2E2E2E2E2E2E2F5F5F5F5E2E2E2F5F5F5F5F5F5F5F5F5F5F5F5F5F5F5F5F5F5F5F5F5F5F5F5F5F5F5F5F5F5F5F5E2E2E2E2E2E2E2E2E2E2E2E2E2E2E2E2E2E2F5F5E2F5E2F5F5E2E2
310
E2F5F5E2F5F5F5F5F5F5E2F5F5F5F5F5F5F5F5F5F5F5F5F5F5F5F5F5F5F5F5E2E2E2F5F5F5F5E2E2E2E2E2E2E2E2E2E2E2E2E2E2E2E2E2E2E2E2E2E2E2E2E2E2E2E2E2E2E2E2E2E2E2E2E2E2E2E2E2E2F5F5F5F5F5F5F5F5F5F5F5F5F5F5F5F5F5F5F5F5F5F5F5F5F5F5F5E2F5F5F5F5F5F5E2E2E2E2E2E2E2F5F5F5F5F5F5
310
F5F5F5F5F5F5F5F5F5F5F5F5F5F5F5F5F5F5F5F5F5F5F5F5F5F5E2E2E2E2E2E2E2E2E2E2E2E2E2E2E2E2F5E2F5F5E2F5F5F5F5E2E2E2F5F5E2F5F5F5F5F5F5E2F5F5F5F5F5F5F5F5F5F5F5F5F5F5F5F5F5F5F5F5E2E2E2F5F5F5F5E2E2E2E2E2E2E2E2E2E2E2E2E2E2E2E2E2E2E2E2E2E2E2E2E2E2E2E2E2E2E2E2E2E2E2E2
310
E2E2E2E2E2E2E2E2E2E2E2E2E2E2E2E2E2E2E2E2E2E2E2E2E2E2E2E2E2E2E2E2E2E2E2E2E2E2E2E2E2E2E2E2E2E2E2F5F5F5F5F5F5F5F5F5F5F5F5F5F5F5F5F5F5F5F5F5F5F5F5F5F5F5F5F5F5F5F5E2E2E2E2E2E2E2E2E2E2E2E2E2E2E2E2F5E2F5F5E2F5F5F5F5E2E2E2F5F5E2F5F5F5F5F5F5E2F5F5F5F5F5F5F5F5F5F5
310
F5F5F5F5F5F5F5F5F5F5E2E2E2E2F5F5F5E2E2E2E2E2E2E2E2E2E2E2E2E2E2E2E2E2E2E2E2E2E2E2E2E2E2E2E2E2E2E2E2E2E2E2E2E2E2E2E2E2E2E2E2E2E2E2E2E2E2E2E2E2E2E2E2E2E2E2E2E2E2E2E2E2E2E2E2E2E2E2E2E2E2E2E2E2E2E2E2E2E2E2F5F5F5F5F5F5F5F5F5F5F5F5F5F5F5F5F5F5F5F5F5F5F5F5F5F5F5
310
F5F5F5F5F5E2F5F5F5F5F5F5F5F5F5F5F5F5F5F5F5F5E2F5F5E2F5F5F5F5E2E2E2F5F5E2F5F5F5F5F5F5E2F5F5F5F5F5F5F5F5F5F5F5F5F5F5F5F5F5F5F5F5F5F5E2E2F5F5F5E2E2E2E2E2E2E2E2E2E2E2E2E2E2E2E2E2E2E2E2E2E2E2E2E2E2E2E2E2E2E2E2E2E2E2E2E2E2E2E2E2E2E2E2E2E2E2E2E2E2E2E2E2E2E2E2E2
310
E2E2E2E2E2E2E2E2E2E2E2E2E2E2E2E2E2E2E2E2E2E2E2E2E2E2F5F5F5F5F5F5F5F5F5F5F5F5F5F5F5F5F5F5F5F5F5F5F5F5F5F5F5F5F5F5F5F5E2E2E2E2E2E2E2E2E2E2E2E2E2E2E2E2E2E2F5F5E2F5F5F5F5E2E2E2F5F5E2F5F5F5F5F5F5E2F5F5F5F5F5F5F5F5F5F5F5F5F5F5F5F5F5F5F5F5F5E2E2E2E2E2E2E2E2E2E2
310
E2E2E2F5E2E2F5F5E2F5F5F5F5F5F5F5F5F5F5F5F5F5F5F5F5F5F5F5F5F5F5F5F5F5F5E2E2E2E2E2F5F5F5F5F5F5F5F5F5F5F5F5F5F5F5F5F5F5F5F5F5F5F5F5F5E2F5E2F5E2E2F5E2E2E2E2E2E2E2F5F5F5F5F5F5F5F5F5F5F5F5F5F5F5F5F5F5F5F5F5F5F5F5F5F5F5F5F5F5F5F5F5F5F5F5F5F5F5F5F5F5F5F5F5F5F5F5
310
F5E2F5F5E2F5F5F5F5E2E2E2F5F5E2F5F5F5F5F5F5E2F5F5F5F5F5F5F5F5F5F5F5F5F5F5F5F5F5F5F5F5F5F5F5F5F5F5F5F5F5F5F5F5E2E2F5E2E2F5F5E2E2E2E2E2E2E2E2E2E2E2E2E2E2E2E2E2E2E2E2E2E2E2E2E2E2E2E2E2E2E2E2E2E2E2E2E2E2E2E2E2E2E2E2E2E2E2E2E2E2E2E2E2E2E2E2E2E2E2F5E2E2E2F5E2E2
310
F5F5F5F5F5F5F5F5F5F5F5F5F5F5F5F5F5F5F5F5F5F5F5F5F5F5F5F5F5F5F5F5F5F5F5F5F5F5F5F5F5F5F5F5F5F5F5F5F5F5F5F5F5F5E2F5F5E2F5F5F5F5E2E2E2F5F5E2F5F5F5F5F5F5E2F5F5F5F5F5F5F5F5F5F5F5F5F5F5F5F5F5F5F5F5F5F5F5F5F5F5F5F5F5F5F5F5F5F5F5F5F5F5F5E2F5F5F5F5F5F5F5F5F5F5F5F5
310
F5F5F5F5F5F5F5F5F5F5F5F5F5F5F5F5E2F5F5F5F5F5F5F5F5F5F5F5F5F5F5F5F5F5F5F5F5F5F5F5F5F5F5F5E2F5F5F5F5F5F5F5F5F5F5F5F5F5F5F5F5F5F5F5F5F5F5F5F5F5F5F5F5F5F5F5F5F5F5F5F5F5F5F5F5F5F5F5F5F5F5F5F5F5F5F5F5F5F5F5F5F5F5F5F5F5F5E2F5F5E2F5F5F5F5E2E2E2F5F5E2F5F5F5F5F5F5
310
E2F5F5F5F5F5F5F5F5F5F5F5F5F5F5F5F5F5F5F5F5F5F5F5F5F5F5F5F5F5F5F5F5F5F5F5F5F5F5F5E2F5E2F5F5F5F5F5F5F5F5F5F5F5F5F5F5F5F5F5F5F5F5F5F5F5F5F5F5E2F5F5F5F5F5F5F5F5F5F5F5F5F5F5F5F5F5F5F5F5F5F5F5F5F5F5E2E2F5F5F5F5F5F5F5F5F5F5F5F5F5F5F5F5F5F5F5F5F5F5F5F5F5F5F5F5F5
310
F5F5F5F5F5F5F5F5F5F5F5F5F5F5F5F5F5F5F5F5F5F5F5F5F5F5F5F5F5F5F5F5F5E2F5F5E2F5F5F5F5E2E2E2F5F5E2F5F5F5F5F5F5E2F5F5F5F5F5F5F5F5F5F5F5F5F5F5F5F5F5F5F5F5F5F5F5F5F5F5F5F5F5F5F5F5F5F5F5F5F5F5F5E2E2E2E2E2E2E2E2E2E2E2E2E2E2E2E2E2E2E2E2E2E2E2E2E2E2E2E2E2E2E2E2E2E2
310
E2E2E2E2E2E2E2E2E2E2E2E2E2E2E2E2E2E2E2E2E2E2E2E2F5F5F5F5F5F5F5F5F5F5F5F5F5F5F5F5F5F5F5F5F5F5F5F5F5F5F5F5F5F5F5F5F5F5F5F5F5F5F5F5F5F5F5F5F5F5F5F5F5F5F5F5F5F5F5F5F5F5F5F5F5F5E2F5F5E2F5F5F5F5E2E2E2F5F5E2F5F5F5F5F5F5E2F5F5F5F5F5F5F5F5F5F5F5F5F5F5F5F5F5F5F5F5
310
F5F5F5F5F5F5F5F5F5F5F5F5F5F5F5F5F5F5F5E2F5F5F5F5F5F5F5F5F5F5F5F5F5F5F5F5F5F5F5F5F5F5F5F5F5E2E2E2E2E2E2E2F5F5F5F5F5F5F5F5F5F5F5F5F5F5F5F5F5F5F5F5F5F5F5F5E2F5F5F5F5F5F5F5F5F5F5F5F5F5F5F5F5F5F5F5F5F5F5F5F5F5F5F5F5F5F5F5F5F5F5F5F5F5F5F5F5F5F5F5F5F5F5F5F5F5F5
310
F5F5F5F5F5F5F5F5F5F5F5F5E2F5F5E2F5E2F5F5E2E2E2F5F5E2F5F5F5F5F5F5E2F5F5F5F5F5F5F5F5F5F5F5F5F5F5F5F5F5F5F5F5F5F5F5F5F5F5F5F5F5F5F5F5F5F5F5F5F5F5F5F5F5F5F5F5F5F5F5F5F5F5F5F5F5F5F5F5F5F5F5F5F5F5F5F5E2E2E2E2E2E2E2E2F5F5F5F5F5F5F5F5F5F5F5F5F5F5F5F5F5F5F5F5F5F5
310
F5F5F5F5F5F5F5F5F5F5F5F5F5F5F5F5F5F5F5F5F5F5F5F5F5F5F5F5F5F5F5F5F5F5F5F5F5F5F5F5F5F5F5F5F5F5F5F5F5F5F5F5F5F5F5F5F5F5F5F5F5F5F5F5F5E2F5F5E2F5E2F5F5E2E2E2F5F5E2F5F5F5F5F5F5E2F5F5F5F5F5F5F5F5F5F5F5F5F5F5F5F5F5F5F5F5F5F5F5F5F5F5F5F5F5F5F5F5F5F5F5F5F5F5F5F5F5
310
F5F5F5F5F5F5F5F5F5F5F5F5F5F5F5F5F5F5F5F5F5F5F5F5F5F5F5E2F5F5F5F5F5F5F5F5F5F5F5F5F5F5F5F5F5F5F5F5F5F5F5F5F5F5F5F5F5F5F5F5F5F5F5F5F5F5F5F5F5F5F5F5F5F5F5F5F5F5F5F5F5F5F5F5F5F5F5F5F5F5F5F5F5F5F5F5F5F5F5F5F5F5F5F5F5F5F5F5F5F5F5F5F5F5F5F5F5F5E2F5F5E2F5E2F5F5E2
310
E2E2F5F5E2F5F5F5F5F5F5E2F5F5F5F5F5F5F5F5F5F5F5F5F5F5F5F5F5F5F5F5F5F5F5F5F5F5F5F5F5F5F5F5F5F5F5F5F5F5F5F5F5F5F5F5F5F5F5F5F5F5F5F5F5F5F5F5F5F5F5F5F5F5F5F5F5F5F5F5E2F5F5F5F5F5F5F5F5F5F5F5F5F5F5F5F5F5F5F5F5F5F5F5F5F5F5F5F5F5F5F5F5F5F5F5F5F5F5F5F5F5F5F5F5F5F5
310
F5F5F5F5F5F5F5F5F5F5F5F5F5F5F5F5F5F5F5F5F5F5F5F5F5F5F5F5F5F5F5F5F5F5F5F5F5F5F5F5F5F5F5F5E2F5F5E2F5E2F5F5E2E2E2F5F5E2F5F5F5F5F5F5E2F5F5F5F5F5F5F5F5F5F5F5F5F5F5F5F5F5F5F5F5F5F5F5F5F5F5F5F5F5F5F5F5F5F5F5F5F5F5F5F5F5F5F5F5F5F5F5F5F5F5F5F5F5F5F5F5F5F5F5F5F5F5
310
F5F5F5F5F5F5E2F5F5F5F5F5F5F5F5F5F5F5F5F5F5F5F5F5F5F5F5F5F5F5F5F5F5F5F5F5F5F5F5F5F5F5F5F5F5F5F5F5F5F5F5F5F5F5F5F5F5F5F5F5F5F5F5F5F5F5F5F5F5F5F5F5F5F5F5F5F5F5F5F5F5F5F5F5F5F5F5F5F5F5F5F5F5F5F5F5F5E2F5F5E2F5E2F5F5E2E2E2F5F5E2F5F5F5F5F5F5E2F5F5F5F5F5F5F5F5F5
310
F5F5F5F5F5F5F5F5F5F5F5F5F5F5F5F5F5F5F5F5F5F5F5F5F5F5F5F5F5F5F5F5F5F5F5F5F5F5F5F5F5F5F5F5F5F5F5F5F5F5F5F5F5F5F5F5F5F5F5E2F5F5F5F5F5F5F5F5F5F5F5F5F5F5F5F5F5F5F5F5F5F5F5F5F5F5F5F5F5F5F5F5F5F5F5F5F5F5F5F5F5F5F5F5F5F5F5F5F5F5F5F5F5F5F5F5F5F5F5F5F5F5F5F5F5F5F5
310
F5F5F5F5F5F5F5F5F5F5F5F5F5F5F5F5F5F5F5F5F5F5F5E2F5F5E2F5E2F5F5E2E2E2F5F5E2F5F5F5F5F5F5E2F5F5F5F5F5F5F5F5F5F5F5F5F5F5F5F5F5F5F5F5F5F5F5F5F5F5F5F5F5F5F5F5F5F5F5F5F5F5F5F5F5F5F5F5F5F5F5F5F5F5F5F5F5F5F5F5F5F5F5F5F5F5F5F5F5F5F5F5E2F5F5F5F5F5F5F5F5F5F5F5F5F5F5
310
F5F5F5F5F5F5F5F5F5F5F5F5F5F5F5F5F5F5F5F5F5F5F5F5F5F5F5F5F5F5F5F5F5F5F5F5F5F5F5F5F5F5F5F5F5F5F5F5F5F5F5F5F5F5F5F5F5F5F5F5F5F5F5F5F5F5F5F5F5F5F5F5F5F5F5F5E2F5F5E2F5E2F5F5E2E2E2F5F5E2F5F5F5F5F5F5E2F5F5F5F5F5F5F5F5F5F5F5F5F5F5F5F5F5F5F5F5F5F5F5F5F5F5F5F5F5F5
310
F5F5F5F5F5F5F5F5F5F5F5F5F5F5F5F5F5F5F5F5F5F5F5F5F5F5F5F5F5F5F5F5F5F5F5F5F5F5E2F5F5F5F5F5F5F5F5F5F5F5F5F5F5F5F5F5F5F5F5F5F5F5F5F5F5F5F5F5F5F5F5F5F5F5F5F5F5F5F5F5F5F5F5F5F5F5F5F5F5F5F5F5F5F5F5F5F5F5F5F5F5F5F5F5F5F5F5F5F5F5F5F5F5F5F5F5F5F5F5F5F5F5F5F5F5F5F5
310
F5F5E2F5F5E2F5E2F5F5E2E2E2F5F5E2F5F5F5F5F5F5E2F5F5F5F5F5F5F5F5F5F5F5F5F5F5F5F5F5F5F5F5F5F5F5F5F5F5F5F5F5F5F5F5F5F5F5F5F5F5F5F5F5F5F5F5F5F5F5F5F5F5F5F5F5F5F5F5F5F5F5F5F5F5F5F5F5F5F5F5E2F5F5F5F5F5F5F5F5F5F5F5F5F5F5F5F5F5F5F5F5F5F5F5F5F5F5F5F5F5F5F5F5F5F5F5
310
F5F5F5F5F5F5F5F5F5F5F5F5F5F5F5F5F5F5F5F5F5F5F5F5F5F5F5F5F5F5F5F5F5F5F5F5F5F5F5F5F5F5F5F5F5F5F5F5F5F5F5F5F5F5F5E2F5F5E2F5E2F5F5E2E2E2F5F5E2F5F5F5F5F5F5E2F5F5F5F5F5F5F5F5F5F5F5F5F5F5F5F5F5F5F5F5F5F5F5F5F5F5F5F5F5F5F5F5F5F5F5F5F5F5F5F5F5F5F5F5F5F5F5F5F5F5F5
310
F5F5F5F5F5F5F5F5F5F5F5F5F5F5F5F5F5E2F5E2E2E2E2E2E2E2E2E2E2E2E2E2F5F5F5F5F5F5F5F5F5F5F5F5F5F5F5F5F5F5F5F5F5F5F5F5F5F5F5F5F5F5F5F5F5F5F5F5F5F5F5F5F5F5F5F5F5F5F5F5F5F5F5F5F5F5F5F5F5F5F5F5F5F5F5F5F5F5F5F5F5F5F5F5F5F5F5F5E2F5F5E2F5E2F5F5E2E2E2F5F5E2F5F5F5F5F5
310
F5E2F5F5F5F5F5F5F5F5F5F5F5F5F5F5F5F5F5F5F5F5F5F5F5F5F5F5F5F5F5F5F5F5F5F5F5F5F5F5F5F5F5F5F5F5F5F5F5F5F5F5F5F5F5F5F5F5F5F5F5F5F5F5F5F5F5F5F5F5E2F5F5E2E2E2E2E2E2E2E2E2E2E2F5F5F5F5F5F5F5F5F5F5F5F5F5F5F5F5F5F5F5F5F5F5F5F5F5F5F5F5F5F5F5F5F5F5F5F5F5F5F5F5F5F5F5
310
F5F5F5F5F5F5F5F5F5F5F5F5F5F5F5F5F5F5F5F5F5F5F5F5F5F5F5F5F5F5F5F5F5F5E2F5F5E2F5E2F5F5E2E2E2F5F5E2F5F5F5F5F5F5E2F5F5F5F5F5F5F5F5F5F5F5F5F5F5F5F5F5F5F5F5F5F5F5F5F5F5F5F5F5F5F5F5F5F5F5F5F5F5F5F5F5F5F5F5F5F5F5F5F5F5F5F5F5F5F5F5F5F5F5F5F5F5F5F5F5F5F5F5E2F5F5E2
310
E2E2E2E2E2E2E2E2E2E2F5F5F5F5F5F5F5F5F5F5F5F5F5F5F5F5F5F5F5F5F5F5F5F5F5F5F5F5F5F5F5F5F5F5F5F5F5F5F5F5F5F5F5F5F5F5F5F5F5F5F5F5F5F5F5F5F5F5F5F5F5F5F5F5F5F5F5F5F5F5F5F5F5F5F5F5F5E2F5F5E2F5E2F5F5E2E2E2F5F5E2F5F5F5F5F5F5E2F5F5F5F5F5F5F5F5F5F5F5F5F5F5F5F5F5F5F5
310
F5F5F5F5F5F5F5F5F5F5F5F5F5F5F5F5F5F5F5F5F5F5F5F5F5F5F5F5F5F5F5F5F5F5F5F5E2E2E2E2E2E2E2E2E2E2E2E2E2E2E2E2E2E2E2E2E2E2E2E2E2E2F5F5F5F5F5F5F5F5F5F5F5F5F5F5F5F5F5F5F5F5F5F5F5F5F5F5F5F5F5F5F5F5F5F5F5F5F5F5F5F5F5F5F5F5F5F5F5F5F5F5F5F5F5F5F5F5F5F5F5F5F5F5F5F5F5
310
F5F5F5F5F5F5F5F5F5F5F5F5F5E2F5F5E2F5E2F5F5E2E2E2F5F5E2F5F5F5F5F5F5E2F5F5F5F5F5F5F5F5F5F5F5F5F5F5F5F5F5F5F5F5F5F5F5F5F5F5F5F5F5F5F5F5F5F5F5F5F5F5F5F5F5F5F5F5F5F5F5F5F5F5F5F5F5F5F5E2F5F5F5F5F5F5F5F5F5F5F5F5E2F5F5F5F5F5F5F5F5F5F5F5E2F5F5F5F5F5F5F5F5F5F5F5F5
310
F5F5F5F5F5F5F5F5F5F5F5F5F5F5F5F5F5F5F5F5F5F5F5F5F5F5F5F5F5F5F5F5F5F5F5F5F5F5F5F5F5F5F5F5F5F5F5F5F5F5F5F5F5F5F5F5F5F5F5F5F5F5F5F5F5F5E2F5F5E2F5E2F5F5E2E2E2F5F5E2F5F5F5F5F5F5E2F5F5F5F5F5F5F5F5F5F5F5F5F5F5F5F5F5F5F5F5F5F5F5F5F5F5F5F5F5F5F5F5F5F5F5F5F5F5F5F5
310
F5F5F5F5F5F5F5F5F5F5F5F5F5F5F5E2F5F5F5F5F5F5F5F5F5F5F5F5E2F5F5F5F5F5F5F5F5F5F5F5E2F5F5F5F5F5F5F5F5F5F5F5F5F5F5F5F5F5F5F5F5F5F5F5F5F5F5F5F5F5F5F5F5F5F5F5F5F5F5F5F5F5F5F5F5F5F5F5F5F5F5F5F5F5F5F5F5F5F5F5F5F5F5F5F5F5F5F5F5F5F5F5F5F5F5F5F5F5F5E2F5F5E2F5E2F5F5
310
E2E2E2F5F5E2F5F5F5F5F5F5E2F5F5F5F5F5F5F5F5F5F5F5F5F5F5F5F5F5F5F5F5F5F5F5F5F5F5F5F5F5F5F5F5F5F5F5F5F5F5F5F5F5F5F5F5F5F5F5F5F5F5F5F5F5E2E2E2E2E2E2E2E2E2E2E2E2E2E2E2E2E2E2E2E2E2E2E2E2E2F5F5E2F5F5F5F5F5F5F5F5F5F5F5F5F5F5F5F5F5F5F5F5F5F5F5F5F5F5F5F5F5F5F5F5F5
310
F5F5F5F5F5F5F5F5F5F5F5F5F5F5F5F5F5F5F5F5F5F5F5F5F5F5F5F5F5F5F5F5F5F5F5F5F5F5F5F5F5F5F5F5F5E2F5F5E2F5F5F5F5E2E2E2F5F5E2F5F5F5F5F5F5E2F5F5F5F5F5F5F5F5F5F5F5F5F5F5F5F5F5F5F5F5F5F5F5F5F5F5F5F5F5F5F5F5F5F5F5F5F5F5F5F5F5F5F5F5F5F5F5F5F5F5F5E2E2E2E2E2F5F5F5E2E2
310
F5E2E2F5E2E2E2E2F5E2E2F5E2E2F5E2E2F5F5E2F5F5F5F5F5F5F5F5F5F5F5F5F5F5F5F5F5F5F5F5F5F5F5F5F5F5F5F5F5F5F5F5F5F5F5F5F5F5F5F5F5F5F5F5F5F5F5F5F5F5F5F5F5F5F5F5F5F5F5F5F5F5F5F5F5F5F5F5F5F5F5F5F5F5F5F5F5F5E2F5F5E2F5F5F5F5E2E2E2F5F5E2F5F5F5F5F5F5E2F5F5F5F5F5F5F5F5
310
F5F5F5F5F5F5F5F5F5F5F5F5F5F5F5F5F5F5F5F5F5F5F5F5F5F5F5F5F5F5F5F5F5F5F5F5F5F5F5F5F5F5F5E2E2E2E2E2F5F5F5E2F5E2F5E2E2F5E2F5E2E2F5E2E2F5E2E2E2E2F5F5E2F5F5F5F5F5F5F5F5F5F5F5F5F5F5F5F5F5F5F5F5F5F5F5F5F5F5F5F5F5F5F5F5F5F5F5F5F5F5F5F5F5F5F5F5F5F5F5F5F5F5F5F5F5F5
310
F5F5F5F5F5F5F5F5F5F5F5F5F5F5F5F5F5F5F5F5F5F5F5F5E2F5F5E2F5F5F5F5E2E2E2F5F5E2F5F5F5F5F5F5E2F5F5F5F5F5F5F5F5F5F5F5F5F5F5F5F5F5F5F5F5F5F5F5F5F5F5F5F5F5F5F5F5F5F5F5F5F5F5F5F5F5F5F5F5F5F5F5F5F5F5F5E2E2E2E2E2F5F5F5E2E2F5E2F5E2E2F5E2E2E2E2F5E2E2F5E2F5E2F5F5E2F5
310
F5F5F5F5F5F5F5F5F5F5F5F5F5F5F5F5F5F5F5F5F5F5F5F5F5F5F5F5F5F5F5F5F5F5F5F5F5F5F5F5F5F5F5F5F5F5F5F5F5F5F5F5F5F5F5F5F5F5F5F5F5F5F5F5F5F5F5F5F5F5F5F5F5F5F5F5F5E2F5F5E2F5F5F5F5E2E2E2F5F5E2F5F5F5F5F5F5E2F5F5F5F5F5F5F5F5F5F5F5F5F5F5F5F5F5F5F5F5F5F5F5F5F5F5F5F5F5
310
F5F5F5F5F5F5F5F5F5F5F5F5F5F5F5F5F5F5F5F5F5F5E2E2E2E2E2F5F5F5E2E2E2E2E2F5E2E2F5E2F5E2E2F5E2E2F5E2E2F5F5E2F5F5F5F5F5F5F5F5F5F5F5F5F5F5F5F5F5F5F5F5F5F5F5F5F5F5F5F5F5F5F5F5F5F5F5F5F5F5F5F5F5F5F5F5F5F5F5F5F5F5F5F5F5F5F5F5F5F5F5F5F5F5F5F5F5F5F5F5F5F5F5F5F5F5F5
310
F5F5F5E2F5F5E2F5F5F5F5E2E2E2F5F5E2F5F5F5F5F5F5E2F5F5F5F5F5F5F5F5F5F5F5F5F5F5F5F5F5F5F5F5F5F5F5F5F5F5F5F5F5F5F5F5F5F5F5F5F5F5F5F5F5F5F5F5F5F5F5F5F5F5F5E2E2E2E2E2E2E2E2E2F5E2F5E2E2F5E2E2E2E2F5E2E2F5E2E2F5E2E2E2E2F5F5F5F5F5F5F5F5F5F5F5F5F5F5F5F5F5F5F5F5F5F5
310
F5F5F5F5F5F5F5F5F5F5F5F5F5F5F5F5F5F5F5F5F5F5F5F5F5F5F5F5F5F5F5F5F5F5F5F5F5F5F5F5F5F5F5F5F5F5F5F5F5F5F5F5F5F5F5F5E2F5F5E2F5F5F5F5E2E2E2F5F5E2F5F5F5F5F5F5E2F5F5F5F5F5F5F5F5F5F5F5F5F5F5F5F5F5F5F5F5F5F5F5F5F5F5F5F5F5F5F5F5F5F5F5F5F5F5F5F5F5F5F5F5F5F5F5F5F5F5
310
F5E2E2E2E2F5F5F5E2E2E2E2E2F5E2E2F5E2E2F5E2F5E2E2F5E2E2E2E2F5F5F5F5F5F5F5F5F5F5F5F5F5F5F5F5F5F5F5F5F5F5F5F5F5F5F5F5F5F5F5F5F5F5F5F5F5F5F5F5F5F5F5F5F5F5F5F5F5F5F5F5F5F5F5F5F5F5F5F5F5F5F5F5F5F5F5F5F5F5F5F5F5F5F5F5F5F5F5F5E2F5F5E2F5F5F5F5E2E2E2F5F5E2F5F5F5F5
310
F5F5E2F5F5F5F5F5F5F5F5F5F5F5F5F5F5F5F5F5F5F5F5F5F5F5F5F5F5F5F5F5F5F5F5F5F5F5F5F5F5F5F5F5F5F5F5F5F5F5F5F5F5F5F5F5E2E2E2E2E2E2E2E2E2E2E2E2E2E2E2E2E2E2E2E2E2E2E2E2E2F5F5F5F5F5F5F5F5F5F5F5F5F5F5F5F5F5F5F5F5F5F5F5F5F5F5F5F5F5F5F5F5F5F5F5F5F5F5F5F5F5F5F5F5F5F5
310
F5F5F5F5F5F5F5F5F5F5F5F5F5F5F5F5F5F5F5F5F5F5F5F5F5F5F5F5F5F5F5F5F5F5F5E2F5F5E2F5F5F5F5E2E2E2F5F5E2F5F5F5F5F5F5E2F5F5F5F5F5F5F5F5F5F5F5F5F5F5F5F5F5F5F5F5F5F5F5F5F5F5F5F5F5F5F5F5F5F5F5F5F5F5F5F5F5F5F5F5F5F5F5F5F5F5F5F5F5F5F5F5F5F5F5E2F5F5F5F5F5F5F5F5E2F5F5
310
F5F5F5F5F5F5E2F5F5F5F5F5F5F5F5F5F5F5F5F5F5F5F5F5F5F5F5F5F5F5F5F5F5F5F5F5F5F5F5F5F5F5F5F5F5F5F5F5F5F5F5F5F5F5F5F5F5F5F5F5F5F5F5F5F5F5F5F5F5F5F5F5F5F5F5F5F5F5F5F5F5F5F5F5F5F5F5F5E2F5F5E2F5E2F5F5E2E2E2F5F5E2F5F5F5F5F5F5E2F5F5F5F5F5F5F5F5F5F5F5F5F5F5F5F5F5F5
310
F5F5F5F5F5F5F5F5F5F5F5F5F5F5F5F5F5F5F5F5F5F5F5F5F5F5F5F5F5F5F5F5F5F5F5F5F5F5F5F5F5E2F5F5F5F5F5F5F5F5E2F5F5F5F5F5F5F5F5E2F5F5F5F5F5F5F5F5F5F5F5F5F5F5F5F5F5F5F5F5F5F5F5F5F5F5F5F5F5F5F5F5F5F5F5F5F5F5F5F5F5F5F5F5F5F5F5F5F5F5F5F5F5F5F5F5F5F5F5F5F5F5F5F5F5F5F5
310
F5F5F5F5F5F5F5F5F5F5F5F5F5F5E2F5F5E2F5E2F5F5E2E2E2F5F5E2F5F5F5F5F5F5E2F5F5F5F5F5F5F5F5F5F5F5F5F5F5F5F5F5F5F5F5F5F5F5F5F5F5F5F5F5F5F5F5F5F5F5F5F5F5F5F5F5F5F5F5F5F5F5F5F5F5F5F5F5F5F5F5F5F5F5E2E2E2E2E2E2E2E2E2E2E2E2E2E2E2E2E2E2E2F5F5F5F5F5F5F5F5F5F5F5F5F5F5
310
F5F5F5F5F5F5F5F5F5F5F5F5F5F5F5F5F5F5F5F5F5F5F5F5F5F5F5F5F5F5F5F5F5F5F5F5F5F5F5F5F5F5F5F5F5F5F5F5F5F5F5F5F5F5F5F5F5F5F5F5F5F5F5F5F5F5F5E2F5F5E2F5E2F5F5E2E2E2F5F5E2F5F5F5F5F5F5E2F5F5F5F5F5F5F5F5F5F5F5F5F5F5F5F5F5F5F5F5F5F5F5F5F5F5F5F5F5F5F5F5F5F5F5F5F5F5F5
310
F5F5F5F5F5F5F5F5F5F5F5F5F5F5F5F5F5F5F5F5E2F5F5F5F5F5E2E2E2E2E2E2E2F5F5F5F5F5E2F5F5F5F5F5F5F5F5F5F5F5F5F5F5F5F5F5F5F5F5F5F5F5F5F5F5F5F5F5F5F5F5F5F5F5F5F5F5F5F5F5F5F5F5F5F5F5F5F5F5F5F5F5F5F5F5F5F5F5F5F5F5F5F5F5F5F5F5F5F5F5F5F5F5F5F5F5F5F5F5F5E2F5F5E2F5E2F5
310
F5E2E2E2F5F5E2F5F5F5F5F5F5E2F5F5F5F5F5F5F5F5F5F5F5F5F5F5F5F5F5F5F5F5F5F5F5F5F5F5F5F5F5F5F5F5F5F5F5F5F5F5F5F5F5F5F5F5F5F5F5F5F5F5F5F5F5F5F5F5F5F5F5F5F5F5F5F5F5E2E2E2E2E2E2E2F5F5F5F5F5F5F5F5F5F5F5F5F5F5F5F5F5F5F5F5F5F5F5F5F5F5F5F5F5F5F5F5F5F5F5F5F5F5F5F5F5
310
F5F5F5F5F5F5F5F5F5F5F5F5F5F5F5F5F5F5F5F5F5F5F5F5F5F5F5F5F5F5F5F5F5F5F5F5F5F5F5F5F5F5F5F5F5F5E2F5F5E2F5E2F5F5E2E2E2F5F5E2F5F5F5F5F5F5E2F5F5F5F5F5F5F5F5F5F5F5F5F5F5F5F5F5F5F5F5F5F5F5F5F5F5F5F5F5F5F5F5F5F5F5F5F5F5F5F5F5F5F5F5F5F5F5F5F5F5F5F5F5F5F5F5F5F5F5F5
310
F5F5F5F5F5F5F5F5E2F5F5F5F5F5F5F5F5F5F5F5F5F5F5F5F5F5F5F5F5F5F5F5F5F5F5F5F5F5F5F5F5F5F5F5F5F5F5F5F5F5F5F5F5F5F5F5F5F5F5F5F5F5F5F5F5F5F5F5F5F5F5F5F5F5F5F5F5F5F5F5F5F5F5F5F5F5F5F5F5F5F5F5F5F5F5F5F5F5F5E2F5F5E2F5E2F5F5E2E2E2F5F5E2F5F5F5F5F5F5E2F5F5F5F5F5F5F5
310
F5F5F5F5F5F5F5F5F5F5F5F5F5F5F5F5F5F5F5F5F5F5F5F5F5F5F5F5F5F5F5F5F5F5F5F5F5F5F5F5F5F5F5F5F5F5F5F5F5F5F5F5F5F5F5F5F5F5F5F5F5E2F5F5F5F5F5F5F5F5F5F5F5F5F5F5F5F5F5F5F5F5F5F5F5F5F5F5F5F5F5F5F5F5F5F5F5F5F5F5F5F5F5F5F5F5F5F5F5F5F5F5F5F5F5F5F5F5F5F5F5F5F5F5F5F5F5
310
F5F5F5F5F5F5F5F5F5F5F5F5F5F5F5F5F5F5F5F5F5F5F5F5F5E2F5F5E2F5E2F5F5E2E2E2F5F5E2F5F5F5F5F5F5E2F5F5F5F5F5F5F5F5F5F5F5F5F5F5F5F5F5F5F5F5F5F5F5F5F5F5F5F5F5F5F5F5F5F5F5F5F5F5F5F5F5F5F5F5F5F5F5F5F5F5F5F5F5F5F5F5F5F5F5F5F5F5F5F5F5F5F5E2E2E2F5F5F5F5F5F5F5F5F5F5F5
310
F5F5F5F5F5F5F5F5F5F5F5F5F5F5F5F5F5F5F5F5F5F5F5F5F5F5F5F5F5F5F5F5F5F5F5F5F5F5F5F5F5F5F5F5F5F5F5F5F5F5F5F5F5F5F5F5F5F5F5F5F5F5F5F5F5F5F5F5F5F5F5F5F5F5F5F5F5F5E2F5F5E2F5E2F5F5E2E2E2F5F5E2F5F5F5F5F5F5E2F5F5F5F5F5F5F5F5F5F5F5F5F5F5F5F5F5F5F5F5F5F5F5F5F5F5F5F5
310
F5F5F5F5F5F5F5F5F5F5F5F5F5F5F5F5F5F5F5F5F5F5F5F5F5F5F5F5F5F5F5F5F5F5F5F5F5F5F5E2E2F5F5F5F5F5F5F5F5F5F5F5F5F5F5F5F5F5F5F5F5F5F5F5F5F5F5F5F5F5F5F5F5F5F5F5F5F5F5F5F5F5F5F5F5F5F5F5F5F5F5F5F5F5F5F5F5F5F5F5F5F5F5F5F5F5F5F5F5F5F5F5F5F5F5F5F5F5F5F5F5F5F5F5F5F5F5
310
F5F5F5F5E2F5F5E2F5E2F5F5E2E2E2F5F5E2F5F5F5F5F5F5E2F5F5F5F5F5F5F5F5F5F5F5F5F5F5F5F5F5F5F5F5F5F5F5F5F5F5F5F5F5F5F5F5F5F5F5F5F5F5F5F5F5F5F5F5F5F5F5F5F5F5F5F5F5F5F5F5F5F5F5F5F5F5F5F5F5F5F5E2E2F5F5F5F5F5F5F5F5F5F5F5F5F5F5F5F5F5F5F5F5F5F5F5F5F5F5F5F5F5F5F5F5F5
310
F5F5F5F5F5F5F5F5F5F5F5F5F5F5F5F5F5F5F5F5F5F5F5F5F5F5F5F5F5F5F5F5F5F5F5F5F5F5F5F5F5F5F5F5F5F5F5F5F5F5F5F5F5F5F5F5F5E2F5F5E2F5E2F5F5E2E2E2F5F5E2F5F5F5F5F5F5E2F5F5F5F5F5F5F5F5F5F5F5F5F5F5F5F5F5F5F5F5F5F5F5F5F5F5F5F5F5F5F5F5F5F5F5F5F5F5F5F5F5F5F5F5F5F5F5F5F5
310
F5F5F5F5F5F5F5F5F5F5F5F5F5F5F5F5F5F5F5E2F5F5F5F5F5F5F5F5F5F5F5F5F5F5F5F5F5F5F5F5F5F5F5F5F5F5F5F5F5F5F5F5F5F5F5F5F5F5F5F5F5F5F5F5F5F5F5F5F5F5F5F5F5F5F5F5F5F5F5F5F5F5F5F5F5F5F5F5F5F5F5F5F5F5F5F5F5F5F5F5F5F5F5F5F5F5F5F5F5F5E2F5F5E2F5E2F5F5E2E2E2F5F5E2F5F5F5
310
F5F5F5E2F5F5F5F5F5F5F5F5F5F5F5F5F5F5F5F5F5F5F5F5F5F5F5F5F5F5F5F5F5F5F5F5F5F5F5F5F5F5F5F5F5F5F5F5F5F5F5F5F5F5F5F5F5F5F5F5F5F5F5F5F5F5F5F5F5F5F5F5E2F5F5F5F5F5F5F5F5F5F5F5F5F5F5F5F5F5F5F5F5F5F5F5F5F5F5F5F5F5F5F5F5F5F5F5F5F5F5F5F5F5F5F5F5F5F5F5F5F5F5F5F5F5F5
310
F5F5F5F5F5F5F5F5F5F5E2E2E2E2E2F5F5F5F5F5F5F5F5E2E2E2E2F5F5F5F5F5F5F5F5F5E2F5F5E2F5E2F5F5E2E2E2F5F5E2F5F5F5F5F5F5E2F5F5F5F5F5F5F5F5F5F5F5F5F5F5F5F5F5F5F5F5F5F5F5F5F5F5F5F5F5F5F5F5F5F5F5F5F5F5F5F5F5F5F5F5F5F5F5F5F5F5F5F5F5F5F5F5F5F5F5F5F5F5F5F5F5F5F5F5F5F5
310
F5F5F5F5F5F5F5F5F5F5F5F5F5F5F5F5F5F5F5F5F5F5F5F5F5F5F5F5F5F5F5F5F5F5F5F5F5F5F5F5F5F5F5F5F5F5F5F5F5F5F5F5F5F5F5F5F5F5F5F5F5F5F5E2E2E2E2E2E2F5F5F5F5F5F5F5E2E2E2E2F5F5F5F5F5F5F5F5F5E2F5F5E2F5E2F5F5E2E2E2F5F5E2F5F5F5F5F5F5E2F5F5F5F5F5F5F5F5F5F5F5F5F5F5F5F5F5
310
F5F5F5F5F5F5F5F5F5F5F5F5F5F5F5F5F5F5F5F5E2F5F5F5F5F5F5F5F5F5F5F5F5F5F5F5E2E2F5F5F5F5F5F5F5F5F5F5F5F5F5F5F5F5F5F5F5F5F5F5F5F5F5F5F5F5F5F5F5F5F5E2F5F5F5F5F5F5F5F5F5F5F5F5F5F5F5F5F5F5F5F5F5F5F5F5F5F5F5F5F5F5F5F5F5F5F5F5F5F5F5F5F5F5F5F5E2E2E2E2E2E2F5E2E2E2E2
310
E2F5E2E2E2E2F5F5F5F5F5F5F5F5F5E2F5F5E2F5E2F5F5E2E2E2F5F5E2F5F5F5F5F5F5E2F5F5F5F5F5F5F5F5F5F5F5F5F5F5F5F5F5F5F5F5F5F5F5F5F5F5F5F5F5F5F5F5F5F5F5F5E2F5F5F5F5F5F5F5F5F5F5F5F5F5F5F5F5E2E2F5F5F5F5F5F5F5F5F5F5F5F5F5F5F5F5F5F5F5F5F5F5F5F5F5F5F5F5F5F5F5F5F5F5E2F5
310
F5F5F5F5F5F5F5F5F5F5F5F5F5F5F5F5F5F5F5F5F5F5F5F5F5F5F5F5F5F5F5F5F5F5F5F5F5F5F5F5F5F5E2E2E2E2E2E2E2E2E2E2E2E2F5E2E2E2E2F5F5F5F5F5F5F5F5F5E2F5F5E2F5E2F5F5E2E2E2F5F5E2F5F5F5F5F5F5E2F5F5F5F5F5F5F5F5F5F5F5F5F5F5F5F5F5F5F5F5F5F5F5F5F5F5F5F5F5F5F5F5F5F5F5E2F5F5
310
F5F5F5F5F5F5F5F5F5F5F5F5F5F5F5E2E2F5F5F5F5F5F5F5F5F5F5F5F5F5F5E2F5E2E2E2E2E2E2E2E2E2E2E2E2E2E2E2E2E2E2E2E2E2F5E2E2E2E2E2E2E2E2F5F5E2E2E2E2E2F5E2E2E2E2E2F5F5F5F5F5F5F5F5F5F5F5F5F5F5F5F5F5F5F5E2E2E2E2E2E2E2E2E2E2E2E2E2F5E2E2E2E2F5F5F5F5F5F5F5F5E2F5F5E2F5F5
310
F5F5E2E2E2F5F5E2F5F5F5F5F5F5E2F5F5F5F5F5F5F5F5F5F5F5F5F5F5F5F5F5F5F5F5F5F5F5F5F5F5F5F5F5F5F5F5F5F5F5E2F5E2E2E2E2E2E2E2E2E2E2E2E2E2E2E2E2E2E2E2E2E2E2E2E2E2E2E2E2E2E2E2E2E2E2E2E2E2E2E2E2E2E2E2F5E2E2F5F5E2E2E2E2E2E2F5E2E2E2E2E2E2E2E2E2E2E2E2E2E2E2F5E2E2E2E2
310
E2E2E2F5F5F5F5F5F5F5F5F5F5F5F5F5F5F5F5F5F5E2E2E2E2E2E2E2E2E2E2E2E2E2E2E2E2E2F5F5F5F5F5F5F5F5F5E2F5F5E2F5F5F5F5E2E2E2F5F5E2F5F5F5F5F5F5E2F5F5F5F5F5F5F5F5F5F5F5F5F5F5F5F5F5F5F5F5F5F5F5F5F5F5F5F5F5F5F5F5F5F5F5E2F5F5E2F5E2E2E2E2E2E2E2E2E2E2E2E2E2E2E2E2E2E2F5
310
E2E2E2E2E2E2E2E2E2F5E2F5E2F5E2E2E2E2E2E2E2E2E2E2E2E2E2E2E2E2E2E2E2F5E2E2E2E2E2E2E2E2F5F5E2E2E2E2E2E2E2E2E2F5E2E2F5F5F5F5F5F5F5F5F5F5F5F5F5F5F5F5F5F5E2E2E2E2E2E2E2E2E2E2E2E2E2E2E2E2E2F5F5F5F5F5F5F5F5F5E2F5F5E2F5F5F5F5E2E2E2F5F5E2F5F5F5F5F5F5E2F5F5F5F5F5F5
310
F5F5F5F5F5F5F5F5F5F5F5F5F5F5F5F5F5F5F5F5F5F5F5F5F5F5F5F5F5F5E2F5E2F5E2E2F5E2E2E2E2E2E2E2F5F5E2E2E2E2E2E2F5E2E2E2E2E2E2E2E2E2F5F5F5F5F5F5F5F5F5F5F5F5F5F5F5F5F5F5F5F5F5E2F5F5F5F5F5F5F5F5F5F5F5F5F5F5F5F5F5F5F5F5F5F5F5F5F5F5F5F5F5F5F5F5F5F5F5F5F5F5F5F5F5F5F5
310
F5F5F5F5F5F5F5F5F5F5F5F5F5F5F5F5F5F5F5F5F5F5F5F5F5F5E2F5F5E2F5F5F5F5E2E2E2F5F5E2F5F5F5F5F5F5E2F5F5F5F5F5F5F5F5F5F5F5F5F5F5F5F5F5F5F5F5F5F5F5F5F5F5F5F5F5F5F5F5F5F5F5F5F5E2F5E2E2F5E2F5E2E2E2E2F5F5F5F5E2E2E2E2F5E2E2F5E2E2E2E2E2E2E2E2F5F5F5F5F5F5F5F5F5F5F5F5
310
F5F5F5F5F5F5F5F5E2F5F5F5F5F5F5F5F5F5F5F5F5F5F5F5F5F5F5F5F5F5F5F5F5F5F5F5F5F5F5F5F5F5F5F5F5F5F5F5F5F5F5F5F5E2E2E2E2E2E2E2E2E2E2E2E2E2E2E2E2E2E2E2E2F5F5F5F5F5F5E2F5F5E2F5F5F5F5E2E2E2F5F5E2F5F5F5F5F5F5E2F5F5F5F5F5F5F5F5F5F5F5F5F5F5F5F5F5F5F5F5F5F5F5F5F5F5F5
310
F5F5F5F5F5F5F5F5F5F5F5F5F5F5F5F5F5F5F5F5F5F5F5F5F5F5F5F5F5F5F5F5F5F5F5F5F5F5F5F5F5F5F5F5F5F5F5F5F5F5F5F5F5F5F5F5F5F5F5F5F5F5F5F5F5F5F5F5F5F5F5F5F5F5F5F5F5F5F5F5F5F5F5F5F5F5F5F5F5F5F5F5F5F5F5F5F5F5F5F5F5F5F5F5F5F5E2E2E2E2E2E2E2E2F5E2E2E2E2E2E2E2E2E2E2F5F5
310
F5F5F5F5F5E2F5F5E2F5F5F5F5E2E2E2F5F5E2F5F5F5F5F5F5E2F5F5F5F5F5F5F5F5F5F5F5F5F5F5F5F5F5F5F5F5F5F5F5F5F5F5F5F5F5F5F5F5F5F5F5F5F5F5F5F5F5F5F5F5F5F5F5F5F5F5F5F5F5F5F5F5F5F5F5F5F5F5F5F5F5F5F5F5F5F5F5F5F5F5F5F5F5F5F5F5F5F5F5F5F5F5F5F5F5F5F5F5F5F5F5F5F5F5F5F5F5
310
F5F5F5F5F5F5F5F5F5F5F5F5F5F5F5F5F5F5F5F5F5F5F5F5F5F5F5F5F5F5F5F5F5F5F5F5F5F5F5F5F5F5F5F5F5F5F5F5F5F5F5F5F5F5F5F5F5F5E2F5F5E2F5F5F5F5E2E2E2F5F5E2F5F5F5F5F5F5E2F5F5F5F5F5F5F5F5F5F5F5F5F5F5F5F5F5F5F5F5F5F5F5F5F5F5F5F5F5F5F5F5F5F5F5F5F5F5F5F5F5F5F5F5F5F5F5F5
310
F5F5F5F5F5F5F5F5F5F5F5F5F5F5F5F5F5F5F5F5F5F5F5F5F5F5F5F5F5F5F5F5F5F5F5F5F5F5F5F5F5F5F5F5F5F5F5F5F5F5F5F5F5F5F5F5F5F5F5F5F5F5F5F5F5F5F5F5F5F5F5F5F5F5F5F5F5F5F5F5F5F5F5F5F5F5F5F5F5F5F5F5F5F5F5F5F5F5F5F5F5F5F5F5F5F5F5F5F5F5F5E2F5F5E2F5F5F5F5E2E2E2F5F5E2F5F5
310
F5F5F5F5E2F5F5F5F5F5F5F5F5F5F5F5F5F5F5F5F5F5F5F5F5F5F5F5F5F5F5F5F5F5F5F5F5F5F5F5F5F5F5F5F5F5F5F5F5F5F5F5F5F5F5F5F5F5F5F5F5F5F5F5F5F5F5F5F5F5F5F5F5F5F5F5F5F5F5F5F5F5F5F5F5F5F5F5F5F5F5F5F5F5F5F5F5F5F5F5F5F5F5F5F5F5F5F5F5F5F5F5F5F5F5F5F5F5F5F5F5F5F5F5F5F5F5
310
F5F5F5F5F5F5F5F5F5F5F5F5F5F5F5F5F5F5F5F5F5F5F5F5F5F5F5F5F5F5F5F5F5F5F5F5F5E2F5F5E2F5F5F5F5E2E2E2F5F5E2F5F5F5F5F5F5E2F5F5F5F5F5F5F5F5F5F5F5F5F5F5F5F5F5F5F5F5F5F5F5F5F5F5F5F5F5F5F5F5F5F5F5F5F5F5F5F5F5F5F5F5F5F5F5F5F5F5F5F5F5F5F5F5F5F5F5F5F5F5F5F5F5F5F5F5F5
310
F5F5F5F5F5F5F5F5F5F5F5F5F5F5F5F5F5F5F5F5F5F5F5F5F5F5F5F5F5F5F5F5F5F5F5F5F5F5F5F5F5F5F5F5F5F5F5F5F5F5F5F5F5F5F5F5F5F5F5F5F5F5F5F5F5F5F5F5F5F5F5F5F5F5F5F5F5F5F5F5F5F5F5F5F5F5F5F5F5F5E2F5F5E2F5E2F5F5E2E2E2F5F5E2F5F5F5F5F5F5E2F5F5F5F5F5F5F5F5F5F5F5F5F5F5F5F5
310
F5F5F5F5F5F5F5F5F5F5F5F5F5F5F5F5F5F5F5F5F5F5F5F5F5F5F5F5F5F5F5F5F5F5F5F5F5F5F5F5F5F5F5F5F5F5F5F5F5F5F5F5F5F5F5F5F5F5F5F5F5F5F5F5F5F5F5F5F5F5F5F5F5F5F5F5F5F5F5F5F5F5F5F5F5F5F5F5F5F5F5F5F5F5F5F5F5F5F5F5F5F5F5F5F5F5F5F5F5F5F5F5F5F5F5F5F5F5F5F5F5F5F5F5F5F5F5
310
F5F5F5F5F5F5F5F5F5F5F5F5F5F5F5F5E2F5F5E2F5E2F5F5E2E2E2F5F5E2F5F5F5F5F5F5E2F5F5F5F5F5F5F5F5F5F5F5F5F5F5F5F5F5F5F5F5F5F5F5F5F5F5F5F5F5F5F5F5F5F5F5F5F5F5F5F5F5F5F5F5F5F5F5F5F5F5F5F5F5F5F5F5F5F5F5F5F5F5F5F5F5F5F5F5F5F5F5F5F5F5F5F5F5F5F5F5F5F5F5F5F5F5F5F5F5F5
310
F5F5F5F5F5F5F5F5F5F5F5F5F5F5F5F5F5F5F5F5F5F5F5F5F5F5F5F5F5F5F5F5F5F5F5F5F5F5F5F5F5F5F5F5F5F5F5F5F5F5F5F5F5F5F5F5F5F5F5F5F5F5F5F5F5F5F5F5F5E2F5F5E2F5E2F5F5E2E2E2F5F5E2F5F5F5F5F5F5E2F5F5F5F5F5F5F5F5F5F5F5F5F5F5F5F5F5F5F5F5F5F5F5F5F5F5F5F5F5F5F5F5F5F5F5F5F5
310
F5F5F5F5F5F5F5F5F5F5F5F5F5F5F5F5F5F5F5F5F5F5F5F5F5F5F5F5F5F5F5F5F5F5F5F5F5F5F5F5F5F5F5F5F5F5F5F5F5F5F5F5F5F5F5F5F5F5F5F5F5F5F5F5F5F5F5F5F5F5F5F5F5F5F5F5F5F5F5F5F5F5F5F5F5F5F5F5F5F5F5F5F5F5F5F5F5F5F5F5F5F5F5F5F5F5F5F5F5F5F5F5F5F5F5F5F5F5F5F5F5F5E2F5F5E2F5
310
E2F5F5E2E2E2F5F5E2F5F5F5F5F5F5E2F5F5F5F5F5F5F5F5F5F5F5F5F5F5F5F5F5F5F5F5F5F5F5F5F5F5F5F5F5F5F5F5F5F5F5F5F5F5F5F5F5F5F5F5F5F5F5F5F5F5F5F5F5F5F5F5F5F5F5F5F5F5F5F5F5F5F5F5F5F5F5F5F5F5F5F5F5F5F5F5F5F5F5F5F5F5F5F5F5F5F5F5F5F5F5F5F5F5F5F5F5F5F5F5F5F5F5F5F5F5F5
310
F5F5F5F5F5F5F5F5F5F5F5F5F5F5F5F5F5F5F5F5F5F5F5F5F5F5F5F5F5F5F5F5F5F5F5F5F5F5F5F5F5F5F5F5F5F5F5F5E2F5F5E2F5E2F5F5E2E2E2F5F5E2F5F5F5F5F5F5E2E2E2E2E2E2E2E2E2E2E2E2E2E2E2E2E2E2E2E2E2E2E2E2E2E2E2E2E2E2E2E2E2E2E2E2E2E2E2E2E2E2E2E2E2E2E2E2E2E2E2E2E2E2E2E2E2E2E2
310
E2E2E2E2E2E2E2E2E2E2E2E2E2E2E2E2E2E2E2E2E2E2E2E2E2E2E2E2E2E2E2E2E2E2E2E2E2E2E2E2E2E2E2E2E2E2E2E2E2E2E2E2E2E2E2E2E2E2E2E2E2E2E2E2E2E2E2E2E2E2E2E2E2E2E2E2E2E2E2E2E2E2E2E2E2E2E2E2E2E2E2E2E2E2E2E2E2E2E2E2E2E2F5F5E2F5E2F5F5E2E2E2F5F5E2F5F5F5F5F5F5F5F5F5F5F5F5
310
F5F5F5F5F5F5F5F5F5F5F5F5F5F5F5F5F5F5F5F5F5F5F5F5F5F5F5F5F5F5F5F5F5F5F5F5F5F5F5F5F5F5F5F5F5F5F5F5F5F5F5F5F5F5F5F5F5F5F5F5F5F5F5F5F5F5F5F5F5F5F5F5F5F5F5F5F5F5F5F5F5F5F5F5F5F5F5F5F5F5F5F5F5F5F5F5F5F5F5F5F5F5F5F5F5F5F5F5F5F5F5F5F5F5F5F5F5F5F5F5F5F5F5F5F5F5F5
310
F5F5F5F5F5F5F5F5F5F5F5F5F5F5F5F5F5F5F5F5F5F5F5F5F5F5F5F5F5F5E2F5E2F5F5E2E2E2F5F5E2E2E2E2E2E2E2E2E2E2E2E2E2E2E2E2E2E2E2E2E2E2E2E2E2E2E2E2E2E2E2E2E2E2E2E2E2E2E2E2E2E2E2E2E2E2E2E2E2E2E2E2E2E2E2E2E2E2E2E2E2E2E2E2E2E2E2E2E2E2E2E2E2E2E2E2E2E2E2E2E2E2E2E2E2E2E2
310
E2E2E2E2E2E2E2E2E2E2E2E2E2E2E2E2E2E2E2E2E2E2E2E2E2E2E2E2E2E2E2E2E2E2E2E2E2E2E2E2E2E2E2E2E2E2E2E2E2E2E2E2E2E2E2E2E2E2E2E2E2E2E2E2E2E2E2E2E2E2E2E2E2E2E2E2E2E2E2E2E2E2E2E2E2E2F5F5E2E2E2F5F5F5F5F5F5F5F5F5F5F5F5F5F5F5F5F5F5F5F5F5F5F5F5F5F5F5F5F5F5F5F5F5F5F5F5
310
F5F5F5F5F5F5F5F5F5F5F5F5F5F5F5F5F5F5F5F5F5F5F5F5F5F5F5F5F5F5F5F5F5F5F5F5F5F5F5F5F5F5F5F5F5F5F5F5F5F5F5F5F5F5F5F5F5F5F5F5F5F5F5F5F5F5F5F5F5F5F5F5F5F5F5F5F5F5F5F5F5F5F5F5F5F5F5F5F5F5F5F5F5F5F5F5F5F5F5F5F5F5F5F5F5F5F5F5F5F5F5F5F5F5F5F5F5F5F5F5F5F5F5F5F5F5F5
310
F5F5F5F5F5F5F5F5F5F5F5F5F5F5E2E2E2F5F5F5F5F5F5F5F5F5F5F5F5F5F5F5F5F5F5F5F5F5F5F5F5F5F5F5F5F5F5F5F5F5F5F5F5F5F5F5F5F5F5F5F5F5F5F5F5F5F5F5F5F5F5F5F5F5F5F5F5F5F5F5F5F5F5F5F5F5F5F5F5F5F5F5F5F5F5F5F5F5F5F5F5F5F5F5F5F5F5F5F5F5F5F5F5F5F5F5F5F5F5F5F5F5F5F5F5F5F5
310
F5F5F5F5F5F5F5F5F5F5F5F5F5F5F5F5F5F5F5F5F5F5F5F5F5F5F5F5F5F5F5F5F5F5F5F5F5F5F5F5F5F5F5F5F5F5F5F5F5F5F5F5F5F5F5F5F5F5F5F5F5F5F5F5F5F5F5E2E2E2F5F5F5F5F5F5F5F5F5F5F5F5F5F5F5F5F5F5F5F5F5F5F5F5F5F5F5F5F5F5F5F5F5F5F5F5F5F5F5F5F5F5F5F5F5F5F5F5F5F5F5F5F5F5F5F5F5
310
F5F5F5F5F5F5F5F5F5F5F5F5F5F5F5F5F5F5F5F5F5F5F5F5F5F5F5F5F5F5F5F5F5F5F5F5F5F5F5F5F5F5F5F5F5F5F5F5F5F5F5F5F5F5F5F5F5F5F5F5F5F5F5F5F5F5F5F5F5F5F5F5F5F5F5F5F5F5F5F5F5F5F5F5F5F5F5F5F5F5F5F5F5F5F5F5F5F5F5F5F5F5F5F5F5F5F5F5F5F5F5F5F5F5F5F5F5F5F5F5E2EFE2E2E2E2E2
310
E2E2E2E2E2E2E2E2E2E2E2E2E2E2E2E2E2E2E2E2E2E2E2E2E2E2E2E2E2E2E2E2E2E2E2E2E2E2E2E2E2E2E2E2E2E2E2E2E2E2E2E2E2E2E2E2E2E2E2E2E2E2E2E2E2E2E2E2E2E2E2E2E2E2E2E2E2E2E2E2E2E2E2E2E2E2E2E2E2E2E2E2E2E2E2E2E2E2E2E2E2E2E2E2E2E2E2E2E2E2E2E2E2E2E2E2E2E2E2E2E2E2E2E2E2E2E2
310
E2E2E2E2E2E2E2E2E2E2E2E2E2E2E2E2E2E2E2E2E2E2E2E2E2E2E2E2E2E2E2E2E2E2E2E2E2E2E2E2E2E2E2E2E2E2E2EF
  0
ENDSEC
  0
EOF
