  0
SECTION
  2
HEADER
  9
$ACADVER
  1
AC1018
  9
$ACADMAINTVER
 70
    76
  9
$DWGCODEPAGE
  3
ANSI_932
  9
$INSBASE
 10
0.0
 20
0.0
 30
0.0
  9
$EXTMIN
 10
-38343.66445622337
 20
-29315.18692443776
 30
0.0
  9
$EXTMAX
 10
-8040.274400032663
 20
-4611.271655795222
 30
0.0
  9
$LIMMIN
 10
0.0
 20
0.0
  9
$LIMMAX
 10
420.0
 20
297.0
  9
$ORTHOMODE
 70
     1
  9
$REGENMODE
 70
     1
  9
$FILLMODE
 70
     1
  9
$QTEXTMODE
 70
     0
  9
$MIRRTEXT
 70
     1
  9
$LTSCALE
 40
30.0
  9
$ATTMODE
 70
     1
  9
$TEXTSIZE
 40
2.5
  9
$TRACEWID
 40
1.0
  9
$TEXTSTYLE
  7
STANDARD
  9
$CLAYER
  8
0
  9
$CELTYPE
  6
CONTINUOUS
  9
$CECOLOR
 62
   256
  9
$CELTSCALE
 40
100.0
  9
$DISPSILH
 70
     0
  9
$DIMSCALE
 40
150.0
  9
$DIMASZ
 40
1.5
  9
$DIMEXO
 40
2.0
  9
$DIMDLI
 40
3.75
  9
$DIMRND
 40
0.0
  9
$DIMDLE
 40
0.0
  9
$DIMEXE
 40
1.25
  9
$DIMTP
 40
0.0
  9
$DIMTM
 40
0.0
  9
$DIMTXT
 40
1.5
  9
$DIMCEN
 40
2.5
  9
$DIMTSZ
 40
0.0
  9
$DIMTOL
 70
     0
  9
$DIMLIM
 70
     0
  9
$DIMTIH
 70
     0
  9
$DIMTOH
 70
     0
  9
$DIMSE1
 70
     0
  9
$DIMSE2
 70
     0
  9
$DIMTAD
 70
     1
  9
$DIMZIN
 70
     8
  9
$DIMBLK
  1

  9
$DIMASO
 70
     1
  9
$DIMSHO
 70
     1
  9
$DIMPOST
  1

  9
$DIMAPOST
  1

  9
$DIMALT
 70
     0
  9
$DIMALTD
 70
     4
  9
$DIMALTF
 40
0.0394
  9
$DIMLFAC
 40
1.0
  9
$DIMTOFL
 70
     1
  9
$DIMTVP
 40
0.0
  9
$DIMTIX
 70
     0
  9
$DIMSOXD
 70
     0
  9
$DIMSAH
 70
     0
  9
$DIMBLK1
  1

  9
$DIMBLK2
  1

  9
$DIMSTYLE
  2
STANDARD_WS
  9
$DIMCLRD
 70
     0
  9
$DIMCLRE
 70
     0
  9
$DIMCLRT
 70
     0
  9
$DIMTFAC
 40
1.0
  9
$DIMGAP
 40
0.625
  9
$DIMJUST
 70
     0
  9
$DIMSD1
 70
     0
  9
$DIMSD2
 70
     0
  9
$DIMTOLJ
 70
     1
  9
$DIMTZIN
 70
     0
  9
$DIMALTZ
 70
     0
  9
$DIMALTTZ
 70
     0
  9
$DIMUPT
 70
     0
  9
$DIMDEC
 70
     0
  9
$DIMTDEC
 70
     0
  9
$DIMALTU
 70
     8
  9
$DIMALTTD
 70
     4
  9
$DIMTXSTY
  7
STANDARD
  9
$DIMAUNIT
 70
     0
  9
$DIMADEC
 70
     0
  9
$DIMALTRND
 40
0.0
  9
$DIMAZIN
 70
     0
  9
$DIMDSEP
 70
    46
  9
$DIMATFIT
 70
     3
  9
$DIMFRAC
 70
     0
  9
$DIMLDRBLK
  1

  9
$DIMLUNIT
 70
     2
  9
$DIMLWD
 70
    -2
  9
$DIMLWE
 70
    -2
  9
$DIMTMOVE
 70
     0
  9
$LUNITS
 70
     2
  9
$LUPREC
 70
     4
  9
$SKETCHINC
 40
1.0
  9
$FILLETRAD
 40
1000.0
  9
$AUNITS
 70
     0
  9
$AUPREC
 70
     0
  9
$MENU
  1
acad
  9
$ELEVATION
 40
0.0
  9
$PELEVATION
 40
0.0
  9
$THICKNESS
 40
0.0
  9
$LIMCHECK
 70
     0
  9
$CHAMFERA
 40
0.0
  9
$CHAMFERB
 40
0.0
  9
$CHAMFERC
 40
20.0
  9
$CHAMFERD
 40
0.0
  9
$SKPOLY
 70
     0
  9
$TDCREATE
 40
2451403.401635648
  9
$TDUCREATE
 40
2451403.026635648
  9
$TDUPDATE
 40
2458095.649247882
  9
$TDUUPDATE
 40
2458095.274247882
  9
$TDINDWG
 40
7.1649456250
  9
$TDUSRTIMER
 40
7.1649456250
  9
$USRTIMER
 70
     1
  9
$ANGBASE
 50
0.0
  9
$ANGDIR
 70
     0
  9
$PDMODE
 70
     3
  9
$PDSIZE
 40
0.0
  9
$PLINEWID
 40
0.0
  9
$SPLFRAME
 70
     0
  9
$SPLINETYPE
 70
     6
  9
$SPLINESEGS
 70
     8
  9
$HANDSEED
  5
7776
  9
$SURFTAB1
 70
     6
  9
$SURFTAB2
 70
     6
  9
$SURFTYPE
 70
     6
  9
$SURFU
 70
     6
  9
$SURFV
 70
     6
  9
$UCSBASE
  2

  9
$UCSNAME
  2

  9
$UCSORG
 10
0.0
 20
0.0
 30
0.0
  9
$UCSXDIR
 10
1.0
 20
0.0
 30
0.0
  9
$UCSYDIR
 10
0.0
 20
1.0
 30
0.0
  9
$UCSORTHOREF
  2

  9
$UCSORTHOVIEW
 70
     0
  9
$UCSORGTOP
 10
0.0
 20
0.0
 30
0.0
  9
$UCSORGBOTTOM
 10
0.0
 20
0.0
 30
0.0
  9
$UCSORGLEFT
 10
0.0
 20
0.0
 30
0.0
  9
$UCSORGRIGHT
 10
0.0
 20
0.0
 30
0.0
  9
$UCSORGFRONT
 10
0.0
 20
0.0
 30
0.0
  9
$UCSORGBACK
 10
0.0
 20
0.0
 30
0.0
  9
$PUCSBASE
  2

  9
$PUCSNAME
  2

  9
$PUCSORG
 10
0.0
 20
0.0
 30
0.0
  9
$PUCSXDIR
 10
1.0
 20
0.0
 30
0.0
  9
$PUCSYDIR
 10
0.0
 20
1.0
 30
0.0
  9
$PUCSORTHOREF
  2

  9
$PUCSORTHOVIEW
 70
     0
  9
$PUCSORGTOP
 10
0.0
 20
0.0
 30
0.0
  9
$PUCSORGBOTTOM
 10
0.0
 20
0.0
 30
0.0
  9
$PUCSORGLEFT
 10
0.0
 20
0.0
 30
0.0
  9
$PUCSORGRIGHT
 10
0.0
 20
0.0
 30
0.0
  9
$PUCSORGFRONT
 10
0.0
 20
0.0
 30
0.0
  9
$PUCSORGBACK
 10
0.0
 20
0.0
 30
0.0
  9
$USERI1
 70
     0
  9
$USERI2
 70
     0
  9
$USERI3
 70
     0
  9
$USERI4
 70
     0
  9
$USERI5
 70
     0
  9
$USERR1
 40
0.0
  9
$USERR2
 40
0.0
  9
$USERR3
 40
0.0
  9
$USERR4
 40
0.0
  9
$USERR5
 40
0.0
  9
$WORLDVIEW
 70
     1
  9
$SHADEDGE
 70
     3
  9
$SHADEDIF
 70
    70
  9
$TILEMODE
 70
     0
  9
$MAXACTVP
 70
    48
  9
$PINSBASE
 10
0.0
 20
0.0
 30
0.0
  9
$PLIMCHECK
 70
     0
  9
$PEXTMIN
 10
1.0
 20
2.5
 30
0.0
  9
$PEXTMAX
 10
593.0087902429615
 20
418.0037544968115
 30
0.0
  9
$PLIMMIN
 10
-11.31204168270459
 20
-9.812043681713809
  9
$PLIMMAX
 10
611.0784218728549
 20
430.3157961795161
  9
$UNITMODE
 70
     0
  9
$VISRETAIN
 70
     1
  9
$PLINEGEN
 70
     0
  9
$PSLTSCALE
 70
     1
  9
$TREEDEPTH
 70
  3020
  9
$CMLSTYLE
  2
STANDARD
  9
$CMLJUST
 70
     0
  9
$CMLSCALE
 40
20.0
  9
$PROXYGRAPHICS
 70
     1
  9
$MEASUREMENT
 70
     1
  9
$CELWEIGHT
370
     5
  9
$ENDCAPS
280
     0
  9
$JOINSTYLE
280
     0
  9
$LWDISPLAY
290
     0
  9
$INSUNITS
 70
     0
  9
$HYPERLINKBASE
  1

  9
$STYLESHEET
  1

  9
$XEDIT
290
     1
  9
$CEPSNTYPE
380
     0
  9
$PSTYLEMODE
290
     1
  9
$FINGERPRINTGUID
  2
{D7A5D6DD-F2C2-49F3-B4F2-955A040A3269}
  9
$VERSIONGUID
  2
{844B188D-F6FF-4DC1-84D2-50E0C5D117F2}
  9
$EXTNAMES
290
     1
  9
$PSVPSCALE
 40
0.0
  9
$OLESTARTUP
290
     0
  9
$SORTENTS
280
    96
  9
$INDEXCTL
280
     0
  9
$HIDETEXT
280
     0
  9
$XCLIPFRAME
290
     0
  9
$HALOGAP
280
     0
  9
$OBSCOLOR
 70
   257
  9
$OBSLTYPE
280
     0
  9
$INTERSECTIONDISPLAY
280
     0
  9
$INTERSECTIONCOLOR
 70
   257
  9
$DIMASSOC
280
     1
  9
$PROJECTNAME
  1

  0
ENDSEC
  0
SECTION
  2
CLASSES
  0
CLASS
  1
DICTIONARYVAR
  2
AcDbDictionaryVar
  3
ObjectDBX Classes
 90
        0
 91
        3
280
     0
281
     0
  0
CLASS
  1
ACDBDICTIONARYWDFLT
  2
AcDbDictionaryWithDefault
  3
ObjectDBX Classes
 90
        0
 91
        1
280
     0
281
     0
  0
CLASS
  1
TABLESTYLE
  2
AcDbTableStyle
  3
ObjectDBX Classes
 90
     2047
 91
        1
280
     0
281
     0
  0
ENDSEC
  0
SECTION
  2
TABLES
  0
TABLE
  2
VPORT
  5
8
330
0
100
AcDbSymbolTable
 70
     2
  0
VPORT
  5
7775
330
8
100
AcDbSymbolTableRecord
100
AcDbViewportTableRecord
  2
*Active
 70
     0
 10
0.0
 20
0.0
 11
1.0
 21
1.0
 12
-25428.12166038733
 22
-5865.110056242156
 13
0.0
 23
0.0
 14
10.0
 24
10.0
 15
10.0
 25
10.0
 16
0.0
 26
0.0
 36
1.0
 17
0.0
 27
0.0
 37
0.0
 40
75743.24467617565
 41
1.897583429228998
 42
50.0
 43
0.0
 44
0.0
 50
0.0
 51
0.0
 71
     0
 72
   100
 73
     1
 74
     1
 75
     0
 76
     0
 77
     0
 78
     0
281
     0
 65
     1
110
0.0
120
0.0
130
0.0
111
1.0
121
0.0
131
0.0
112
0.0
122
1.0
132
0.0
 79
     0
146
0.0
  0
ENDTAB
  0
TABLE
  2
LTYPE
  5
5
330
0
100
AcDbSymbolTable
 70
     6
  0
LTYPE
  5
12
330
5
100
AcDbSymbolTableRecord
100
AcDbLinetypeTableRecord
  2
BYBLOCK
 70
     0
  3

 72
    65
 73
     0
 40
0.0
  0
LTYPE
  5
13
330
5
100
AcDbSymbolTableRecord
100
AcDbLinetypeTableRecord
  2
BYLAYER
 70
     0
  3

 72
    65
 73
     0
 40
0.0
  0
LTYPE
  5
14
330
5
100
AcDbSymbolTableRecord
100
AcDbLinetypeTableRecord
  2
CONTINUOUS
 70
     0
  3
Solid line
 72
    65
 73
     0
 40
0.0
  0
LTYPE
  5
190
330
5
100
AcDbSymbolTableRecord
100
AcDbLinetypeTableRecord
  2
HIDDEN
 70
     0
  3
Hidden __ __ __ __ __ __ __ __ __ __ __ __ __ _
 72
    65
 73
     2
 40
9.524999999999998
 49
6.349999999999999
 74
     0
 49
-3.174999999999999
 74
     0
  0
LTYPE
  5
191
330
5
100
AcDbSymbolTableRecord
100
AcDbLinetypeTableRecord
  2
CENTER
 70
     0
  3
Center ____ _ ____ _ ____ _ ____ _ ____ _ ____
 72
    65
 73
     4
 40
50.8
 49
31.75
 74
     0
 49
-6.349999999999999
 74
     0
 49
6.349999999999999
 74
     0
 49
-6.349999999999999
 74
     0
  0
LTYPE
  5
192
330
5
100
AcDbSymbolTableRecord
100
AcDbLinetypeTableRecord
  2
CENTER2
 70
     0
  3
Center (.5x) ___ _ ___ _ ___ _ ___ _ ___ _ ___
 72
    65
 73
     4
 40
28.575
 49
19.05
 74
     0
 49
-3.174999999999999
 74
     0
 49
3.174999999999999
 74
     0
 49
-3.174999999999999
 74
     0
  0
LTYPE
  5
1C16
330
5
100
AcDbSymbolTableRecord
100
AcDbLinetypeTableRecord
  2
DASHED
 70
     0
  3
Dashed __ __ __ __ __ __ __ __ __ __ __ __ __ _
 72
    65
 73
     2
 40
19.05
 49
12.7
 74
     0
 49
-6.349999999999999
 74
     0
  0
LTYPE
  5
43CB
330
5
100
AcDbSymbolTableRecord
100
AcDbLinetypeTableRecord
  2
HIDDEN2
 70
     0
  3
Hidden (.5x) _ _ _ _ _ _ _ _ _ _ _ _ _ _ _ _ _
 72
    65
 73
     2
 40
4.762499999999999
 49
3.174999999999999
 74
     0
 49
-1.587499999999999
 74
     0
  0
ENDTAB
  0
TABLE
  2
LAYER
  5
2
102
{ACAD_XDICTIONARY
360
7755
102
}
330
0
100
AcDbSymbolTable
 70
    10
  0
LAYER
  5
E
330
2
100
AcDbSymbolTableRecord
100
AcDbLayerTableRecord
  2
0
 70
     0
 62
     7
  6
CONTINUOUS
370
    -3
390
544E
  0
LAYER
  5
38
330
2
100
AcDbSymbolTableRecord
100
AcDbLayerTableRecord
  2
DEFPOINTS
 70
     0
 62
     7
  6
CONTINUOUS
290
     0
370
    -3
390
544E
  0
LAYER
  5
39
330
2
100
AcDbSymbolTableRecord
100
AcDbLayerTableRecord
  2
OBJECT
 70
     0
 62
     7
  6
CONTINUOUS
370
    -3
390
544E
  0
LAYER
  5
1AD
330
2
100
AcDbSymbolTableRecord
100
AcDbLayerTableRecord
  2
ZUWAKU
 70
     0
 62
     7
  6
CONTINUOUS
370
    -3
390
544E
  0
LAYER
  5
1AE
330
2
100
AcDbSymbolTableRecord
100
AcDbLayerTableRecord
  2
CRANE
 70
     0
 62
     7
  6
CONTINUOUS
370
    -3
390
544E
  0
LAYER
  5
177B
330
2
100
AcDbSymbolTableRecord
100
AcDbLayerTableRecord
  2
FS
 70
     0
 62
     7
  6
CONTINUOUS
370
    -3
390
544E
  0
LAYER
  5
21DF
330
2
100
AcDbSymbolTableRecord
100
AcDbLayerTableRecord
  2
DIM
 70
     0
 62
     7
  6
CONTINUOUS
370
    -3
390
544E
  0
LAYER
  5
66B7
330
2
100
AcDbSymbolTableRecord
100
AcDbLayerTableRecord
  2
LONG
 70
     0
 62
     7
  6
CONTINUOUS
370
    -3
390
544E
  0
LAYER
  5
67D4
330
2
100
AcDbSymbolTableRecord
100
AcDbLayerTableRecord
  2
TANK
 70
     0
 62
     7
  6
CONTINUOUS
370
    -3
390
544E
  0
LAYER
  5
6A00
330
2
100
AcDbSymbolTableRecord
100
AcDbLayerTableRecord
  2
BHD
 70
     0
 62
     7
  6
CONTINUOUS
370
    -3
390
544E
  0
ENDTAB
  0
TABLE
  2
STYLE
  5
3
330
0
100
AcDbSymbolTable
 70
     4
  0
STYLE
  5
F
330
3
100
AcDbSymbolTableRecord
100
AcDbTextStyleTableRecord
  2
STANDARD
 70
     0
 40
0.0
 41
1.0
 50
0.0
 71
     0
 42
2.5
  3
txt.shx
  4
extfont.shx
  0
STYLE
  5
3A
330
3
100
AcDbSymbolTableRecord
100
AcDbTextStyleTableRecord
  2
ADESK1
 70
     0
 40
0.0
 41
1.0
 50
0.0
 71
     0
 42
5.0
  3
romans
  4
bigfont
  0
STYLE
  5
18F
330
3
100
AcDbSymbolTableRecord
100
AcDbTextStyleTableRecord
  2

 70
     1
 40
0.0
 41
1.0
 50
0.0
 71
     0
 42
2.5
  3
ltypeshp.shx
  4

  0
ENDTAB
  0
TABLE
  2
VIEW
  5
6
330
0
100
AcDbSymbolTable
 70
     1
  0
ENDTAB
  0
TABLE
  2
UCS
  5
7
330
0
100
AcDbSymbolTable
 70
     0
  0
ENDTAB
  0
TABLE
  2
APPID
  5
9
330
0
100
AcDbSymbolTable
 70
     5
  0
APPID
  5
10
330
9
100
AcDbSymbolTableRecord
100
AcDbRegAppTableRecord
  2
ACAD
 70
     0
  0
APPID
  5
24
330
9
100
AcDbSymbolTableRecord
100
AcDbRegAppTableRecord
  2
CONTENTTABDATA
 70
     0
  0
APPID
  5
25
330
9
100
AcDbSymbolTableRecord
100
AcDbRegAppTableRecord
  2
CONTENTCURRENTTAB
 70
     0
  0
APPID
  5
283
330
9
100
AcDbSymbolTableRecord
100
AcDbRegAppTableRecord
  2
DRAWINGVARIABLESXDATA
 70
     0
  0
APPID
  5
2323
330
9
100
AcDbSymbolTableRecord
100
AcDbRegAppTableRecord
  2
ACE-LT__COPYRIGHT_TRIALSOFT-JPN
 70
     0
  0
ENDTAB
  0
TABLE
  2
DIMSTYLE
  5
A
330
0
100
AcDbSymbolTable
 70
     4
100
AcDbDimStyleTable
 71
     1
340
E7
  0
DIMSTYLE
105
1D
330
A
100
AcDbSymbolTableRecord
100
AcDbDimStyleTableRecord
  2
STANDARD
 70
     0
340
F
  0
DIMSTYLE
105
3B
330
A
100
AcDbSymbolTableRecord
100
AcDbDimStyleTableRecord
  2
JIS
 70
     0
 41
2.5
 42
1.0
 43
7.0
 44
1.0
 73
     0
 74
     0
 77
     1
 78
     8
140
2.5
141
0.0
143
0.0394
147
0.0
172
     1
174
     1
175
     1
340
F
  0
DIMSTYLE
105
E7
102
{ACAD_REACTORS
330
6A7C
330
6A89
330
6BDE
330
6BEB
330
6E83
330
6E90
330
5907
330
76BC
330
76CA
330
76E2
330
76F0
102
}
330
A
100
AcDbSymbolTableRecord
100
AcDbDimStyleTableRecord
  2
STANDARD_WS
 70
     0
 41
2.5
 42
0.625
 43
3.75
 44
1.25
 73
     0
 74
     0
 77
     1
 78
     8
140
2.5
141
2.5
143
0.0394
147
0.625
171
     4
172
     1
273
     8
274
     4
340
F
  0
ENDTAB
  0
TABLE
  2
BLOCK_RECORD
  5
1
330
0
100
AcDbSymbolTable
 70
    27
  0
BLOCK_RECORD
  5
18
102
{ACAD_XDICTIONARY
360
5D73
102
}
330
1
100
AcDbSymbolTableRecord
100
AcDbBlockTableRecord
  2
*MODEL_SPACE
340
5451
  0
BLOCK_RECORD
  5
15
102
{ACAD_XDICTIONARY
360
5D71
102
}
330
1
100
AcDbSymbolTableRecord
100
AcDbBlockTableRecord
  2
*PAPER_SPACE
340
5452
  0
BLOCK_RECORD
  5
3C
330
1
100
AcDbSymbolTableRecord
100
AcDbBlockTableRecord
  2
TITLE_BLOCK
340
0
  0
BLOCK_RECORD
  5
27C8
330
1
100
AcDbSymbolTableRecord
100
AcDbBlockTableRecord
  2
A$C7D152BF5
340
0
  0
BLOCK_RECORD
  5
2CCB
330
1
100
AcDbSymbolTableRecord
100
AcDbBlockTableRecord
  2
A$C4BF50593
340
0
  0
BLOCK_RECORD
  5
3640
330
1
100
AcDbSymbolTableRecord
100
AcDbBlockTableRecord
  2
A$C28EC78B4
340
0
102
{BLKREFS
331
5B2E
102
}
  0
BLOCK_RECORD
  5
3647
330
1
100
AcDbSymbolTableRecord
100
AcDbBlockTableRecord
  2
A$C56EF0BF5
340
0
  0
BLOCK_RECORD
  5
4107
330
1
100
AcDbSymbolTableRecord
100
AcDbBlockTableRecord
  2
L75X6
340
0
  0
BLOCK_RECORD
  5
4114
330
1
100
AcDbSymbolTableRecord
100
AcDbBlockTableRecord
  2
L100X10
340
0
  0
BLOCK_RECORD
  5
46CE
330
1
100
AcDbSymbolTableRecord
100
AcDbBlockTableRecord
  2
L150X12
340
0
  0
BLOCK_RECORD
  5
4E8C
330
1
100
AcDbSymbolTableRecord
100
AcDbBlockTableRecord
  2
L100X7
340
0
  0
BLOCK_RECORD
  5
4F9D
330
1
100
AcDbSymbolTableRecord
100
AcDbBlockTableRecord
  2
L130X9
340
0
102
{BLKREFS
331
583D
331
6EA0
102
}
  0
BLOCK_RECORD
  5
5BEA
330
1
100
AcDbSymbolTableRecord
100
AcDbBlockTableRecord
  2
*D10
340
0
  0
BLOCK_RECORD
  5
6A7D
330
1
100
AcDbSymbolTableRecord
100
AcDbBlockTableRecord
  2
*D11
340
0
  0
BLOCK_RECORD
  5
6A8A
330
1
100
AcDbSymbolTableRecord
100
AcDbBlockTableRecord
  2
*D12
340
0
  0
BLOCK_RECORD
  5
6BDF
330
1
100
AcDbSymbolTableRecord
100
AcDbBlockTableRecord
  2
*D13
340
0
  0
BLOCK_RECORD
  5
6BEC
330
1
100
AcDbSymbolTableRecord
100
AcDbBlockTableRecord
  2
*D14
340
0
  0
BLOCK_RECORD
  5
6E84
330
1
100
AcDbSymbolTableRecord
100
AcDbBlockTableRecord
  2
*D15
340
0
  0
BLOCK_RECORD
  5
6E91
330
1
100
AcDbSymbolTableRecord
100
AcDbBlockTableRecord
  2
*D16
340
0
  0
BLOCK_RECORD
  5
7680
330
1
100
AcDbSymbolTableRecord
100
AcDbBlockTableRecord
  2
*D17
340
0
  0
BLOCK_RECORD
  5
768E
330
1
100
AcDbSymbolTableRecord
100
AcDbBlockTableRecord
  2
*D18
340
0
  0
BLOCK_RECORD
  5
769A
330
1
100
AcDbSymbolTableRecord
100
AcDbBlockTableRecord
  2
*D19
340
0
  0
BLOCK_RECORD
  5
76A8
330
1
100
AcDbSymbolTableRecord
100
AcDbBlockTableRecord
  2
*D20
340
0
  0
BLOCK_RECORD
  5
76B4
330
1
100
AcDbSymbolTableRecord
100
AcDbBlockTableRecord
  2
A$C7B9268FB
340
0
  0
BLOCK_RECORD
  5
76BD
330
1
100
AcDbSymbolTableRecord
100
AcDbBlockTableRecord
  2
*D22
340
0
  0
BLOCK_RECORD
  5
76CB
330
1
100
AcDbSymbolTableRecord
100
AcDbBlockTableRecord
  2
*D23
340
0
  0
BLOCK_RECORD
  5
76E3
330
1
100
AcDbSymbolTableRecord
100
AcDbBlockTableRecord
  2
*D24
340
0
  0
BLOCK_RECORD
  5
76F1
330
1
100
AcDbSymbolTableRecord
100
AcDbBlockTableRecord
  2
*D25
340
0
  0
ENDTAB
  0
ENDSEC
  0
SECTION
  2
BLOCKS
  0
BLOCK
  5
19
330
18
100
AcDbEntity
  8
0
100
AcDbBlockBegin
  2
*MODEL_SPACE
 70
     0
 10
0.0
 20
0.0
 30
0.0
  3
*MODEL_SPACE
  1

  0
ENDBLK
  5
1A
330
18
100
AcDbEntity
  8
0
100
AcDbBlockEnd
  0
BLOCK
  5
16
330
15
100
AcDbEntity
 67
     1
  8
0
100
AcDbBlockBegin
  2
*PAPER_SPACE
 70
     2
 10
0.0
 20
0.0
 30
0.0
  3
*PAPER_SPACE
  1

  0
ENDBLK
  5
17
330
15
100
AcDbEntity
 67
     1
  8
0
100
AcDbBlockEnd
  0
BLOCK
  5
D9
330
3C
100
AcDbEntity
  8
0
100
AcDbBlockBegin
  2
TITLE_BLOCK
 70
     2
 10
0.0
 20
0.0
 30
0.0
  3
TITLE_BLOCK
  1

  0
LINE
  5
3D
330
3C
100
AcDbEntity
  8
0
100
AcDbLine
 10
0.0
 20
0.0
 30
0.0
 11
0.0
 21
10.0
 31
0.0
  0
LINE
  5
3E
330
3C
100
AcDbEntity
  8
0
100
AcDbLine
 10
0.0
 20
420.0
 30
0.0
 11
25.0
 21
420.0
 31
0.0
  0
LINE
  5
3F
330
3C
100
AcDbEntity
  8
0
100
AcDbLine
 10
594.0
 20
420.0
 30
0.0
 11
594.0
 21
410.0
 31
0.0
  0
LINE
  5
40
330
3C
100
AcDbEntity
  8
0
100
AcDbLine
 10
594.0
 20
0.0
 30
0.0
 11
584.0
 21
0.0
 31
0.0
  0
LINE
  5
41
330
3C
100
AcDbEntity
  8
0
100
AcDbLine
 10
25.0
 20
10.0
 30
0.0
 11
25.0
 21
410.0
 31
0.0
  0
LINE
  5
42
330
3C
100
AcDbEntity
  8
0
100
AcDbLine
 10
584.0
 20
10.0
 30
0.0
 11
25.0
 21
10.0
 31
0.0
  0
LINE
  5
43
330
3C
100
AcDbEntity
  8
0
100
AcDbLine
 10
584.0
 20
410.0
 30
0.0
 11
584.0
 21
10.0
 31
0.0
  0
LINE
  5
44
330
3C
100
AcDbEntity
  8
0
100
AcDbLine
 10
25.0
 20
410.0
 30
0.0
 11
584.0
 21
410.0
 31
0.0
  0
LINE
  5
45
330
3C
100
AcDbEntity
  8
0
100
AcDbLine
 10
25.0
 20
0.0
 30
0.0
 11
0.0
 21
0.0
 31
0.0
  0
LINE
  5
46
330
3C
100
AcDbEntity
  8
0
100
AcDbLine
 10
0.0
 20
410.0
 30
0.0
 11
0.0
 21
420.0
 31
0.0
  0
LINE
  5
47
330
3C
100
AcDbEntity
  8
0
100
AcDbLine
 10
594.0
 20
10.0
 30
0.0
 11
594.0
 21
0.0
 31
0.0
  0
LINE
  5
48
330
3C
100
AcDbEntity
  8
0
100
AcDbLine
 10
584.0
 20
420.0
 30
0.0
 11
594.0
 21
420.0
 31
0.0
  0
ATTDEF
  5
49
330
3C
100
AcDbEntity
  8
0
 62
     0
100
AcDbText
 10
19.0
 20
10.0
 30
0.0
 40
3.0
  1

 50
90.0
  7
ADESK1
100
AcDbAttributeDefinition
  3

  2
USER
 70
     8
  0
ATTDEF
  5
4A
330
3C
100
AcDbEntity
  8
0
 62
     0
100
AcDbText
 10
19.0
 20
70.0
 30
0.0
 40
3.0
  1

 50
90.0
  7
ADESK1
100
AcDbAttributeDefinition
  3

  2
REVDATE
 70
     8
  0
ATTDEF
  5
4B
330
3C
100
AcDbEntity
  8
0
 62
     0
100
AcDbText
 10
19.0
 20
118.0
 30
0.0
 40
3.0
  1

 50
90.0
  7
ADESK1
100
AcDbAttributeDefinition
  3

  2
FNAME
 70
     8
  0
LINE
  5
4C
330
3C
100
AcDbEntity
  8
OBJECT
100
AcDbLine
 10
130.0
 20
16.0
 30
0.0
 11
25.0
 21
16.0
 31
0.0
  0
LINE
  5
4D
330
3C
100
AcDbEntity
  8
OBJECT
100
AcDbLine
 10
130.0
 20
22.0
 30
0.0
 11
25.0
 21
22.0
 31
0.0
  0
LINE
  5
4E
330
3C
100
AcDbEntity
  8
OBJECT
100
AcDbLine
 10
130.0
 20
28.0
 30
0.0
 11
25.0
 21
28.0
 31
0.0
  0
LINE
  5
4F
330
3C
100
AcDbEntity
  8
OBJECT
100
AcDbLine
 10
130.0
 20
34.0
 30
0.0
 11
25.0
 21
34.0
 31
0.0
  0
LINE
  5
50
330
3C
100
AcDbEntity
  8
OBJECT
100
AcDbLine
 10
130.0
 20
40.0
 30
0.0
 11
25.0
 21
40.0
 31
0.0
  0
LINE
  5
51
330
3C
100
AcDbEntity
  8
OBJECT
100
AcDbLine
 10
28.0
 20
11.535898
 30
0.0
 11
30.0
 21
15.0
 31
0.0
  0
LINE
  5
52
330
3C
100
AcDbEntity
  8
OBJECT
100
AcDbLine
 10
32.0
 20
11.535898
 30
0.0
 11
30.0
 21
15.0
 31
0.0
  0
LINE
  5
53
330
3C
100
AcDbEntity
  8
OBJECT
100
AcDbLine
 10
35.0
 20
10.0
 30
0.0
 11
35.0
 21
40.0
 31
0.0
  0
LINE
  5
54
330
3C
100
AcDbEntity
  8
OBJECT
100
AcDbLine
 10
50.0
 20
10.0
 30
0.0
 11
50.0
 21
40.0
 31
0.0
  0
LINE
  5
55
330
3C
100
AcDbEntity
  8
OBJECT
100
AcDbLine
 10
80.0
 20
10.0
 30
0.0
 11
80.0
 21
40.0
 31
0.0
  0
LINE
  5
56
330
3C
100
AcDbEntity
  8
OBJECT
100
AcDbLine
 10
28.0
 20
11.535898
 30
0.0
 11
32.0
 21
11.535898
 31
0.0
  0
LINE
  5
57
330
3C
100
AcDbEntity
  8
OBJECT
100
AcDbLine
 10
39.5
 20
13.0
 30
0.0
 11
40.49999999999999
 21
13.0
 31
0.0
  0
LINE
  5
58
330
3C
100
AcDbEntity
  8
OBJECT
100
AcDbLine
 10
44.5
 20
13.0
 30
0.0
 11
45.49999999999999
 21
13.0
 31
0.0
  0
LINE
  5
59
330
3C
100
AcDbEntity
  8
OBJECT
100
AcDbLine
 10
32.0
 20
17.535898
 30
0.0
 11
30.0
 21
21.0
 31
0.0
  0
LINE
  5
5A
330
3C
100
AcDbEntity
  8
OBJECT
100
AcDbLine
 10
28.0
 20
17.535898
 30
0.0
 11
32.0
 21
17.535898
 31
0.0
  0
LINE
  5
5B
330
3C
100
AcDbEntity
  8
OBJECT
100
AcDbLine
 10
28.0
 20
17.535898
 30
0.0
 11
30.0
 21
21.0
 31
0.0
  0
LINE
  5
5C
330
3C
100
AcDbEntity
  8
OBJECT
100
AcDbLine
 10
32.0
 20
23.535898
 30
0.0
 11
30.0
 21
27.0
 31
0.0
  0
LINE
  5
5D
330
3C
100
AcDbEntity
  8
OBJECT
100
AcDbLine
 10
28.0
 20
23.535898
 30
0.0
 11
32.0
 21
23.535898
 31
0.0
  0
LINE
  5
5E
330
3C
100
AcDbEntity
  8
OBJECT
100
AcDbLine
 10
28.0
 20
23.535898
 30
0.0
 11
30.0
 21
27.0
 31
0.0
  0
LINE
  5
5F
330
3C
100
AcDbEntity
  8
OBJECT
100
AcDbLine
 10
28.0
 20
35.535898
 30
0.0
 11
30.0
 21
39.0
 31
0.0
  0
LINE
  5
60
330
3C
100
AcDbEntity
  8
OBJECT
100
AcDbLine
 10
32.0
 20
35.535898
 30
0.0
 11
30.0
 21
39.0
 31
0.0
  0
LINE
  5
61
330
3C
100
AcDbEntity
  8
OBJECT
100
AcDbLine
 10
28.0
 20
35.535898
 30
0.0
 11
32.0
 21
35.535898
 31
0.0
  0
LINE
  5
62
330
3C
100
AcDbEntity
  8
OBJECT
100
AcDbLine
 10
32.0
 20
29.53589800000001
 30
0.0
 11
30.0
 21
33.0
 31
0.0
  0
LINE
  5
63
330
3C
100
AcDbEntity
  8
OBJECT
100
AcDbLine
 10
28.0
 20
29.53589800000001
 30
0.0
 11
32.0
 21
29.53589800000001
 31
0.0
  0
LINE
  5
64
330
3C
100
AcDbEntity
  8
OBJECT
100
AcDbLine
 10
28.0
 20
29.53589800000001
 30
0.0
 11
30.0
 21
33.0
 31
0.0
  0
LINE
  5
65
330
3C
100
AcDbEntity
  8
OBJECT
100
AcDbLine
 10
39.5
 20
19.0
 30
0.0
 11
40.49999999999999
 21
19.0
 31
0.0
  0
LINE
  5
66
330
3C
100
AcDbEntity
  8
OBJECT
100
AcDbLine
 10
44.5
 20
19.0
 30
0.0
 11
45.49999999999999
 21
19.0
 31
0.0
  0
LINE
  5
67
330
3C
100
AcDbEntity
  8
OBJECT
100
AcDbLine
 10
39.5
 20
25.0
 30
0.0
 11
40.49999999999999
 21
25.0
 31
0.0
  0
LINE
  5
68
330
3C
100
AcDbEntity
  8
OBJECT
100
AcDbLine
 10
44.5
 20
25.0
 30
0.0
 11
45.49999999999999
 21
25.0
 31
0.0
  0
LINE
  5
69
330
3C
100
AcDbEntity
  8
OBJECT
100
AcDbLine
 10
39.5
 20
31.0
 30
0.0
 11
40.49999999999999
 21
31.0
 31
0.0
  0
LINE
  5
6A
330
3C
100
AcDbEntity
  8
OBJECT
100
AcDbLine
 10
39.5
 20
37.0
 30
0.0
 11
40.49999999999999
 21
37.0
 31
0.0
  0
LINE
  5
6B
330
3C
100
AcDbEntity
  8
OBJECT
100
AcDbLine
 10
44.5
 20
31.0
 30
0.0
 11
45.49999999999999
 21
31.0
 31
0.0
  0
LINE
  5
6C
330
3C
100
AcDbEntity
  8
OBJECT
100
AcDbLine
 10
44.5
 20
37.0
 30
0.0
 11
45.49999999999999
 21
37.0
 31
0.0
  0
LINE
  5
6D
330
3C
100
AcDbEntity
  8
OBJECT
100
AcDbLine
 10
120.0
 20
10.0
 30
0.0
 11
120.0
 21
40.0
 31
0.0
  0
LINE
  5
6E
330
3C
100
AcDbEntity
  8
OBJECT
100
AcDbLine
 10
130.0
 20
40.0
 30
0.0
 11
130.0
 21
10.0
 31
0.0
  0
LINE
  5
6F
330
3C
100
AcDbEntity
  8
0
100
AcDbLine
 10
304.5
 20
10.0
 30
0.0
 11
304.5
 21
0.0
 31
0.0
  0
LINE
  5
70
330
3C
100
AcDbEntity
  8
0
100
AcDbLine
 10
304.5
 20
410.0
 30
0.0
 11
304.5
 21
420.0
 31
0.0
  0
LINE
  5
71
330
3C
100
AcDbEntity
  8
0
100
AcDbLine
 10
584.0
 20
210.0
 30
0.0
 11
594.0
 21
210.0
 31
0.0
  0
LINE
  5
72
330
3C
100
AcDbEntity
  8
0
100
AcDbLine
 10
25.0
 20
210.0
 30
0.0
 11
0.0
 21
210.0
 31
0.0
  0
TEXT
  5
73
330
3C
100
AcDbEntity
  8
0
100
AcDbText
 10
1.0
 20
1.0
 30
0.0
 40
3.0
  1
この図枠はサンプルです。社内の規格やプロッタの出力範囲に合わせて適当に変更してご利用ください。
  7
ADESK1
100
AcDbText
  0
LINE
  5
74
330
3C
100
AcDbEntity
  8
0
100
AcDbLine
 10
25.0
 20
360.0
 30
0.0
 11
20.0
 21
360.0
 31
0.0
  0
LINE
  5
75
330
3C
100
AcDbEntity
  8
0
100
AcDbLine
 10
25.0
 20
310.0
 30
0.0
 11
20.0
 21
310.0
 31
0.0
  0
LINE
  5
76
330
3C
100
AcDbEntity
  8
0
100
AcDbLine
 10
25.0
 20
260.0
 30
0.0
 11
20.0
 21
260.0
 31
0.0
  0
LINE
  5
77
330
3C
100
AcDbEntity
  8
0
100
AcDbLine
 10
25.0
 20
210.0
 30
0.0
 11
20.0
 21
210.0
 31
0.0
  0
LINE
  5
78
330
3C
100
AcDbEntity
  8
0
100
AcDbLine
 10
25.0
 20
160.0
 30
0.0
 11
20.0
 21
160.0
 31
0.0
  0
LINE
  5
79
330
3C
100
AcDbEntity
  8
0
100
AcDbLine
 10
25.0
 20
110.0
 30
0.0
 11
20.0
 21
110.0
 31
0.0
  0
LINE
  5
7A
330
3C
100
AcDbEntity
  8
0
100
AcDbLine
 10
25.0
 20
60.0
 30
0.0
 11
20.0
 21
60.0
 31
0.0
  0
LINE
  5
7B
330
3C
100
AcDbEntity
  8
0
100
AcDbLine
 10
584.0
 20
60.0
 30
0.0
 11
589.0
 21
60.0
 31
0.0
  0
LINE
  5
7C
330
3C
100
AcDbEntity
  8
0
100
AcDbLine
 10
584.0
 20
110.0
 30
0.0
 11
589.0
 21
110.0
 31
0.0
  0
LINE
  5
7D
330
3C
100
AcDbEntity
  8
0
100
AcDbLine
 10
584.0
 20
160.0
 30
0.0
 11
589.0
 21
160.0
 31
0.0
  0
LINE
  5
7E
330
3C
100
AcDbEntity
  8
0
100
AcDbLine
 10
584.0
 20
210.0
 30
0.0
 11
589.0
 21
210.0
 31
0.0
  0
LINE
  5
7F
330
3C
100
AcDbEntity
  8
0
100
AcDbLine
 10
584.0
 20
260.0
 30
0.0
 11
589.0
 21
260.0
 31
0.0
  0
LINE
  5
80
330
3C
100
AcDbEntity
  8
0
100
AcDbLine
 10
584.0
 20
310.0
 30
0.0
 11
589.0
 21
310.0
 31
0.0
  0
LINE
  5
81
330
3C
100
AcDbEntity
  8
0
100
AcDbLine
 10
584.0
 20
360.0
 30
0.0
 11
589.0
 21
360.0
 31
0.0
  0
LINE
  5
82
330
3C
100
AcDbEntity
  8
0
100
AcDbLine
 10
80.9000000000001
 20
10.0
 30
0.0
 11
80.9000000000001
 21
5.0
 31
0.0
  0
LINE
  5
83
330
3C
100
AcDbEntity
  8
0
100
AcDbLine
 10
136.8
 20
10.0
 30
0.0
 11
136.8
 21
5.0
 31
0.0
  0
LINE
  5
84
330
3C
100
AcDbEntity
  8
0
100
AcDbLine
 10
192.7
 20
10.0
 30
0.0
 11
192.7
 21
5.0
 31
0.0
  0
LINE
  5
85
330
3C
100
AcDbEntity
  8
0
100
AcDbLine
 10
248.6
 20
10.0
 30
0.0
 11
248.6
 21
5.0
 31
0.0
  0
LINE
  5
86
330
3C
100
AcDbEntity
  8
0
100
AcDbLine
 10
304.5
 20
10.0
 30
0.0
 11
304.5
 21
5.0
 31
0.0
  0
LINE
  5
87
330
3C
100
AcDbEntity
  8
0
100
AcDbLine
 10
360.4
 20
10.0
 30
0.0
 11
360.4
 21
5.0
 31
0.0
  0
LINE
  5
88
330
3C
100
AcDbEntity
  8
0
100
AcDbLine
 10
416.3
 20
10.0
 30
0.0
 11
416.3
 21
5.0
 31
0.0
  0
LINE
  5
89
330
3C
100
AcDbEntity
  8
0
100
AcDbLine
 10
472.2
 20
10.0
 30
0.0
 11
472.2
 21
5.0
 31
0.0
  0
LINE
  5
8A
330
3C
100
AcDbEntity
  8
0
100
AcDbLine
 10
528.1
 20
10.0
 30
0.0
 11
528.1
 21
5.0
 31
0.0
  0
LINE
  5
8B
330
3C
100
AcDbEntity
  8
0
100
AcDbLine
 10
528.0999999999998
 20
410.0
 30
0.0
 11
528.0999999999998
 21
415.0
 31
0.0
  0
LINE
  5
8C
330
3C
100
AcDbEntity
  8
0
100
AcDbLine
 10
472.2
 20
410.0
 30
0.0
 11
472.2
 21
415.0
 31
0.0
  0
LINE
  5
8D
330
3C
100
AcDbEntity
  8
0
100
AcDbLine
 10
416.2999999999999
 20
410.0
 30
0.0
 11
416.2999999999999
 21
415.0
 31
0.0
  0
LINE
  5
8E
330
3C
100
AcDbEntity
  8
0
100
AcDbLine
 10
360.4
 20
410.0
 30
0.0
 11
360.4
 21
415.0
 31
0.0
  0
LINE
  5
8F
330
3C
100
AcDbEntity
  8
0
100
AcDbLine
 10
304.5
 20
410.0
 30
0.0
 11
304.5
 21
415.0
 31
0.0
  0
LINE
  5
90
330
3C
100
AcDbEntity
  8
0
100
AcDbLine
 10
248.6
 20
410.0
 30
0.0
 11
248.6
 21
415.0
 31
0.0
  0
LINE
  5
91
330
3C
100
AcDbEntity
  8
0
100
AcDbLine
 10
192.6999999999999
 20
410.0
 30
0.0
 11
192.6999999999999
 21
415.0
 31
0.0
  0
LINE
  5
92
330
3C
100
AcDbEntity
  8
0
100
AcDbLine
 10
136.8
 20
410.0
 30
0.0
 11
136.8
 21
415.0
 31
0.0
  0
LINE
  5
93
330
3C
100
AcDbEntity
  8
0
100
AcDbLine
 10
80.89999999999999
 20
410.0
 30
0.0
 11
80.89999999999999
 21
415.0
 31
0.0
  0
TEXT
  5
94
330
3C
100
AcDbEntity
  8
0
100
AcDbText
 10
51.73571428571428
 20
411.0
 30
0.0
 40
3.0
  1
1
  7
ADESK1
 72
     1
 11
52.94999999999999
 21
411.0
 31
0.0
100
AcDbText
  0
TEXT
  5
95
330
3C
100
AcDbEntity
  8
0
100
AcDbText
 10
21.79951209273041
 20
385.0
 30
0.0
 40
3.0
  1
A
  7
ADESK1
 72
     1
 11
23.0852263784447
 21
385.0
 31
0.0
100
AcDbText
  0
TEXT
  5
96
330
3C
100
AcDbEntity
  8
0
100
AcDbText
 10
107.4214285714285
 20
411.0
 30
0.0
 40
3.0
  1
2
  7
ADESK1
 72
     1
 11
108.85
 21
411.0
 31
0.0
100
AcDbText
  0
TEXT
  5
97
330
3C
100
AcDbEntity
  8
0
100
AcDbText
 10
163.3214285714286
 20
411.0
 30
0.0
 40
3.0
  1
3
  7
ADESK1
 72
     1
 11
164.75
 21
411.0
 31
0.0
100
AcDbText
  0
TEXT
  5
98
330
3C
100
AcDbEntity
  8
0
100
AcDbText
 10
219.15
 20
411.0
 30
0.0
 40
3.0
  1
4
  7
ADESK1
 72
     1
 11
220.65
 21
411.0
 31
0.0
100
AcDbText
  0
TEXT
  5
99
330
3C
100
AcDbEntity
  8
0
100
AcDbText
 10
275.1214285714286
 20
411.0
 30
0.0
 40
3.0
  1
5
  7
ADESK1
 72
     1
 11
276.55
 21
411.0
 31
0.0
100
AcDbText
  0
TEXT
  5
9A
330
3C
100
AcDbEntity
  8
0
100
AcDbText
 10
330.95
 20
411.0
 30
0.0
 40
3.0
  1
6
  7
ADESK1
 72
     1
 11
332.45
 21
411.0
 31
0.0
100
AcDbText
  0
TEXT
  5
9B
330
3C
100
AcDbEntity
  8
0
100
AcDbText
 10
386.9214285714286
 20
411.0
 30
0.0
 40
3.0
  1
7
  7
ADESK1
 72
     1
 11
388.35
 21
411.0
 31
0.0
100
AcDbText
  0
TEXT
  5
9C
330
3C
100
AcDbEntity
  8
0
100
AcDbText
 10
442.8214285714286
 20
411.0
 30
0.0
 40
3.0
  1
8
  7
ADESK1
 72
     1
 11
444.25
 21
411.0
 31
0.0
100
AcDbText
  0
TEXT
  5
9D
330
3C
100
AcDbEntity
  8
0
100
AcDbText
 10
498.7928571428572
 20
411.0
 30
0.0
 40
3.0
  1
9
  7
ADESK1
 72
     1
 11
500.15
 21
411.0
 31
0.0
100
AcDbText
  0
TEXT
  5
9E
330
3C
100
AcDbEntity
  8
0
100
AcDbText
 10
552.9785714285715
 20
411.0
 30
0.0
 40
3.0
  1
10
  7
ADESK1
 72
     1
 11
556.0500000000001
 21
411.0
 31
0.0
100
AcDbText
  0
TEXT
  5
9F
330
3C
100
AcDbEntity
  8
0
100
AcDbText
 10
21.51379780701613
 20
335.0
 30
0.0
 40
3.0
  1
B
  7
ADESK1
 72
     1
 11
23.0852263784447
 21
335.0
 31
0.0
100
AcDbText
  0
TEXT
  5
A0
330
3C
100
AcDbEntity
  8
0
100
AcDbText
 10
21.5852263784447
 20
285.0
 30
0.0
 40
3.0
  1
C
  7
ADESK1
 72
     1
 11
23.0852263784447
 21
285.0
 31
0.0
100
AcDbText
  0
TEXT
  5
A1
330
3C
100
AcDbEntity
  8
0
100
AcDbText
 10
21.51379780701613
 20
235.0
 30
0.0
 40
3.0
  1
D
  7
ADESK1
 72
     1
 11
23.0852263784447
 21
235.0
 31
0.0
100
AcDbText
  0
TEXT
  5
A2
330
3C
100
AcDbEntity
  8
0
100
AcDbText
 10
21.5852263784447
 20
185.0
 30
0.0
 40
3.0
  1
E
  7
ADESK1
 72
     1
 11
23.0852263784447
 21
185.0
 31
0.0
100
AcDbText
  0
TEXT
  5
A3
330
3C
100
AcDbEntity
  8
0
100
AcDbText
 10
21.5852263784447
 20
135.0
 30
0.0
 40
3.0
  1
F
  7
ADESK1
 72
     1
 11
23.0852263784447
 21
135.0
 31
0.0
100
AcDbText
  0
TEXT
  5
A4
330
3C
100
AcDbEntity
  8
0
100
AcDbText
 10
21.5852263784447
 20
85.0
 30
0.0
 40
3.0
  1
G
  7
ADESK1
 72
     1
 11
23.0852263784447
 21
85.0
 31
0.0
100
AcDbText
  0
TEXT
  5
A5
330
3C
100
AcDbEntity
  8
0
100
AcDbText
 10
21.51379780701613
 20
35.0
 30
0.0
 40
3.0
  1
H
  7
ADESK1
 72
     1
 11
23.0852263784447
 21
35.0
 31
0.0
100
AcDbText
  0
TEXT
  5
A6
330
3C
100
AcDbEntity
  8
0
100
AcDbText
 10
51.73571428571433
 20
6.161340157207792
 30
0.0
 40
3.0
  1
1
  7
ADESK1
 72
     1
 11
52.95000000000005
 21
6.161340157207792
 31
0.0
100
AcDbText
  0
TEXT
  5
A7
330
3C
100
AcDbEntity
  8
0
100
AcDbText
 10
107.4214285714286
 20
6.161340157207792
 30
0.0
 40
3.0
  1
2
  7
ADESK1
 72
     1
 11
108.85
 21
6.161340157207792
 31
0.0
100
AcDbText
  0
TEXT
  5
A8
330
3C
100
AcDbEntity
  8
0
100
AcDbText
 10
163.3214285714286
 20
6.161340157207792
 30
0.0
 40
3.0
  1
3
  7
ADESK1
 72
     1
 11
164.75
 21
6.161340157207792
 31
0.0
100
AcDbText
  0
TEXT
  5
A9
330
3C
100
AcDbEntity
  8
0
100
AcDbText
 10
219.15
 20
6.161340157207792
 30
0.0
 40
3.0
  1
4
  7
ADESK1
 72
     1
 11
220.65
 21
6.161340157207792
 31
0.0
100
AcDbText
  0
TEXT
  5
AA
330
3C
100
AcDbEntity
  8
0
100
AcDbText
 10
275.1214285714286
 20
6.161340157207792
 30
0.0
 40
3.0
  1
5
  7
ADESK1
 72
     1
 11
276.55
 21
6.161340157207792
 31
0.0
100
AcDbText
  0
TEXT
  5
AB
330
3C
100
AcDbEntity
  8
0
100
AcDbText
 10
330.95
 20
6.161340157207792
 30
0.0
 40
3.0
  1
6
  7
ADESK1
 72
     1
 11
332.45
 21
6.161340157207792
 31
0.0
100
AcDbText
  0
TEXT
  5
AC
330
3C
100
AcDbEntity
  8
0
100
AcDbText
 10
386.9214285714286
 20
6.161340157207792
 30
0.0
 40
3.0
  1
7
  7
ADESK1
 72
     1
 11
388.35
 21
6.161340157207792
 31
0.0
100
AcDbText
  0
TEXT
  5
AD
330
3C
100
AcDbEntity
  8
0
100
AcDbText
 10
442.8214285714286
 20
6.161340157207792
 30
0.0
 40
3.0
  1
8
  7
ADESK1
 72
     1
 11
444.25
 21
6.161340157207792
 31
0.0
100
AcDbText
  0
TEXT
  5
AE
330
3C
100
AcDbEntity
  8
0
100
AcDbText
 10
498.7928571428572
 20
6.161340157207792
 30
0.0
 40
3.0
  1
9
  7
ADESK1
 72
     1
 11
500.15
 21
6.161340157207792
 31
0.0
100
AcDbText
  0
TEXT
  5
AF
330
3C
100
AcDbEntity
  8
0
100
AcDbText
 10
552.9785714285715
 20
6.161340157207792
 30
0.0
 40
3.0
  1
10
  7
ADESK1
 72
     1
 11
556.0500000000001
 21
6.161340157207792
 31
0.0
100
AcDbText
  0
TEXT
  5
B0
330
3C
100
AcDbEntity
  8
0
100
AcDbText
 10
584.927379730091
 20
385.0
 30
0.0
 40
3.0
  1
A
  7
ADESK1
 72
     1
 11
586.2130940158054
 21
385.0
 31
0.0
100
AcDbText
  0
TEXT
  5
B1
330
3C
100
AcDbEntity
  8
0
100
AcDbText
 10
584.6416654443768
 20
335.0
 30
0.0
 40
3.0
  1
B
  7
ADESK1
 72
     1
 11
586.2130940158054
 21
335.0
 31
0.0
100
AcDbText
  0
TEXT
  5
B2
330
3C
100
AcDbEntity
  8
0
100
AcDbText
 10
584.7130940158053
 20
285.0
 30
0.0
 40
3.0
  1
C
  7
ADESK1
 72
     1
 11
586.2130940158054
 21
285.0
 31
0.0
100
AcDbText
  0
TEXT
  5
B3
330
3C
100
AcDbEntity
  8
0
100
AcDbText
 10
584.6416654443768
 20
235.0
 30
0.0
 40
3.0
  1
D
  7
ADESK1
 72
     1
 11
586.2130940158054
 21
235.0
 31
0.0
100
AcDbText
  0
TEXT
  5
B4
330
3C
100
AcDbEntity
  8
0
100
AcDbText
 10
584.7130940158053
 20
185.0
 30
0.0
 40
3.0
  1
E
  7
ADESK1
 72
     1
 11
586.2130940158054
 21
185.0
 31
0.0
100
AcDbText
  0
TEXT
  5
B5
330
3C
100
AcDbEntity
  8
0
100
AcDbText
 10
584.7130940158053
 20
135.0
 30
0.0
 40
3.0
  1
F
  7
ADESK1
 72
     1
 11
586.2130940158054
 21
135.0
 31
0.0
100
AcDbText
  0
TEXT
  5
B6
330
3C
100
AcDbEntity
  8
0
100
AcDbText
 10
584.7130940158053
 20
85.0
 30
0.0
 40
3.0
  1
G
  7
ADESK1
 72
     1
 11
586.2130940158054
 21
85.0
 31
0.0
100
AcDbText
  0
TEXT
  5
B7
330
3C
100
AcDbEntity
  8
0
100
AcDbText
 10
584.6416654443768
 20
35.0
 30
0.0
 40
3.0
  1
H
  7
ADESK1
 72
     1
 11
586.2130940158054
 21
35.0
 31
0.0
100
AcDbText
  0
LINE
  5
B8
330
3C
100
AcDbEntity
  8
0
 62
     0
100
AcDbLine
 10
454.2978723404242
 20
49.00000000000036
 30
0.0
 11
584.0
 21
49.00000000000036
 31
0.0
  0
LINE
  5
B9
330
3C
100
AcDbEntity
  8
0
 62
     0
100
AcDbLine
 10
454.2978723404242
 20
13.00000000000004
 30
0.0
 11
584.0
 21
13.00000000000004
 31
0.0
  0
LINE
  5
BA
330
3C
100
AcDbEntity
  8
0
 62
     0
100
AcDbLine
 10
454.2978723404242
 20
37.00000000000024
 30
0.0
 11
584.0
 21
37.00000000000024
 31
0.0
  0
LINE
  5
BB
330
3C
100
AcDbEntity
  8
0
 62
     0
100
AcDbLine
 10
492.1276595744672
 20
22.00000000000012
 30
0.0
 11
584.0
 21
22.00000000000012
 31
0.0
  0
LINE
  5
BC
330
3C
100
AcDbEntity
  8
0
 62
     0
100
AcDbLine
 10
454.2978723404242
 20
10.0
 30
0.0
 11
584.0
 21
10.0
 31
0.0
  0
LINE
  5
BD
330
3C
100
AcDbEntity
  8
0
 62
     0
100
AcDbLine
 10
584.0
 20
49.00000000000036
 30
0.0
 11
454.2978723404242
 21
49.00000000000036
 31
0.0
  0
LINE
  5
BE
330
3C
100
AcDbEntity
  8
0
 62
     0
100
AcDbLine
 10
477.7163120567365
 20
37.00000000000024
 30
0.0
 11
477.7163120567365
 21
10.0
 31
0.0
  0
LINE
  5
BF
330
3C
100
AcDbEntity
  8
0
 62
     0
100
AcDbLine
 10
459.7021276595731
 20
37.00000000000024
 30
0.0
 11
459.7021276595731
 21
10.0
 31
0.0
  0
LINE
  5
C0
330
3C
100
AcDbEntity
  8
0
 62
     0
100
AcDbLine
 10
486.7234042553184
 20
37.00000000000024
 30
0.0
 11
486.7234042553184
 21
10.0
 31
0.0
  0
LINE
  5
C1
330
3C
100
AcDbEntity
  8
0
 62
     0
100
AcDbLine
 10
492.1276595744672
 20
25.00000000000012
 30
0.0
 11
492.1276595744672
 21
10.0
 31
0.0
  0
LINE
  5
C2
330
3C
100
AcDbEntity
  8
0
 62
     0
100
AcDbLine
 10
454.2978723404242
 20
49.00000000000036
 30
0.0
 11
454.2978723404242
 21
10.0
 31
0.0
  0
LINE
  5
C3
330
3C
100
AcDbEntity
  8
0
 62
     0
100
AcDbLine
 10
522.7517730496447
 20
49.00000000000036
 30
0.0
 11
522.7517730496447
 21
10.0
 31
0.0
  0
LINE
  5
C4
330
3C
100
AcDbEntity
  8
0
 62
     0
100
AcDbLine
 10
502.7659574468077
 20
22.00000000000008
 30
0.0
 11
502.7659574468077
 21
10.0
 31
0.0
  0
LINE
  5
C5
330
3C
100
AcDbEntity
  8
0
 62
     0
100
AcDbLine
 10
513.4042553191484
 20
22.00000000000008
 30
0.0
 11
513.4042553191484
 21
10.0
 31
0.0
  0
LINE
  5
C6
330
3C
100
AcDbEntity
  8
0
 62
     0
100
AcDbLine
 10
454.2978723404242
 20
16.00000000000008
 30
0.0
 11
492.1276595744672
 21
16.00000000000008
 31
0.0
  0
LINE
  5
C7
330
3C
100
AcDbEntity
  8
0
 62
     0
100
AcDbLine
 10
454.2978723404242
 20
10.0
 30
0.0
 11
454.2978723404242
 21
13.00000000000004
 31
0.0
  0
TEXT
  5
C8
330
3C
100
AcDbEntity
  8
0
 62
     0
100
AcDbText
 10
495.7174935280942
 20
10.48329012996929
 30
0.0
 40
1.791674070777747
  1
製図
  7
ADESK1
 72
     1
 11
497.5688900678979
 21
10.48329012996929
 31
0.0
100
AcDbText
  0
TEXT
  5
C9
330
3C
100
AcDbEntity
  8
0
 62
     0
100
AcDbText
 10
506.2960689314087
 20
10.48329012996929
 30
0.0
 40
1.791674070777747
  1
設計
  7
ADESK1
 72
     1
 11
508.2071879402383
 21
10.48329012996929
 31
0.0
100
AcDbText
  0
TEXT
  5
CA
330
3C
100
AcDbEntity
  8
0
 62
     0
100
AcDbText
 10
516.2447163844404
 20
10.55220101068186
 30
0.0
 40
1.791674070777747
  1
照査
  7
ADESK1
 72
     1
 11
518.15583539327
 21
10.55220101068186
 31
0.0
100
AcDbText
  0
LINE
  5
CB
330
3C
100
AcDbEntity
  8
0
 62
     0
100
AcDbLine
 10
454.2978723404242
 20
25.00000000000012
 30
0.0
 11
492.1276595744672
 21
25.00000000000012
 31
0.0
  0
LINE
  5
CC
330
3C
100
AcDbEntity
  8
0
 62
     0
100
AcDbLine
 10
454.2978723404242
 20
22.00000000000008
 30
0.0
 11
492.1276595744672
 21
22.00000000000012
 31
0.0
  0
LINE
  5
CD
330
3C
100
AcDbEntity
  8
0
 62
     0
100
AcDbLine
 10
454.2978723404242
 20
19.00000000000008
 30
0.0
 11
492.1276595744672
 21
19.00000000000012
 31
0.0
  0
LINE
  5
CE
330
3C
100
AcDbEntity
  8
0
 62
     0
100
AcDbLine
 10
454.2978723404242
 20
34.00000000000024
 30
0.0
 11
522.7517730496447
 21
34.00000000000024
 31
0.0
  0
LINE
  5
CF
330
3C
100
AcDbEntity
  8
0
 62
     0
100
AcDbLine
 10
454.2978723404242
 20
31.0000000000002
 30
0.0
 11
522.7517730496447
 21
31.0000000000002
 31
0.0
  0
LINE
  5
D0
330
3C
100
AcDbEntity
  8
0
 62
     0
100
AcDbLine
 10
454.2978723404242
 20
28.00000000000016
 30
0.0
 11
522.7517730496447
 21
28.00000000000016
 31
0.0
  0
LINE
  5
D1
330
3C
100
AcDbEntity
  8
0
 62
     0
100
AcDbLine
 10
492.1276595744672
 20
25.00000000000012
 30
0.0
 11
522.7517730496447
 21
25.00000000000012
 31
0.0
  0
LINE
  5
D2
330
3C
100
AcDbEntity
  8
0
 62
     0
100
AcDbLine
 10
492.1276595744672
 20
49.00000000000036
 30
0.0
 11
492.1276595744672
 21
25.00000000000012
 31
0.0
  0
LINE
  5
D3
330
3C
100
AcDbEntity
  8
0
 62
     0
100
AcDbLine
 10
499.3333333333326
 20
37.00000000000024
 30
0.0
 11
499.3333333333326
 21
25.00000000000012
 31
0.0
  0
LINE
  5
D4
330
3C
100
AcDbEntity
  8
0
 62
     0
100
AcDbLine
 10
510.1418439716305
 20
49.00000000000036
 30
0.0
 11
510.1418439716305
 21
22.00000000000012
 31
0.0
  0
LINE
  5
D5
330
3C
100
AcDbEntity
  8
0
 62
     0
100
AcDbLine
 10
576.7943262411347
 20
22.00000000000012
 30
0.0
 11
576.7943262411347
 21
10.0
 31
0.0
  0
LINE
  5
D6
330
3C
100
AcDbEntity
  8
0
 62
     0
100
AcDbLine
 10
584.0
 20
49.00000000000036
 30
0.0
 11
584.0
 21
10.0
 31
0.0
  0
LINE
  5
D7
330
3C
100
AcDbEntity
  8
0
 62
     0
100
AcDbLine
 10
584.0
 20
10.0
 30
0.0
 11
584.0
 21
49.00000000000036
 31
0.0
  0
LINE
  5
D8
330
3C
100
AcDbEntity
  8
0
 62
     0
100
AcDbLine
 10
576.7943262411347
 20
16.00000000000008
 30
0.0
 11
584.0
 21
16.00000000000008
 31
0.0
  0
ENDBLK
  5
DA
330
3C
100
AcDbEntity
  8
0
100
AcDbBlockEnd
  0
BLOCK
  5
27E2
330
27C8
100
AcDbEntity
  8
0
 48
100.0
100
AcDbBlockBegin
  2
A$C7D152BF5
 70
     0
 10
0.0
 20
0.0
 30
0.0
  3
A$C7D152BF5
  1

  0
LINE
  5
27C9
330
27C8
100
AcDbEntity
  8
OBJECT
  6
Continuous
 48
100.0
100
AcDbLine
 10
100.0007362714095
 20
159.5460211073332
 30
0.0
 11
100.0018996688595
 21
659.5460211181598
 31
0.0
  0
LINE
  5
27CA
330
27C8
100
AcDbEntity
  8
OBJECT
  6
Continuous
 48
100.0
100
AcDbLine
 10
1000.000736251939
 20
159.5376446457048
 30
0.0
 11
1000.001899649389
 21
659.5376446565315
 31
0.0
  0
LINE
  5
27CB
330
27C8
100
AcDbEntity
  8
OBJECT
  6
Continuous
 48
100.0
100
AcDbLine
 10
500.0007362627656
 20
159.5422982354976
 30
0.0
 11
500.0018996602157
 21
659.5422982463242
 31
0.0
  0
LINE
  5
27CC
330
27C8
100
AcDbEntity
  8
OBJECT
  6
Continuous
 48
100.0
100
AcDbLine
 10
1400.000736243266
 20
159.5339217738728
 30
0.0
 11
1400.001899640716
 21
659.5339217846994
 31
0.0
  0
POINT
  5
27CD
330
27C8
100
AcDbEntity
  8
CRANE
  6
Continuous
 48
100.0
100
AcDbPoint
 10
749.9999451470793
 20
59.5399714436353
 30
0.0
  0
LINE
  5
27CE
330
27C8
100
AcDbEntity
  8
OBJECT
  6
Continuous
 48
100.0
100
AcDbLine
 10
-0.000054836680647
 20
59.54695182832438
 30
0.0
 11
1499.999945130839
 21
59.53299105894257
 31
0.0
  0
LINE
  5
27CF
330
27C8
100
AcDbEntity
  8
OBJECT
  6
Continuous
 48
100.0
100
AcDbLine
 10
0.0001778428268153
 20
159.546951830489
 30
0.0
 11
1500.000177810318
 21
159.5329910611108
 31
0.0
  0
LINE
  5
27D0
330
27C8
100
AcDbEntity
  8
OBJECT
  6
Continuous
 48
100.0
100
AcDbLine
 10
-0.0000548366515432
 20
59.54695182832438
 30
0.0
 11
0.0001778428559192
 21
159.546951830489
 31
0.0
  0
LINE
  5
27D1
330
27C8
100
AcDbEntity
  8
OBJECT
  6
Continuous
 48
100.0
100
AcDbLine
 10
1499.999945130839
 20
59.53299105894257
 30
0.0
 11
1500.000177810376
 21
159.5329910611108
 31
0.0
  0
LINE
  5
27D2
330
27C8
100
AcDbEntity
  8
OBJECT
  6
Continuous
 48
100.0
100
AcDbLine
 10
60.00189967156621
 20
659.5463934053441
 30
0.0
 11
540.0018744090921
 21
659.5419259593763
 31
0.0
  0
LINE
  5
27D3
330
27C8
100
AcDbEntity
  8
OBJECT
  6
Continuous
 48
100.0
100
AcDbLine
 10
960.0019101563376
 20
659.5380169436175
 30
0.0
 11
1440.001899639959
 21
659.5335494975151
 31
0.0
  0
LINE
  5
27D4
330
27C8
100
AcDbEntity
  8
OBJECT
  6
Continuous
 48
100.0
100
AcDbLine
 10
5675.017116805451
 20
159.4941334286886
 30
0.0
 11
5675.018280202902
 21
659.4941334395152
 31
0.0
  0
LINE
  5
27D5
330
27C8
100
AcDbEntity
  8
OBJECT
  6
Continuous
 48
100.0
100
AcDbLine
 10
6575.01711678598
 20
159.4857569670603
 30
0.0
 11
6575.018280183432
 21
659.4857569778869
 31
0.0
  0
LINE
  5
27D6
330
27C8
100
AcDbEntity
  8
OBJECT
  6
Continuous
 48
100.0
100
AcDbLine
 10
6075.017116796807
 20
159.490410556853
 30
0.0
 11
6075.018280194257
 21
659.4904105676796
 31
0.0
  0
LINE
  5
27D7
330
27C8
100
AcDbEntity
  8
OBJECT
  6
Continuous
 48
100.0
100
AcDbLine
 10
6975.017116777308
 20
159.4820340952283
 30
0.0
 11
6975.018280174758
 21
659.4820341060549
 31
0.0
  0
LINE
  5
27D8
330
27C8
100
AcDbEntity
  8
OBJECT
  6
Continuous
 48
100.0
100
AcDbLine
 10
7475.004949620867
 20
159.490410556853
 30
0.0
 11
7475.003786223417
 21
659.4904105676796
 31
0.0
  0
LINE
  5
27D9
330
27C8
100
AcDbEntity
  8
OBJECT
  6
Continuous
 48
100.0
100
AcDbLine
 10
7875.004949612223
 20
159.4941334286886
 30
0.0
 11
7875.003786214773
 21
659.4941334395152
 31
0.0
  0
LINE
  5
27DA
330
27C8
100
AcDbEntity
  8
OBJECT
  6
Continuous
 48
100.0
100
AcDbLine
 10
5575.016325697362
 20
59.49506414967982
 30
0.0
 11
7075.016325664882
 21
59.48110338029801
 31
0.0
  0
LINE
  5
27DB
330
27C8
100
AcDbEntity
  8
OBJECT
  6
Continuous
 48
100.0
100
AcDbLine
 10
5575.016558376868
 20
159.4950641518444
 30
0.0
 11
7975.005508092785
 21
159.4727270236871
 31
0.0
  0
LINE
  5
27DC
330
27C8
100
AcDbEntity
  8
OBJECT
  6
Continuous
 48
100.0
100
AcDbLine
 10
5575.01632569739
 20
59.49506414967982
 30
0.0
 11
5575.016558376898
 21
159.4950641518444
 31
0.0
  0
LINE
  5
27DD
330
27C8
100
AcDbEntity
  8
OBJECT
  6
Continuous
 48
100.0
100
AcDbLine
 10
7975.005740720284
 20
59.49506414967982
 30
0.0
 11
7975.005508040776
 21
159.4950641518444
 31
0.0
  0
LINE
  5
27DE
330
27C8
100
AcDbEntity
  8
OBJECT
  6
Continuous
 48
100.0
100
AcDbLine
 10
7075.016325664882
 20
59.48110338029801
 30
0.0
 11
7975.005740720284
 21
59.49506414967982
 31
0.0
  0
LINE
  5
27DF
330
27C8
100
AcDbEntity
  8
OBJECT
  6
Continuous
 48
100.0
100
AcDbLine
 10
5635.018280205608
 20
659.4945057266995
 30
0.0
 11
6115.018254943134
 21
659.4900382807318
 31
0.0
  0
LINE
  5
27E0
330
27C8
100
AcDbEntity
  8
OBJECT
  6
Continuous
 48
100.0
100
AcDbLine
 10
6535.01829069038
 20
659.486129264973
 30
0.0
 11
7015.018280174001
 21
659.4816618188706
 31
0.0
  0
LINE
  5
27E1
330
27C8
100
AcDbEntity
  8
OBJECT
  6
Continuous
 48
100.0
100
AcDbLine
 10
7915.003786212067
 20
659.4945057266995
 30
0.0
 11
7435.00381147454
 21
659.4900382807318
 31
0.0
  0
ENDBLK
  5
27E3
330
27C8
100
AcDbEntity
  8
0
 48
100.0
100
AcDbBlockEnd
  0
BLOCK
  5
2CFF
330
2CCB
100
AcDbEntity
  8
0
 48
100.0
100
AcDbBlockBegin
  2
A$C4BF50593
 70
     0
 10
0.0
 20
0.0
 30
0.0
  3
A$C4BF50593
  1

  0
ARC
  5
2CCC
330
2CCB
100
AcDbEntity
  8
OBJECT
  6
Continuous
 48
100.0
100
AcDbCircle
 10
589.9999683977512
 20
105.0008501798902
 30
0.0
 40
60.0
100
AcDbArc
 50
359.9997333689452
 51
89.99999999999968
  0
ARC
  5
2CCD
330
2CCB
100
AcDbEntity
  8
OBJECT
  6
Continuous
 48
100.0
100
AcDbCircle
 10
589.9999683977512
 20
275.0008501798893
 30
0.0
 40
60.0
100
AcDbArc
 50
270.0
 51
0.0002666310544806
  0
LINE
  5
2CCE
330
2CCB
100
AcDbEntity
  8
OBJECT
  6
Continuous
 48
100.0
100
AcDbLine
 10
219.7434599662083
 20
313.3304052438871
 30
0.0
 11
324.9986317902803
 21
313.3315995122448
 31
0.0
  0
LINE
  5
2CCF
330
2CCB
100
AcDbEntity
  8
OBJECT
  6
Continuous
 48
100.0
100
AcDbLine
 10
430.2552804450678
 20
313.3358023441224
 30
0.0
 11
325.0001086982083
 21
313.3315995501089
 31
0.0
  0
LINE
  5
2CD0
330
2CCB
100
AcDbEntity
  8
OBJECT
  6
Continuous
 48
100.0
100
AcDbLine
 10
324.9999683977512
 20
190.000850179892
 30
0.0
 11
-0.0000316022487823
 21
190.0008501798929
 31
0.0
  0
ARC
  5
2CD1
330
2CCB
100
AcDbEntity
  8
OBJECT
  6
Continuous
 48
100.0
100
AcDbCircle
 10
-0.0000316016376019
 20
165.0005709644965
 30
0.0
 40
60.0
100
AcDbArc
 50
270.0000000000277
 51
0.0002666310822405
  0
ARC
  5
2CD2
330
2CCB
100
AcDbEntity
  8
OBJECT
  6
Continuous
 48
100.0
100
AcDbCircle
 10
59.99996839775121
 20
105.0008501798938
 30
0.0
 40
60.0
100
AcDbArc
 50
89.99999999999968
 51
180.0002666310541
  0
LINE
  5
2CD3
330
2CCB
100
AcDbEntity
  8
OBJECT
  6
Continuous
 48
100.0
100
AcDbLine
 10
-0.0000316022487823
 20
105.0008501798938
 30
0.0
 11
324.9999683977512
 21
105.0008501798911
 31
0.0
  0
LINE
  5
2CD4
330
2CCB
100
AcDbEntity
  8
OBJECT
  6
Continuous
 48
100.0
100
AcDbLine
 10
-0.0000316022487823
 20
90.00085017989386
 30
0.0
 11
324.9999683977512
 21
90.00085017989112
 31
0.0
  0
LINE
  5
2CD5
330
2CCB
100
AcDbEntity
  8
OBJECT
  6
Continuous
 48
100.0
100
AcDbLine
 10
-0.0000316022487823
 20
290.0008501798893
 30
0.0
 11
324.9999683977512
 21
290.0008501798902
 31
0.0
  0
LINE
  5
2CD6
330
2CCB
100
AcDbEntity
  8
OBJECT
  6
Continuous
 48
100.0
100
AcDbLine
 10
-0.0000316022487823
 20
275.0008501798893
 30
0.0
 11
324.9999683977512
 21
275.0008501798902
 31
0.0
  0
ARC
  5
2CD7
330
2CCB
100
AcDbEntity
  8
OBJECT
  6
Continuous
 48
100.0
100
AcDbCircle
 10
59.99996839775121
 20
275.0008501798893
 30
0.0
 40
60.0
100
AcDbArc
 50
179.9997333689455
 51
270.0
  0
ARC
  5
2CD8
330
2CCB
100
AcDbEntity
  8
OBJECT
  6
Continuous
 48
100.0
100
AcDbCircle
 10
-0.0000316016376019
 20
215.0011293952866
 30
0.0
 40
60.0
100
AcDbArc
 50
359.9997333689175
 51
89.99999999997196
  0
ARC
  5
2CD9
330
2CCB
100
AcDbEntity
  8
OBJECT
  6
Continuous
 48
100.0
100
AcDbCircle
 10
192.4999683977512
 20
190.0008501798902
 30
0.0
 40
25.0
100
AcDbArc
 50
270.0000000000003
 51
0.0000000000003378
  0
ARC
  5
2CDA
330
2CCB
100
AcDbEntity
  8
OBJECT
  6
Continuous
 48
100.0
100
AcDbCircle
 10
192.4999683977512
 20
190.0008501798884
 30
0.0
 40
25.0
100
AcDbArc
 50
0.000000000000007
 51
90.0
  0
ARC
  5
2CDB
330
2CCB
100
AcDbEntity
  8
OBJECT
  6
Continuous
 48
100.0
100
AcDbCircle
 10
457.4999683977511
 20
190.0008501798884
 30
0.0
 40
25.0
100
AcDbArc
 50
90.0
 51
180.0
  0
ARC
  5
2CDC
330
2CCB
100
AcDbEntity
  8
OBJECT
  6
Continuous
 48
100.0
100
AcDbCircle
 10
457.4999683977511
 20
190.0008501798902
 30
0.0
 40
25.0
100
AcDbArc
 50
179.9999999999996
 51
269.9999999999997
  0
LINE
  5
2CDD
330
2CCB
100
AcDbEntity
  8
OBJECT
  6
Continuous
 48
100.0
100
AcDbLine
 10
324.9999683977512
 20
90.00085017989205
 30
0.0
 11
324.9999683977512
 21
190.000850179892
 31
0.0
  0
LINE
  5
2CDE
330
2CCB
100
AcDbEntity
  8
OBJECT
  6
Continuous
 48
100.0
100
AcDbLine
 10
649.9999683977512
 20
90.00085017989022
 30
0.0
 11
649.9999683977512
 21
105.0008501798902
 31
0.0
  0
ARC
  5
2CDF
330
2CCB
100
AcDbEntity
  8
OBJECT
  6
Continuous
 48
100.0
100
AcDbCircle
 10
649.99996839714
 20
165.0005709644929
 30
0.0
 40
60.0
100
AcDbArc
 50
179.9997333689171
 51
269.9999999999716
  0
ARC
  5
2CE0
330
2CCB
100
AcDbEntity
  8
OBJECT
  6
Continuous
 48
100.0
100
AcDbCircle
 10
409.9999683971109
 20
105.0008501798911
 30
0.0
 40
60.0
100
AcDbArc
 50
89.99999999999968
 51
180.0002666310541
  0
LINE
  5
2CE1
330
2CCB
100
AcDbEntity
  8
OBJECT
  6
Continuous
 48
100.0
100
AcDbLine
 10
649.9999683977512
 20
90.00085017989022
 30
0.0
 11
324.9999683977512
 21
90.00085017989112
 31
0.0
  0
LINE
  5
2CE2
330
2CCB
100
AcDbEntity
  8
OBJECT
  6
Continuous
 48
100.0
100
AcDbLine
 10
649.9999683977512
 20
105.0008501798902
 30
0.0
 11
324.9999683977512
 21
105.0008501798911
 31
0.0
  0
LINE
  5
2CE3
330
2CCB
100
AcDbEntity
  8
OBJECT
  6
Continuous
 48
100.0
100
AcDbLine
 10
589.9999683977512
 20
165.0008501798902
 30
0.0
 11
324.9999683977221
 21
165.000850179892
 31
0.0
  0
ARC
  5
2CE4
330
2CCB
100
AcDbEntity
  8
OBJECT
  6
Continuous
 48
100.0
100
AcDbCircle
 10
239.9999683983915
 20
105.000850179892
 30
0.0
 40
60.0
100
AcDbArc
 50
359.9997333689452
 51
89.99999999999968
  0
LINE
  5
2CE5
330
2CCB
100
AcDbEntity
  8
OBJECT
  6
Continuous
 48
100.0
100
AcDbLine
 10
59.99996839775121
 20
165.0008501798938
 30
0.0
 11
324.9999683977803
 21
165.000850179892
 31
0.0
  0
LINE
  5
2CE6
330
2CCB
100
AcDbEntity
  8
OBJECT
  6
Continuous
 48
100.0
100
AcDbLine
 10
59.99996839775121
 20
215.0008501798893
 30
0.0
 11
324.9999683977803
 21
215.0008501798893
 31
0.0
  0
ARC
  5
2CE7
330
2CCB
100
AcDbEntity
  8
OBJECT
  6
Continuous
 48
100.0
100
AcDbCircle
 10
239.9999683983915
 20
275.0008501798893
 30
0.0
 40
60.0
100
AcDbArc
 50
270.0
 51
0.0002666310544806
  0
LINE
  5
2CE8
330
2CCB
100
AcDbEntity
  8
OBJECT
  6
Continuous
 48
100.0
100
AcDbLine
 10
649.9999683977512
 20
190.0008501798893
 30
0.0
 11
324.9999683977512
 21
190.0008501798902
 31
0.0
  0
LINE
  5
2CE9
330
2CCB
100
AcDbEntity
  8
OBJECT
  6
Continuous
 48
100.0
100
AcDbLine
 10
589.9999683977512
 20
215.0008501798893
 30
0.0
 11
324.9999683977221
 21
215.0008501798893
 31
0.0
  0
LINE
  5
2CEA
330
2CCB
100
AcDbEntity
  8
OBJECT
  6
Continuous
 48
100.0
100
AcDbLine
 10
649.9999683977512
 20
275.0008501798893
 30
0.0
 11
324.9999683977512
 21
275.0008501798902
 31
0.0
  0
LINE
  5
2CEB
330
2CCB
100
AcDbEntity
  8
OBJECT
  6
Continuous
 48
100.0
100
AcDbLine
 10
649.9999683977512
 20
290.0008501798893
 30
0.0
 11
324.9999683977512
 21
290.0008501798902
 31
0.0
  0
ARC
  5
2CEC
330
2CCB
100
AcDbEntity
  8
OBJECT
  6
Continuous
 48
100.0
100
AcDbCircle
 10
409.9999683971109
 20
275.0008501798893
 30
0.0
 40
60.0
100
AcDbArc
 50
179.9997333689455
 51
270.0
  0
ARC
  5
2CED
330
2CCB
100
AcDbEntity
  8
OBJECT
  6
Continuous
 48
100.0
100
AcDbCircle
 10
649.99996839714
 20
215.0011293952866
 30
0.0
 40
60.0
100
AcDbArc
 50
90.00000000002804
 51
180.0002666310825
  0
LINE
  5
2CEE
330
2CCB
100
AcDbEntity
  8
OBJECT
  6
Continuous
 48
100.0
100
AcDbLine
 10
649.9999683977512
 20
290.0008501798893
 30
0.0
 11
649.9999683977512
 21
275.0008501798893
 31
0.0
  0
LINE
  5
2CEF
330
2CCB
100
AcDbEntity
  8
OBJECT
  6
Continuous
 48
100.0
100
AcDbLine
 10
324.9999683977512
 20
290.0008501798893
 30
0.0
 11
324.9999683977512
 21
190.0008501798893
 31
0.0
  0
LINE
  5
2CF0
330
2CCB
100
AcDbEntity
  8
OBJECT
  6
Continuous
 48
100.0
100
AcDbLine
 10
-0.0000316022487823
 20
90.00085017989386
 30
0.0
 11
-0.0000316022487823
 21
105.0008501798938
 31
0.0
  0
LINE
  5
2CF1
330
2CCB
100
AcDbEntity
  8
OBJECT
  6
Continuous
 48
100.0
100
AcDbLine
 10
-0.0000316022487823
 20
290.0008501798893
 30
0.0
 11
-0.0000316022487823
 21
275.0008501798893
 31
0.0
  0
LINE
  5
2CF2
330
2CCB
100
AcDbEntity
  8
OBJECT
  6
Continuous
 48
100.0
100
AcDbLine
 10
425.000742015778
 20
89.99995539028896
 30
0.0
 11
425.0012773937196
 21
50.00351956320082
 31
0.0
  0
LINE
  5
2CF3
330
2CCB
100
AcDbEntity
  8
OBJECT
  6
Continuous
 48
100.0
100
AcDbLine
 10
224.9977040878439
 20
50.00084238721592
 30
0.0
 11
224.9980619662965
 21
89.9976860731722
 31
0.0
  0
LINE
  5
2CF4
330
2CCB
100
AcDbEntity
  8
OBJECT
  6
Continuous
 48
100.0
100
AcDbLine
 10
244.9986026129918
 20
44.71668512806263
 30
0.0
 11
404.998602611362
 21
44.71731257426199
 31
0.0
  0
LINE
  5
2CF5
330
2CCB
100
AcDbEntity
  8
OBJECT
  6
Continuous
 48
100.0
100
AcDbLine
 10
424.9977040699159
 20
50.00351951536959
 30
0.0
 11
324.9977040789381
 21
50.00218095128821
 31
0.0
  0
LINE
  5
2CF6
330
2CCB
100
AcDbEntity
  8
OBJECT
  6
Continuous
 48
100.0
100
AcDbLine
 10
224.9977040878439
 20
50.00084238721592
 30
0.0
 11
324.9977040789381
 21
50.00218095128821
 31
0.0
  0
LINE
  5
2CF7
330
2CCB
100
AcDbEntity
  8
OBJECT
  6
Continuous
 48
100.0
100
AcDbLine
 10
244.9979717988754
 20
30.00111010182172
 30
0.0
 11
244.9977040860395
 21
50.00111010003092
 31
0.0
  0
LINE
  5
2CF8
330
2CCB
100
AcDbEntity
  8
OBJECT
  6
Continuous
 48
100.0
100
AcDbLine
 10
404.9986410843848
 20
30.00126434774756
 30
0.0
 11
404.9985887920192
 21
50.0032518143953
 31
0.0
  0
LINE
  5
2CF9
330
2CCB
100
AcDbEntity
  8
OBJECT
  6
Continuous
 48
100.0
100
AcDbLine
 10
244.9986410860147
 20
30.0006369015473
 30
0.0
 11
244.9986026129918
 21
44.71668512806263
 31
0.0
  0
LINE
  5
2CFA
330
2CCB
100
AcDbEntity
  8
OBJECT
  6
Continuous
 48
100.0
100
AcDbLine
 10
404.9986410843848
 20
30.00126434774756
 30
0.0
 11
244.9979718255054
 21
29.99912263610077
 31
0.0
  0
LINE
  5
2CFB
330
2CCB
100
AcDbEntity
  8
OBJECT
  6
Continuous
 48
100.0
100
AcDbLine
 10
424.9986052560561
 20
30.00045493184189
 30
0.0
 11
324.9986052564054
 21
30.00019349592367
 31
0.0
  0
LINE
  5
2CFC
330
2CCB
100
AcDbEntity
  8
OBJECT
  6
Continuous
 48
100.0
100
AcDbLine
 10
424.9986836868047
 20
0.0004549319437501
 30
0.0
 11
424.9986052560561
 21
30.00045493184189
 31
0.0
  0
LINE
  5
2CFD
330
2CCB
100
AcDbEntity
  8
OBJECT
  6
Continuous
 48
100.0
100
AcDbLine
 10
224.9986052567256
 20
29.99993206000545
 30
0.0
 11
324.9986052563763
 21
30.00019349592367
 31
0.0
  0
LINE
  5
2CFE
330
2CCB
100
AcDbEntity
  8
OBJECT
  6
Continuous
 48
100.0
100
AcDbLine
 10
224.9986836875032
 20
-0.0000679398926877
 30
0.0
 11
224.9986052567256
 21
29.99993206000545
 31
0.0
  0
ENDBLK
  5
2D00
330
2CCB
100
AcDbEntity
  8
0
 48
100.0
100
AcDbBlockEnd
  0
BLOCK
  5
3644
330
3640
100
AcDbEntity
  8
0
 48
100.0
100
AcDbBlockBegin
  2
A$C28EC78B4
 70
     0
 10
0.0
 20
0.0
 30
0.0
  3
A$C28EC78B4
  1

  0
LINE
  5
3641
330
3640
100
AcDbEntity
  8
OBJECT
  6
Continuous
 48
100.0
100
AcDbLine
 10
732.6830583658593
 20
2177.829140676978
 30
0.0
 11
0.0001549859589431
 21
86.14009957257804
 31
0.0
  0
ELLIPSE
  5
3642
330
3640
100
AcDbEntity
  8
OBJECT
  6
Continuous
 48
100.0
100
AcDbEllipse
 10
485.5225284032058
 20
1188.777294585619
 30
0.0
 11
98.43342235338058
 21
614.7126013467931
 31
0.0
210
0.0
220
0.0
230
0.9999999999999998
 40
0.6542229815766692
 41
5.269556325976404
 42
10.71297689417543
  0
SPLINE
  5
3643
330
3640
100
AcDbEntity
  8
OBJECT
  6
Continuous
 48
100.0
100
AcDbSpline
210
0.0
220
0.0
230
1.0
 70
     8
 71
     3
 72
    10
 73
     6
 74
     4
 42
0.0000000001
 43
0.0000000001
 44
0.0000000001
 40
0.0
 40
0.0
 40
0.0
 40
0.0
 40
335.4988168541603
 40
782.1635305551902
 40
1425.580901073073
 40
1425.580901073073
 40
1425.580901073073
 40
1425.580901073073
 10
0.0001549859589431
 20
86.14009957257804
 30
0.0
 10
101.7837387207895
 20
172.3370406893308
 30
0.0
 10
339.0764002958125
 20
373.2918590076451
 30
0.0
 10
684.5083623943126
 20
-268.047310672002
 30
0.0
 10
1000.019307817392
 20
97.17087119557467
 30
0.0
 10
1186.24860725514
 20
312.739703712381
 30
0.0
 11
0.0001549859589431
 21
86.14009957257804
 31
0.0
 11
296.5624202112376
 21
243.0167356755774
 31
0.0
 11
645.4588090085599
 21
-35.87513647169544
 31
0.0
 11
1186.24860725514
 21
312.739703712381
 31
0.0
  0
ENDBLK
  5
3645
330
3640
100
AcDbEntity
  8
0
 48
100.0
100
AcDbBlockEnd
  0
BLOCK
  5
364B
330
3647
100
AcDbEntity
  8
0
 48
100.0
100
AcDbBlockBegin
  2
A$C56EF0BF5
 70
     0
 10
0.0
 20
0.0
 30
0.0
  3
A$C56EF0BF5
  1

  0
ARC
  5
3648
330
3647
100
AcDbEntity
  8
OBJECT
100
AcDbCircle
 10
-0.0000280140666291
 20
299.9999640951864
 30
0.0
 40
300.0
100
AcDbArc
 50
270.0
 51
90.0
  0
ARC
  5
3649
330
3647
100
AcDbEntity
  8
OBJECT
100
AcDbCircle
 10
599.9999719859333
 20
299.9999640951864
 30
0.0
 40
300.0
100
AcDbArc
 50
90.0
 51
270.0
  0
CIRCLE
  5
364A
330
3647
100
AcDbEntity
  8
OBJECT
100
AcDbCircle
 10
299.9999719859334
 20
299.9999640951864
 30
0.0
 40
300.0
  0
ENDBLK
  5
364C
330
3647
100
AcDbEntity
  8
0
 48
100.0
100
AcDbBlockEnd
  0
BLOCK
  5
4111
330
4107
100
AcDbEntity
  8
0
 48
100.0
100
AcDbBlockBegin
  2
L75X6
 70
     0
 10
0.0
 20
0.0
 30
0.0
  3
L75X6
  1

  0
LINE
  5
4108
330
4107
100
AcDbEntity
  8
0
100
AcDbLine
 10
0.0
 20
75.0
 30
0.0
 11
2.0
 21
75.0
 31
0.0
  0
LINE
  5
4109
330
4107
100
AcDbEntity
  8
0
100
AcDbLine
 10
0.0
 20
0.0
 30
0.0
 11
75.0
 21
0.0
 31
0.0
  0
LINE
  5
410A
330
4107
100
AcDbEntity
  8
0
100
AcDbLine
 10
0.0
 20
0.0
 30
0.0
 11
0.0
 21
75.0
 31
0.0
  0
LINE
  5
410B
330
4107
100
AcDbEntity
  8
0
100
AcDbLine
 10
75.0
 20
0.0
 30
0.0
 11
75.0
 21
2.0
 31
0.0
  0
LINE
  5
410C
330
4107
100
AcDbEntity
  8
0
100
AcDbLine
 10
14.5
 20
6.0
 30
0.0
 11
71.0
 21
6.0
 31
0.0
  0
LINE
  5
410D
330
4107
100
AcDbEntity
  8
0
100
AcDbLine
 10
6.0
 20
14.5
 30
0.0
 11
6.0
 21
71.0
 31
0.0
  0
ARC
  5
410E
330
4107
100
AcDbEntity
  8
0
100
AcDbCircle
 10
2.0
 20
71.0
 30
0.0
 40
4.0
100
AcDbArc
 50
0.0
 51
90.0
  0
ARC
  5
410F
330
4107
100
AcDbEntity
  8
0
100
AcDbCircle
 10
71.0
 20
2.0
 30
0.0
 40
4.0
100
AcDbArc
 50
0.0
 51
90.0
  0
ARC
  5
4110
330
4107
100
AcDbEntity
  8
0
100
AcDbCircle
 10
14.5
 20
14.5
 30
0.0
 40
8.5
100
AcDbArc
 50
180.0
 51
270.0
  0
ENDBLK
  5
4112
330
4107
100
AcDbEntity
  8
0
 48
100.0
100
AcDbBlockEnd
  0
BLOCK
  5
411E
330
4114
100
AcDbEntity
  8
0
 48
100.0
100
AcDbBlockBegin
  2
L100X10
 70
     0
 10
0.0
 20
0.0
 30
0.0
  3
L100X10
  1

  0
LINE
  5
4115
330
4114
100
AcDbEntity
  8
0
100
AcDbLine
 10
0.0
 20
100.0
 30
0.0
 11
3.0
 21
100.0
 31
0.0
  0
LINE
  5
4116
330
4114
100
AcDbEntity
  8
0
100
AcDbLine
 10
0.0
 20
0.0
 30
0.0
 11
100.0
 21
0.0
 31
0.0
  0
LINE
  5
4117
330
4114
100
AcDbEntity
  8
0
100
AcDbLine
 10
0.0
 20
0.0
 30
0.0
 11
0.0
 21
100.0
 31
0.0
  0
LINE
  5
4118
330
4114
100
AcDbEntity
  8
0
100
AcDbLine
 10
100.0
 20
0.0
 30
0.0
 11
100.0
 21
3.0
 31
0.0
  0
LINE
  5
4119
330
4114
100
AcDbEntity
  8
0
100
AcDbLine
 10
20.0
 20
10.0
 30
0.0
 11
93.0
 21
10.0
 31
0.0
  0
LINE
  5
411A
330
4114
100
AcDbEntity
  8
0
100
AcDbLine
 10
10.0
 20
20.0
 30
0.0
 11
10.0
 21
93.0
 31
0.0
  0
ARC
  5
411B
330
4114
100
AcDbEntity
  8
0
100
AcDbCircle
 10
20.0
 20
20.0
 30
0.0
 40
10.0
100
AcDbArc
 50
180.0
 51
270.0
  0
ARC
  5
411C
330
4114
100
AcDbEntity
  8
0
100
AcDbCircle
 10
3.0
 20
93.0
 30
0.0
 40
7.0
100
AcDbArc
 50
0.0
 51
90.0
  0
ARC
  5
411D
330
4114
100
AcDbEntity
  8
0
100
AcDbCircle
 10
93.0
 20
3.0
 30
0.0
 40
7.0
100
AcDbArc
 50
0.0
 51
90.0
  0
ENDBLK
  5
411F
330
4114
100
AcDbEntity
  8
0
 48
100.0
100
AcDbBlockEnd
  0
BLOCK
  5
46D8
330
46CE
100
AcDbEntity
  8
0
 48
100.0
100
AcDbBlockBegin
  2
L150X12
 70
     0
 10
0.0
 20
0.0
 30
0.0
  3
L150X12
  1

  0
LINE
  5
46CF
330
46CE
100
AcDbEntity
  8
0
100
AcDbLine
 10
0.0
 20
150.0
 30
0.0
 11
5.0
 21
150.0
 31
0.0
  0
LINE
  5
46D0
330
46CE
100
AcDbEntity
  8
0
100
AcDbLine
 10
0.0
 20
0.0
 30
0.0
 11
150.0
 21
0.0
 31
0.0
  0
LINE
  5
46D1
330
46CE
100
AcDbEntity
  8
0
100
AcDbLine
 10
0.0
 20
0.0
 30
0.0
 11
0.0
 21
150.0
 31
0.0
  0
LINE
  5
46D2
330
46CE
100
AcDbEntity
  8
0
100
AcDbLine
 10
150.0
 20
0.0
 30
0.0
 11
150.0
 21
5.0
 31
0.0
  0
LINE
  5
46D3
330
46CE
100
AcDbEntity
  8
0
100
AcDbLine
 10
26.0
 20
12.0
 30
0.0
 11
143.0
 21
12.0
 31
0.0
  0
LINE
  5
46D4
330
46CE
100
AcDbEntity
  8
0
100
AcDbLine
 10
12.0
 20
26.0
 30
0.0
 11
12.0
 21
143.0
 31
0.0
  0
ARC
  5
46D5
330
46CE
100
AcDbEntity
  8
0
100
AcDbCircle
 10
26.0
 20
26.0
 30
0.0
 40
14.0
100
AcDbArc
 50
180.0
 51
270.0
  0
ARC
  5
46D6
330
46CE
100
AcDbEntity
  8
0
100
AcDbCircle
 10
5.0
 20
143.0
 30
0.0
 40
7.0
100
AcDbArc
 50
0.0
 51
90.0
  0
ARC
  5
46D7
330
46CE
100
AcDbEntity
  8
0
100
AcDbCircle
 10
143.0
 20
5.0
 30
0.0
 40
7.0
100
AcDbArc
 50
0.0
 51
90.0
  0
ENDBLK
  5
46D9
330
46CE
100
AcDbEntity
  8
0
 48
100.0
100
AcDbBlockEnd
  0
BLOCK
  5
4E96
330
4E8C
100
AcDbEntity
  8
0
 48
100.0
100
AcDbBlockBegin
  2
L100X7
 70
     0
 10
0.0
 20
0.0
 30
0.0
  3
L100X7
  1

  0
LINE
  5
4E8D
330
4E8C
100
AcDbEntity
  8
0
100
AcDbLine
 10
0.0
 20
100.0
 30
0.0
 11
2.0
 21
100.0
 31
0.0
  0
LINE
  5
4E8E
330
4E8C
100
AcDbEntity
  8
0
100
AcDbLine
 10
0.0
 20
0.0
 30
0.0
 11
100.0
 21
0.0
 31
0.0
  0
LINE
  5
4E8F
330
4E8C
100
AcDbEntity
  8
0
100
AcDbLine
 10
0.0
 20
0.0
 30
0.0
 11
0.0
 21
100.0
 31
0.0
  0
LINE
  5
4E90
330
4E8C
100
AcDbEntity
  8
0
100
AcDbLine
 10
100.0
 20
0.0
 30
0.0
 11
100.0
 21
2.0
 31
0.0
  0
LINE
  5
4E91
330
4E8C
100
AcDbEntity
  8
0
100
AcDbLine
 10
17.0
 20
7.0
 30
0.0
 11
95.0
 21
7.0
 31
0.0
  0
LINE
  5
4E92
330
4E8C
100
AcDbEntity
  8
0
100
AcDbLine
 10
7.0
 20
17.0
 30
0.0
 11
7.0
 21
95.0
 31
0.0
  0
ARC
  5
4E93
330
4E8C
100
AcDbEntity
  8
0
100
AcDbCircle
 10
17.0
 20
17.0
 30
0.0
 40
10.0
100
AcDbArc
 50
180.0
 51
270.0
  0
ARC
  5
4E94
330
4E8C
100
AcDbEntity
  8
0
100
AcDbCircle
 10
2.0
 20
95.0
 30
0.0
 40
5.0
100
AcDbArc
 50
0.0
 51
90.0
  0
ARC
  5
4E95
330
4E8C
100
AcDbEntity
  8
0
100
AcDbCircle
 10
95.0
 20
2.0
 30
0.0
 40
5.0
100
AcDbArc
 50
0.0
 51
90.0
  0
ENDBLK
  5
4E97
330
4E8C
100
AcDbEntity
  8
0
 48
100.0
100
AcDbBlockEnd
  0
BLOCK
  5
4FA7
330
4F9D
100
AcDbEntity
  8
0
 48
100.0
100
AcDbBlockBegin
  2
L130X9
 70
     0
 10
0.0
 20
0.0
 30
0.0
  3
L130X9
  1

  0
LINE
  5
4F9E
330
4F9D
100
AcDbEntity
  8
0
100
AcDbLine
 10
0.0
 20
130.0
 30
0.0
 11
3.0
 21
130.0
 31
0.0
  0
LINE
  5
4F9F
330
4F9D
100
AcDbEntity
  8
0
100
AcDbLine
 10
0.0
 20
0.0
 30
0.0
 11
130.0
 21
0.0
 31
0.0
  0
LINE
  5
4FA0
330
4F9D
100
AcDbEntity
  8
0
100
AcDbLine
 10
0.0
 20
0.0
 30
0.0
 11
0.0
 21
130.0
 31
0.0
  0
LINE
  5
4FA1
330
4F9D
100
AcDbEntity
  8
0
100
AcDbLine
 10
130.0
 20
0.0
 30
0.0
 11
130.0
 21
3.0
 31
0.0
  0
LINE
  5
4FA2
330
4F9D
100
AcDbEntity
  8
0
100
AcDbLine
 10
9.0
 20
21.0
 30
0.0
 11
9.0
 21
124.0
 31
0.0
  0
LINE
  5
4FA3
330
4F9D
100
AcDbEntity
  8
0
100
AcDbLine
 10
21.0
 20
9.0
 30
0.0
 11
124.0
 21
9.0
 31
0.0
  0
ARC
  5
4FA4
330
4F9D
100
AcDbEntity
  8
0
100
AcDbCircle
 10
3.0
 20
124.0
 30
0.0
 40
6.0
100
AcDbArc
 50
0.0
 51
90.0
  0
ARC
  5
4FA5
330
4F9D
100
AcDbEntity
  8
0
100
AcDbCircle
 10
124.0
 20
3.0
 30
0.0
 40
6.0
100
AcDbArc
 50
0.0
 51
90.0
  0
ARC
  5
4FA6
330
4F9D
100
AcDbEntity
  8
0
100
AcDbCircle
 10
21.0
 20
21.0
 30
0.0
 40
12.0
100
AcDbArc
 50
180.0
 51
270.0
  0
ENDBLK
  5
4FA8
330
4F9D
100
AcDbEntity
  8
0
 48
100.0
100
AcDbBlockEnd
  0
BLOCK
  5
5BF0
330
5BEA
100
AcDbEntity
  8
0
 48
100.0
100
AcDbBlockBegin
  2
*D10
 70
     1
 10
0.0
 20
0.0
 30
0.0
  3
*D10
  1

  0
LINE
  5
7365
330
5BEA
100
AcDbEntity
  8
DIM
  6
Continuous
 62
     0
 48
100.0
370
    -2
100
AcDbLine
 10
-23639.79969078787
 20
-8158.6238183611
 30
0.0
 11
-24236.51143685709
 21
-7535.854726238648
 31
0.0
  0
MTEXT
  5
7366
330
5BEA
100
AcDbEntity
  8
DIM
  6
Continuous
 62
     0
 48
100.0
370
     5
100
AcDbMText
 10
-23738.47747022427
 20
-7811.722073128395
 30
0.0
 40
150.0
 41
0.0
 71
     5
 72
     1
  1
\A1;R100
 11
0.6918397055875011
 21
-0.7220511213013936
 31
0.0
 73
     1
 44
1.0
  0
SOLID
  5
7367
330
5BEA
100
AcDbEntity
  8
DIM
  6
Continuous
 62
     0
 48
100.0
370
     5
100
AcDbTrace
 10
-24209.43451980829
 20
-7509.910737279117
 30
0.0
 11
-24263.58835390589
 21
-7561.798715198179
 31
0.0
 12
-24392.17537061427
 22
-7373.393223945834
 32
0.0
 13
-24392.17537061427
 23
-7373.393223945834
 33
0.0
  0
POINT
  5
7368
330
5BEA
100
AcDbEntity
  8
DEFPOINTS
  6
Continuous
 62
     0
 48
100.0
370
     5
100
AcDbPoint
 10
-24392.17537061427
 20
-7373.393223945834
 30
0.0
  0
POINT
  5
7369
330
5BEA
100
AcDbEntity
  8
DEFPOINTS
  6
Continuous
 62
     0
 48
100.0
370
     5
100
AcDbPoint
 10
-24322.99140005552
 20
-7445.598336075974
 30
0.0
  0
ENDBLK
  5
5BF1
330
5BEA
100
AcDbEntity
  8
0
 48
100.0
100
AcDbBlockEnd
  0
BLOCK
  5
6A87
330
6A7D
100
AcDbEntity
  8
0
 48
100.0
370
     5
100
AcDbBlockBegin
  2
*D11
 70
     1
 10
0.0
 20
0.0
 30
0.0
  3
*D11
  1

  0
LINE
  5
71B1
330
6A7D
100
AcDbEntity
  8
DIM
  6
Continuous
 62
     0
 48
100.0
370
    -2
100
AcDbLine
 10
-12521.26336663996
 20
-17808.18094990451
 30
0.0
 11
-10882.94819144072
 21
-17808.18094990451
 31
0.0
  0
LINE
  5
71B2
330
6A7D
100
AcDbEntity
  8
DIM
  6
Continuous
 62
     0
 48
100.0
370
    -2
100
AcDbLine
 10
-12521.32290890289
 20
-26808.18094969663
 30
0.0
 11
-10882.94819144072
 21
-26808.18094969663
 31
0.0
  0
LINE
  5
71B3
330
6A7D
100
AcDbEntity
  8
DIM
  6
Continuous
 62
     0
 48
100.0
370
    -2
100
AcDbLine
 10
-11070.44819144072
 20
-18183.18094990451
 30
0.0
 11
-11070.44819144072
 21
-26433.18094969663
 31
0.0
  0
SOLID
  5
71B4
330
6A7D
100
AcDbEntity
  8
DIM
  6
Continuous
 62
     0
 48
100.0
370
     5
100
AcDbTrace
 10
-11132.94819144072
 20
-18183.18094990451
 30
0.0
 11
-11007.94819144072
 21
-18183.18094990451
 31
0.0
 12
-11070.44819144072
 22
-17808.18094990451
 32
0.0
 13
-11070.44819144072
 23
-17808.18094990451
 33
0.0
  0
SOLID
  5
71B5
330
6A7D
100
AcDbEntity
  8
DIM
  6
Continuous
 62
     0
 48
100.0
370
     5
100
AcDbTrace
 10
-11132.94819144072
 20
-26433.18094969663
 30
0.0
 11
-11007.94819144072
 21
-26433.18094969663
 31
0.0
 12
-11070.44819144072
 22
-26808.18094969663
 32
0.0
 13
-11070.44819144072
 23
-26808.18094969663
 33
0.0
  0
MTEXT
  5
71B6
330
6A7D
100
AcDbEntity
  8
DIM
  6
Continuous
 62
     0
 48
100.0
370
     5
100
AcDbMText
 10
-11276.69819144072
 20
-22308.17685919846
 30
0.0
 40
225.0
 41
0.0
 71
     5
 72
     1
  1
\A1;9000
 11
0.0000000000000001
 21
1.0
 31
0.0
 73
     1
 44
1.0
  0
POINT
  5
71B7
330
6A7D
100
AcDbEntity
  8
DEFPOINTS
  6
Continuous
 62
     0
 48
100.0
370
     5
100
AcDbPoint
 10
-12821.26336663996
 20
-17808.18094990451
 30
0.0
  0
POINT
  5
71B8
330
6A7D
100
AcDbEntity
  8
DEFPOINTS
  6
Continuous
 62
     0
 48
100.0
370
     5
100
AcDbPoint
 10
-12821.32290890289
 20
-26808.18094969663
 30
0.0
  0
POINT
  5
71B9
330
6A7D
100
AcDbEntity
  8
DEFPOINTS
  6
Continuous
 62
     0
 48
100.0
370
     5
100
AcDbPoint
 10
-11070.44819144072
 20
-26808.18094969663
 30
0.0
  0
ENDBLK
  5
6A88
330
6A7D
100
AcDbEntity
  8
0
 48
100.0
370
     5
100
AcDbBlockEnd
  0
BLOCK
  5
6A94
330
6A8A
100
AcDbEntity
  8
0
 48
100.0
370
     5
100
AcDbBlockBegin
  2
*D12
 70
     1
 10
0.0
 20
0.0
 30
0.0
  3
*D12
  1

  0
LINE
  5
71A8
330
6A8A
100
AcDbEntity
  8
DIM
  6
Continuous
 62
     0
 48
100.0
370
    -2
100
AcDbLine
 10
-12321.32290891507
 20
-26608.18443988898
 30
0.0
 11
-12321.32290891507
 21
-28331.9216961675
 31
0.0
  0
LINE
  5
71A9
330
6A8A
100
AcDbEntity
  8
DIM
  6
Continuous
 62
     0
 48
100.0
370
    -2
100
AcDbLine
 10
-36321.32025313526
 20
-26545.49229125787
 30
0.0
 11
-36321.32025313526
 21
-28331.9216961675
 31
0.0
  0
LINE
  5
71AA
330
6A8A
100
AcDbEntity
  8
DIM
  6
Continuous
 62
     0
 48
100.0
370
    -2
100
AcDbLine
 10
-12696.32290891507
 20
-28144.4216961675
 30
0.0
 11
-35946.32025313526
 21
-28144.4216961675
 31
0.0
  0
SOLID
  5
71AB
330
6A8A
100
AcDbEntity
  8
DIM
  6
Continuous
 62
     0
 48
100.0
370
     5
100
AcDbTrace
 10
-12696.32290891507
 20
-28081.9216961675
 30
0.0
 11
-12696.32290891507
 21
-28206.9216961675
 31
0.0
 12
-12321.32290891507
 22
-28144.4216961675
 32
0.0
 13
-12321.32290891507
 23
-28144.4216961675
 33
0.0
  0
SOLID
  5
71AC
330
6A8A
100
AcDbEntity
  8
DIM
  6
Continuous
 62
     0
 48
100.0
370
     5
100
AcDbTrace
 10
-35946.32025313526
 20
-28081.9216961675
 30
0.0
 11
-35946.32025313526
 21
-28206.9216961675
 31
0.0
 12
-36321.32025313526
 22
-28144.4216961675
 32
0.0
 13
-36321.32025313526
 23
-28144.4216961675
 33
0.0
  0
MTEXT
  5
71AD
330
6A8A
100
AcDbEntity
  8
DIM
  6
Continuous
 62
     0
 48
100.0
370
     5
100
AcDbMText
 10
-24321.32158102517
 20
-27938.1716961675
 30
0.0
 40
225.0
 41
0.0
 71
     5
 72
     1
  1
\A1;24000
 73
     1
 44
1.0
  0
POINT
  5
71AE
330
6A8A
100
AcDbEntity
  8
DEFPOINTS
  6
Continuous
 62
     0
 48
100.0
370
     5
100
AcDbPoint
 10
-12321.32290891507
 20
-26308.18443988898
 30
0.0
  0
POINT
  5
71AF
330
6A8A
100
AcDbEntity
  8
DEFPOINTS
  6
Continuous
 62
     0
 48
100.0
370
     5
100
AcDbPoint
 10
-36321.32025313526
 20
-26245.49229125787
 30
0.0
  0
POINT
  5
71B0
330
6A8A
100
AcDbEntity
  8
DEFPOINTS
  6
Continuous
 62
     0
 48
100.0
370
     5
100
AcDbPoint
 10
-36321.32025313526
 20
-28144.4216961675
 30
0.0
  0
ENDBLK
  5
6A95
330
6A8A
100
AcDbEntity
  8
0
 48
100.0
370
     5
100
AcDbBlockEnd
  0
BLOCK
  5
6BE9
330
6BDF
100
AcDbEntity
  8
0
 48
100.0
370
     5
100
AcDbBlockBegin
  2
*D13
 70
     1
 10
0.0
 20
0.0
 30
0.0
  3
*D13
  1

  0
LINE
  5
7182
330
6BDF
100
AcDbEntity
  8
DIM
  6
Continuous
 62
     0
 48
100.0
370
    -2
100
AcDbLine
 10
-28356.47335588399
 20
-6924.304098923281
 30
0.0
 11
-28356.47335588399
 21
-6507.624651437189
 31
0.0
  0
LINE
  5
7183
330
6BDF
100
AcDbEntity
  8
DIM
  6
Continuous
 62
     0
 48
100.0
370
    -2
100
AcDbLine
 10
-20285.80013497905
 20
-6924.244389071012
 30
0.0
 11
-20285.80013497905
 21
-6507.624651437189
 31
0.0
  0
LINE
  5
7184
330
6BDF
100
AcDbEntity
  8
DIM
  6
Continuous
 62
     0
 48
100.0
370
    -2
100
AcDbLine
 10
-28131.47335588399
 20
-6695.124651437189
 30
0.0
 11
-20510.80013497905
 21
-6695.124651437189
 31
0.0
  0
SOLID
  5
7185
330
6BDF
100
AcDbEntity
  8
DIM
  6
Continuous
 62
     0
 48
100.0
370
     5
100
AcDbTrace
 10
-28131.47335588399
 20
-6657.624651437188
 30
0.0
 11
-28131.47335588399
 21
-6732.624651437189
 31
0.0
 12
-28356.47335588399
 22
-6695.124651437189
 32
0.0
 13
-28356.47335588399
 23
-6695.124651437189
 33
0.0
  0
SOLID
  5
7186
330
6BDF
100
AcDbEntity
  8
DIM
  6
Continuous
 62
     0
 48
100.0
370
     5
100
AcDbTrace
 10
-20510.80013497905
 20
-6657.624651437188
 30
0.0
 11
-20510.80013497905
 21
-6732.624651437189
 31
0.0
 12
-20285.80013497905
 22
-6695.124651437189
 32
0.0
 13
-20285.80013497905
 23
-6695.124651437189
 33
0.0
  0
MTEXT
  5
7187
330
6BDF
100
AcDbEntity
  8
DIM
  6
Continuous
 62
     0
 48
100.0
370
     5
100
AcDbMText
 10
-24321.13674543152
 20
-6488.874651437189
 30
0.0
 40
225.0
 41
0.0
 71
     5
 72
     1
  1
\A1;8070
 73
     1
 44
1.0
  0
POINT
  5
7188
330
6BDF
100
AcDbEntity
  8
DEFPOINTS
  6
Continuous
 62
     0
 48
100.0
370
     5
100
AcDbPoint
 10
-28356.47335588399
 20
-7224.304098923281
 30
0.0
  0
POINT
  5
7189
330
6BDF
100
AcDbEntity
  8
DEFPOINTS
  6
Continuous
 62
     0
 48
100.0
370
     5
100
AcDbPoint
 10
-20285.80013497905
 20
-7224.244389071012
 30
0.0
  0
POINT
  5
718A
330
6BDF
100
AcDbEntity
  8
DEFPOINTS
  6
Continuous
 62
     0
 48
100.0
370
     5
100
AcDbPoint
 10
-20285.80013497905
 20
-6695.124651437189
 30
0.0
  0
ENDBLK
  5
6BEA
330
6BDF
100
AcDbEntity
  8
0
 48
100.0
370
     5
100
AcDbBlockEnd
  0
BLOCK
  5
6BF6
330
6BEC
100
AcDbEntity
  8
0
 48
100.0
370
     5
100
AcDbBlockBegin
  2
*D14
 70
     1
 10
0.0
 20
0.0
 30
0.0
  3
*D14
  1

  0
LINE
  5
71FD
330
6BEC
100
AcDbEntity
  8
DIM
  6
Continuous
 62
     0
 48
100.0
370
    -2
100
AcDbLine
 10
-28821.47708077317
 20
-9748.269688464732
 30
0.0
 11
-28821.47708077317
 21
-10385.36892462149
 31
0.0
  0
LINE
  5
71FE
330
6BEC
100
AcDbEntity
  8
DIM
  6
Continuous
 62
     0
 48
100.0
370
    -2
100
AcDbLine
 10
-19821.47708094491
 20
-9748.325290745711
 30
0.0
 11
-19821.47708094491
 21
-10385.36892462149
 31
0.0
  0
LINE
  5
71FF
330
6BEC
100
AcDbEntity
  8
DIM
  6
Continuous
 62
     0
 48
100.0
370
    -2
100
AcDbLine
 10
-28596.47708077318
 20
-10197.86892462149
 30
0.0
 11
-20046.47708094492
 21
-10197.86892462149
 31
0.0
  0
SOLID
  5
7200
330
6BEC
100
AcDbEntity
  8
DIM
  6
Continuous
 62
     0
 48
100.0
370
     5
100
AcDbTrace
 10
-28596.47708077318
 20
-10160.36892462149
 30
0.0
 11
-28596.47708077318
 21
-10235.36892462149
 31
0.0
 12
-28821.47708077317
 22
-10197.86892462149
 32
0.0
 13
-28821.47708077317
 23
-10197.86892462149
 33
0.0
  0
SOLID
  5
7201
330
6BEC
100
AcDbEntity
  8
DIM
  6
Continuous
 62
     0
 48
100.0
370
     5
100
AcDbTrace
 10
-20046.47708094492
 20
-10160.36892462149
 30
0.0
 11
-20046.47708094492
 21
-10235.36892462149
 31
0.0
 12
-19821.47708094491
 22
-10197.86892462149
 32
0.0
 13
-19821.47708094491
 23
-10197.86892462149
 33
0.0
  0
MTEXT
  5
7202
330
6BEC
100
AcDbEntity
  8
DIM
  6
Continuous
 62
     0
 48
100.0
370
     5
100
AcDbMText
 10
-24321.47708085905
 20
-9991.618924621491
 30
0.0
 40
225.0
 41
0.0
 71
     5
 72
     1
  1
\A1;9000
 73
     1
 44
1.0
  0
POINT
  5
7203
330
6BEC
100
AcDbEntity
  8
DEFPOINTS
  6
Continuous
 62
     0
 48
100.0
370
     5
100
AcDbPoint
 10
-28821.47708077317
 20
-9448.269688464732
 30
0.0
  0
POINT
  5
7204
330
6BEC
100
AcDbEntity
  8
DEFPOINTS
  6
Continuous
 62
     0
 48
100.0
370
     5
100
AcDbPoint
 10
-19821.47708094491
 20
-9448.325290745712
 30
0.0
  0
POINT
  5
7205
330
6BEC
100
AcDbEntity
  8
DEFPOINTS
  6
Continuous
 62
     0
 48
100.0
370
     5
100
AcDbPoint
 10
-19821.47708094491
 20
-10197.86892462149
 30
0.0
  0
ENDBLK
  5
6BF7
330
6BEC
100
AcDbEntity
  8
0
 48
100.0
370
     5
100
AcDbBlockEnd
  0
BLOCK
  5
6E8E
330
6E84
100
AcDbEntity
  8
0
 48
100.0
370
     5
100
AcDbBlockBegin
  2
*D15
 70
     1
 10
0.0
 20
0.0
 30
0.0
  3
*D15
  1

  0
LINE
  5
7194
330
6E84
100
AcDbEntity
  8
DIM
  6
Continuous
 62
     0
 48
100.0
370
    -2
100
AcDbLine
 10
-13521.5009072892
 20
-14813.60826210065
 30
0.0
 11
-10872.97940976044
 21
-14813.60826210065
 31
0.0
  0
LINE
  5
7195
330
6E84
100
AcDbEntity
  8
DIM
  6
Continuous
 62
     0
 48
100.0
370
    -2
100
AcDbLine
 10
-12511.63244580675
 20
-12813.58439864918
 30
0.0
 11
-10872.97940976044
 21
-12813.58439864918
 31
0.0
  0
LINE
  5
7196
330
6E84
100
AcDbEntity
  8
DIM
  6
Continuous
 62
     0
 48
100.0
370
    -2
100
AcDbLine
 10
-11060.47940976044
 20
-14588.60826210066
 30
0.0
 11
-11060.47940976044
 21
-13038.58439864919
 31
0.0
  0
SOLID
  5
7197
330
6E84
100
AcDbEntity
  8
DIM
  6
Continuous
 62
     0
 48
100.0
370
     5
100
AcDbTrace
 10
-11097.97940976045
 20
-14588.60826210066
 30
0.0
 11
-11022.97940976044
 21
-14588.60826210066
 31
0.0
 12
-11060.47940976044
 22
-14813.60826210065
 32
0.0
 13
-11060.47940976044
 23
-14813.60826210065
 33
0.0
  0
SOLID
  5
7198
330
6E84
100
AcDbEntity
  8
DIM
  6
Continuous
 62
     0
 48
100.0
370
     5
100
AcDbTrace
 10
-11097.97940976045
 20
-13038.58439864919
 30
0.0
 11
-11022.97940976044
 21
-13038.58439864919
 31
0.0
 12
-11060.47940976044
 22
-12813.58439864918
 32
0.0
 13
-11060.47940976044
 23
-12813.58439864918
 33
0.0
  0
MTEXT
  5
7199
330
6E84
100
AcDbEntity
  8
DIM
  6
Continuous
 62
     0
 48
100.0
370
     5
100
AcDbMText
 10
-11266.72940976044
 20
-13813.59633037492
 30
0.0
 40
225.0
 41
0.0
 71
     5
 72
     1
  1
\A1;2000
 11
0.0000000000000001
 21
1.0
 31
0.0
 73
     1
 44
1.0
  0
POINT
  5
719A
330
6E84
100
AcDbEntity
  8
DEFPOINTS
  6
Continuous
 62
     0
 48
100.0
370
     5
100
AcDbPoint
 10
-13821.5009072892
 20
-14813.60826210065
 30
0.0
  0
POINT
  5
719B
330
6E84
100
AcDbEntity
  8
DEFPOINTS
  6
Continuous
 62
     0
 48
100.0
370
     5
100
AcDbPoint
 10
-12811.63244580675
 20
-12813.58439864918
 30
0.0
  0
POINT
  5
719C
330
6E84
100
AcDbEntity
  8
DEFPOINTS
  6
Continuous
 62
     0
 48
100.0
370
     5
100
AcDbPoint
 10
-11060.47940976044
 20
-12813.58439864918
 30
0.0
  0
ENDBLK
  5
6E8F
330
6E84
100
AcDbEntity
  8
0
 48
100.0
370
     5
100
AcDbBlockEnd
  0
BLOCK
  5
6E9D
330
6E91
100
AcDbEntity
  8
0
 48
100.0
370
     5
100
AcDbBlockBegin
  2
*D16
 70
     1
 10
0.0
 20
0.0
 30
0.0
  3
*D16
  1

  0
LINE
  5
7417
330
6E91
100
AcDbEntity
  8
DIM
  6
Continuous
 62
     0
 48
100.0
370
    -2
100
AcDbLine
 10
-12511.6222865573
 20
-12813.60578665136
 30
0.0
 11
-10872.97940976044
 21
-12813.60578665136
 31
0.0
  0
LINE
  5
7418
330
6E91
100
AcDbEntity
  8
DIM
  6
Continuous
 62
     0
 48
100.0
370
    -2
100
AcDbLine
 10
-12021.50484384036
 20
-12713.58397288522
 30
0.0
 11
-10872.97940976044
 21
-12713.58397288522
 31
0.0
  0
LINE
  5
7419
330
6E91
100
AcDbEntity
  8
DIM
  6
Continuous
 62
     0
 48
100.0
370
    -2
100
AcDbLine
 10
-11060.47940976044
 20
-13038.60578665136
 30
0.0
 11
-11060.47940976044
 21
-13263.60578665136
 31
0.0
  0
LINE
  5
741A
330
6E91
100
AcDbEntity
  8
DIM
  6
Continuous
 62
     0
 48
100.0
370
    -2
100
AcDbLine
 10
-11060.47940976044
 20
-12488.58397288522
 30
0.0
 11
-11060.47940976044
 21
-11626.08397288522
 31
0.0
  0
LINE
  5
741B
330
6E91
100
AcDbEntity
  8
DIM
  6
Continuous
 62
     0
 48
100.0
370
    -2
100
AcDbLine
 10
-11060.47940976044
 20
-12813.60578665136
 30
0.0
 11
-11060.47940976044
 21
-12713.58397288522
 31
0.0
  0
SOLID
  5
741C
330
6E91
100
AcDbEntity
  8
DIM
  6
Continuous
 62
     0
 48
100.0
370
     5
100
AcDbTrace
 10
-11097.97940976045
 20
-13038.60578665136
 30
0.0
 11
-11022.97940976044
 21
-13038.60578665136
 31
0.0
 12
-11060.47940976044
 22
-12813.60578665136
 32
0.0
 13
-11060.47940976044
 23
-12813.60578665136
 33
0.0
  0
SOLID
  5
741D
330
6E91
100
AcDbEntity
  8
DIM
  6
Continuous
 62
     0
 48
100.0
370
     5
100
AcDbTrace
 10
-11097.97940976045
 20
-12488.58397288522
 30
0.0
 11
-11022.97940976044
 21
-12488.58397288522
 31
0.0
 12
-11060.47940976044
 22
-12713.58397288522
 32
0.0
 13
-11060.47940976044
 23
-12713.58397288522
 33
0.0
  0
MTEXT
  5
741E
330
6E91
100
AcDbEntity
  8
DIM
  6
Continuous
 62
     0
 48
100.0
370
     5
100
AcDbMText
 10
-11266.72940976044
 20
-11944.83397288523
 30
0.0
 40
225.0
 41
0.0
 71
     5
 72
     1
  1
\A1;100
 11
0.0000000000000001
 21
1.0
 31
0.0
 73
     1
 44
1.0
  0
POINT
  5
741F
330
6E91
100
AcDbEntity
  8
DEFPOINTS
  6
Continuous
 62
     0
 48
100.0
370
     5
100
AcDbPoint
 10
-12811.6222865573
 20
-12813.60578665136
 30
0.0
  0
POINT
  5
7420
330
6E91
100
AcDbEntity
  8
DEFPOINTS
  6
Continuous
 62
     0
 48
100.0
370
     5
100
AcDbPoint
 10
-12321.50484384036
 20
-12713.58397288522
 30
0.0
  0
POINT
  5
7421
330
6E91
100
AcDbEntity
  8
DEFPOINTS
  6
Continuous
 62
     0
 48
100.0
370
     5
100
AcDbPoint
 10
-11060.47940976044
 20
-12713.58397288522
 30
0.0
  0
ENDBLK
  5
6E9E
330
6E91
100
AcDbEntity
  8
0
 48
100.0
370
     5
100
AcDbBlockEnd
  0
BLOCK
  5
768C
330
7680
100
AcDbEntity
  8
0
 48
100.0
370
     5
100
AcDbBlockBegin
  2
*D17
 70
     1
 10
0.0
 20
0.0
 30
0.0
  3
*D17
  1

  0
LINE
  5
7681
330
7680
100
AcDbEntity
  8
DIM
  6
Continuous
 62
     0
 48
100.0
370
    -2
100
AcDbLine
 10
-12064.23309072558
 20
-14063.56801597885
 30
0.0
 11
-11678.24418747124
 21
-14063.56801597885
 31
0.0
  0
LINE
  5
7682
330
7680
100
AcDbEntity
  8
DIM
  6
Continuous
 62
     0
 48
100.0
370
    -2
100
AcDbLine
 10
-12064.23594350137
 20
-14813.56801597343
 30
0.0
 11
-11678.24418747124
 21
-14813.56801597343
 31
0.0
  0
LINE
  5
7683
330
7680
100
AcDbEntity
  8
DIM
  6
Continuous
 62
     0
 48
100.0
370
    -2
100
AcDbLine
 10
-11865.74418747124
 20
-13838.56801597885
 30
0.0
 11
-11865.74418747124
 21
-13613.56801597885
 31
0.0
  0
LINE
  5
7684
330
7680
100
AcDbEntity
  8
DIM
  6
Continuous
 62
     0
 48
100.0
370
    -2
100
AcDbLine
 10
-11865.74418747124
 20
-15038.56801597343
 30
0.0
 11
-11865.74418747124
 21
-15263.56801597343
 31
0.0
  0
LINE
  5
7685
330
7680
100
AcDbEntity
  8
DIM
  6
Continuous
 62
     0
 48
100.0
370
    -2
100
AcDbLine
 10
-11865.74418747124
 20
-14063.56801597885
 30
0.0
 11
-11865.74418747124
 21
-14813.56801597343
 31
0.0
  0
SOLID
  5
7686
330
7680
100
AcDbEntity
  8
DIM
  6
Continuous
 62
     0
 48
100.0
370
     5
100
AcDbTrace
 10
-11903.24418747124
 20
-13838.56801597885
 30
0.0
 11
-11828.24418747124
 21
-13838.56801597885
 31
0.0
 12
-11865.74418747124
 22
-14063.56801597885
 32
0.0
 13
-11865.74418747124
 23
-14063.56801597885
 33
0.0
  0
SOLID
  5
7687
330
7680
100
AcDbEntity
  8
DIM
  6
Continuous
 62
     0
 48
100.0
370
     5
100
AcDbTrace
 10
-11903.24418747124
 20
-15038.56801597343
 30
0.0
 11
-11828.24418747124
 21
-15038.56801597343
 31
0.0
 12
-11865.74418747124
 22
-14813.56801597343
 32
0.0
 13
-11865.74418747124
 23
-14813.56801597343
 33
0.0
  0
MTEXT
  5
7688
330
7680
100
AcDbEntity
  8
DIM
  6
Continuous
 62
     0
 48
100.0
370
     5
100
AcDbMText
 10
-12071.99418747124
 20
-14438.56801597614
 30
0.0
 40
225.0
 41
0.0
 71
     5
 72
     1
  1
\A1;750
 11
0.0000000000000001
 21
1.0
 31
0.0
 73
     1
 44
1.0
  0
POINT
  5
7689
330
7680
100
AcDbEntity
  8
DEFPOINTS
  6
Continuous
 62
     0
 48
100.0
370
     5
100
AcDbPoint
 10
-12364.23309072558
 20
-14063.56801597885
 30
0.0
  0
POINT
  5
768A
330
7680
100
AcDbEntity
  8
DEFPOINTS
  6
Continuous
 62
     0
 48
100.0
370
     5
100
AcDbPoint
 10
-12364.23594350137
 20
-14813.56801597343
 30
0.0
  0
POINT
  5
768B
330
7680
100
AcDbEntity
  8
DEFPOINTS
  6
Continuous
 62
     0
 48
100.0
370
     5
100
AcDbPoint
 10
-11865.74418747124
 20
-14813.56801597343
 30
0.0
  0
ENDBLK
  5
768D
330
7680
100
AcDbEntity
  8
0
 48
100.0
370
     5
100
AcDbBlockEnd
  0
BLOCK
  5
7698
330
768E
100
AcDbEntity
  8
0
 48
100.0
370
     5
100
AcDbBlockBegin
  2
*D18
 70
     1
 10
0.0
 20
0.0
 30
0.0
  3
*D18
  1

  0
LINE
  5
768F
330
768E
100
AcDbEntity
  8
DIM
  6
Continuous
 62
     0
 48
100.0
370
    -2
100
AcDbLine
 10
-12321.49929636821
 20
-14240.00730448663
 30
0.0
 11
-12321.49929636821
 21
-15638.89588686649
 31
0.0
  0
LINE
  5
7690
330
768E
100
AcDbEntity
  8
DIM
  6
Continuous
 62
     0
 48
100.0
370
    -2
100
AcDbLine
 10
-13821.5009072892
 20
-15113.60826210065
 30
0.0
 11
-13821.5009072892
 21
-15638.89588686649
 31
0.0
  0
LINE
  5
7691
330
768E
100
AcDbEntity
  8
DIM
  6
Continuous
 62
     0
 48
100.0
370
    -2
100
AcDbLine
 10
-12546.49929636821
 20
-15451.39588686649
 30
0.0
 11
-13596.5009072892
 21
-15451.39588686649
 31
0.0
  0
SOLID
  5
7692
330
768E
100
AcDbEntity
  8
DIM
  6
Continuous
 62
     0
 48
100.0
370
     5
100
AcDbTrace
 10
-12546.49929636821
 20
-15413.89588686649
 30
0.0
 11
-12546.49929636821
 21
-15488.89588686649
 31
0.0
 12
-12321.49929636821
 22
-15451.39588686649
 32
0.0
 13
-12321.49929636821
 23
-15451.39588686649
 33
0.0
  0
SOLID
  5
7693
330
768E
100
AcDbEntity
  8
DIM
  6
Continuous
 62
     0
 48
100.0
370
     5
100
AcDbTrace
 10
-13596.5009072892
 20
-15413.89588686649
 30
0.0
 11
-13596.5009072892
 21
-15488.89588686649
 31
0.0
 12
-13821.5009072892
 22
-15451.39588686649
 32
0.0
 13
-13821.5009072892
 23
-15451.39588686649
 33
0.0
  0
MTEXT
  5
7694
330
768E
100
AcDbEntity
  8
DIM
  6
Continuous
 62
     0
 48
100.0
370
     5
100
AcDbMText
 10
-13071.50010182871
 20
-15245.14588686649
 30
0.0
 40
225.0
 41
0.0
 71
     5
 72
     1
  1
\A1;1500
 73
     1
 44
1.0
  0
POINT
  5
7695
330
768E
100
AcDbEntity
  8
DEFPOINTS
  6
Continuous
 62
     0
 48
100.0
370
     5
100
AcDbPoint
 10
-12321.49929636821
 20
-13940.00730448663
 30
0.0
  0
POINT
  5
7696
330
768E
100
AcDbEntity
  8
DEFPOINTS
  6
Continuous
 62
     0
 48
100.0
370
     5
100
AcDbPoint
 10
-13821.5009072892
 20
-14813.60826210065
 30
0.0
  0
POINT
  5
7697
330
768E
100
AcDbEntity
  8
DEFPOINTS
  6
Continuous
 62
     0
 48
100.0
370
     5
100
AcDbPoint
 10
-13821.5009072892
 20
-15451.39588686649
 30
0.0
  0
ENDBLK
  5
7699
330
768E
100
AcDbEntity
  8
0
 48
100.0
370
     5
100
AcDbBlockEnd
  0
BLOCK
  5
76A6
330
769A
100
AcDbEntity
  8
0
 48
100.0
370
     5
100
AcDbBlockBegin
  2
*D19
 70
     1
 10
0.0
 20
0.0
 30
0.0
  3
*D19
  1

  0
LINE
  5
769B
330
769A
100
AcDbEntity
  8
OBJECT
  6
Continuous
 62
     0
 48
100.0
370
    -2
100
AcDbLine
 10
-36578.63103797776
 20
-14063.47705275837
 30
0.0
 11
-36897.46166254617
 21
-14063.47705275837
 31
0.0
  0
LINE
  5
769C
330
769A
100
AcDbEntity
  8
OBJECT
  6
Continuous
 62
     0
 48
100.0
370
    -2
100
AcDbLine
 10
-36578.63389075355
 20
-14813.47705275294
 30
0.0
 11
-36897.46166254617
 21
-14813.47705275294
 31
0.0
  0
LINE
  5
769D
330
769A
100
AcDbEntity
  8
OBJECT
  6
Continuous
 62
     0
 48
100.0
370
    -2
100
AcDbLine
 10
-36709.96166254616
 20
-13838.47705275837
 30
0.0
 11
-36709.96166254616
 21
-13613.47705275837
 31
0.0
  0
LINE
  5
769E
330
769A
100
AcDbEntity
  8
OBJECT
  6
Continuous
 62
     0
 48
100.0
370
    -2
100
AcDbLine
 10
-36709.96166254616
 20
-15038.47705275294
 30
0.0
 11
-36709.96166254616
 21
-15263.47705275294
 31
0.0
  0
LINE
  5
769F
330
769A
100
AcDbEntity
  8
OBJECT
  6
Continuous
 62
     0
 48
100.0
370
    -2
100
AcDbLine
 10
-36709.96166254616
 20
-14063.47705275837
 30
0.0
 11
-36709.96166254616
 21
-14813.47705275294
 31
0.0
  0
SOLID
  5
76A0
330
769A
100
AcDbEntity
  8
OBJECT
  6
Continuous
 62
     0
 48
100.0
370
     5
100
AcDbTrace
 10
-36747.46166254617
 20
-13838.47705275837
 30
0.0
 11
-36672.46166254617
 21
-13838.47705275837
 31
0.0
 12
-36709.96166254616
 22
-14063.47705275837
 32
0.0
 13
-36709.96166254616
 23
-14063.47705275837
 33
0.0
  0
SOLID
  5
76A1
330
769A
100
AcDbEntity
  8
OBJECT
  6
Continuous
 62
     0
 48
100.0
370
     5
100
AcDbTrace
 10
-36747.46166254617
 20
-15038.47705275294
 30
0.0
 11
-36672.46166254617
 21
-15038.47705275294
 31
0.0
 12
-36709.96166254616
 22
-14813.47705275294
 32
0.0
 13
-36709.96166254616
 23
-14813.47705275294
 33
0.0
  0
MTEXT
  5
76A2
330
769A
100
AcDbEntity
  8
OBJECT
  6
Continuous
 62
     0
 48
100.0
370
     5
100
AcDbMText
 10
-36916.21166254617
 20
-14438.47705275566
 30
0.0
 40
225.0
 41
0.0
 71
     5
 72
     1
  1
\A1;750
 11
0.0000000000000001
 21
1.0
 31
0.0
 73
     1
 44
1.0
  0
POINT
  5
76A3
330
769A
100
AcDbEntity
  8
DEFPOINTS
  6
Continuous
 62
     0
 48
100.0
370
     5
100
AcDbPoint
 10
-36278.63103797776
 20
-14063.47705275837
 30
0.0
  0
POINT
  5
76A4
330
769A
100
AcDbEntity
  8
DEFPOINTS
  6
Continuous
 62
     0
 48
100.0
370
     5
100
AcDbPoint
 10
-36278.63389075355
 20
-14813.47705275294
 30
0.0
  0
POINT
  5
76A5
330
769A
100
AcDbEntity
  8
DEFPOINTS
  6
Continuous
 62
     0
 48
100.0
370
     5
100
AcDbPoint
 10
-36709.96166254616
 20
-14813.47705275294
 30
0.0
  0
ENDBLK
  5
76A7
330
769A
100
AcDbEntity
  8
0
 48
100.0
370
     5
100
AcDbBlockEnd
  0
BLOCK
  5
76B2
330
76A8
100
AcDbEntity
  8
0
 48
100.0
370
     5
100
AcDbBlockBegin
  2
*D20
 70
     1
 10
0.0
 20
0.0
 30
0.0
  3
*D20
  1

  0
LINE
  5
76A9
330
76A8
100
AcDbEntity
  8
OBJECT
  6
Continuous
 62
     0
 48
100.0
370
    -2
100
AcDbLine
 10
-36321.50737768304
 20
-14239.73350475198
 30
0.0
 11
-36321.50737768304
 21
-15638.89588686649
 31
0.0
  0
LINE
  5
76AA
330
76A8
100
AcDbEntity
  8
OBJECT
  6
Continuous
 62
     0
 48
100.0
370
    -2
100
AcDbLine
 10
-34821.50090707057
 20
-15113.46850060443
 30
0.0
 11
-34821.50090707057
 21
-15638.89588686649
 31
0.0
  0
LINE
  5
76AB
330
76A8
100
AcDbEntity
  8
OBJECT
  6
Continuous
 62
     0
 48
100.0
370
    -2
100
AcDbLine
 10
-36096.50737768304
 20
-15451.39588686649
 30
0.0
 11
-35046.50090707057
 21
-15451.39588686649
 31
0.0
  0
SOLID
  5
76AC
330
76A8
100
AcDbEntity
  8
OBJECT
  6
Continuous
 62
     0
 48
100.0
370
     5
100
AcDbTrace
 10
-36096.50737768304
 20
-15413.89588686649
 30
0.0
 11
-36096.50737768304
 21
-15488.89588686649
 31
0.0
 12
-36321.50737768304
 22
-15451.39588686649
 32
0.0
 13
-36321.50737768304
 23
-15451.39588686649
 33
0.0
  0
SOLID
  5
76AD
330
76A8
100
AcDbEntity
  8
OBJECT
  6
Continuous
 62
     0
 48
100.0
370
     5
100
AcDbTrace
 10
-35046.50090707057
 20
-15413.89588686649
 30
0.0
 11
-35046.50090707057
 21
-15488.89588686649
 31
0.0
 12
-34821.50090707057
 22
-15451.39588686649
 32
0.0
 13
-34821.50090707057
 23
-15451.39588686649
 33
0.0
  0
MTEXT
  5
76AE
330
76A8
100
AcDbEntity
  8
OBJECT
  6
Continuous
 62
     0
 48
100.0
370
     5
100
AcDbMText
 10
-35571.50414237681
 20
-15245.14588686649
 30
0.0
 40
225.0
 41
0.0
 71
     5
 72
     1
  1
\A1;1500
 73
     1
 44
1.0
  0
POINT
  5
76AF
330
76A8
100
AcDbEntity
  8
DEFPOINTS
  6
Continuous
 62
     0
 48
100.0
370
     5
100
AcDbPoint
 10
-36321.50737768304
 20
-13939.73350475198
 30
0.0
  0
POINT
  5
76B0
330
76A8
100
AcDbEntity
  8
DEFPOINTS
  6
Continuous
 62
     0
 48
100.0
370
     5
100
AcDbPoint
 10
-34821.50090707057
 20
-14813.46850060443
 30
0.0
  0
POINT
  5
76B1
330
76A8
100
AcDbEntity
  8
DEFPOINTS
  6
Continuous
 62
     0
 48
100.0
370
     5
100
AcDbPoint
 10
-34821.50090707057
 20
-15451.39588686649
 30
0.0
  0
ENDBLK
  5
76B3
330
76A8
100
AcDbEntity
  8
0
 48
100.0
370
     5
100
AcDbBlockEnd
  0
BLOCK
  5
76B9
330
76B4
100
AcDbEntity
  8
0
 48
100.0
370
     5
100
AcDbBlockBegin
  2
A$C7B9268FB
 70
     0
 10
0.0
 20
0.0
 30
0.0
  3
A$C7B9268FB
  1

  0
DIMENSION
  5
76B5
330
76B4
100
AcDbEntity
  8
OBJECT
  6
Continuous
 48
100.0
370
     5
100
AcDbDimension
  2
*D20
 10
2207.210729861967
 20
187.5000255314662
 30
0.0
 11
1457.207494555732
 21
393.7500255314662
 31
0.0
 12
37028.71163693254
 22
15638.89591239796
 32
0.0
 71
     5
 42
-1.0
  3
STANDARD_WS
100
AcDbAlignedDimension
 13
707.2042592494981
 23
1699.162407645976
 33
0.0
 14
2207.210729861967
 24
825.4274117935274
 34
0.0
100
AcDbRotatedDimension
1001
ACAD
1000
DSTYLE
1002
{
1070
    40
1040
150.0
1070
    41
1040
1.5
1070
    42
1040
2.0
1070
   140
1040
1.5
1070
   271
1070
     0
1070
   272
1070
     0
1002
}
  0
DIMENSION
  5
76B6
330
76B4
100
AcDbEntity
  8
OBJECT
  6
Continuous
 48
100.0
370
     5
100
AcDbDimension
  2
*D19
 10
318.7499743863737
 20
825.4188596450148
 30
0.0
 11
318.7499743863737
 21
1200.418859642301
 31
0.0
 12
37028.71163693254
 22
15638.89591239796
 32
0.0
 70
   128
 71
     5
 42
-1.0
  3
STANDARD_WS
100
AcDbAlignedDimension
 13
750.0805989547806
 23
1575.418859639589
 33
0.0
 14
750.0777461789912
 24
825.4188596450148
 34
0.0
 50
90.0
100
AcDbRotatedDimension
1001
ACAD
1000
DSTYLE
1002
{
1070
    40
1040
150.0
1070
    41
1040
1.5
1070
    42
1040
2.0
1070
   140
1040
1.5
1070
   271
1070
     0
1070
   272
1070
     0
1002
}
  0
DIMENSION
  5
76B7
330
76B4
100
AcDbEntity
  8
DIM
  6
Continuous
 48
100.0
370
     5
100
AcDbDimension
  2
*D18
 10
23207.21072964334
 20
187.5000255314662
 30
0.0
 11
23957.21153510383
 21
393.7500255314662
 31
0.0
 12
37028.71163693254
 22
15638.89591239796
 32
0.0
 71
     5
 42
-1.0
  3
STANDARD_WS
100
AcDbAlignedDimension
 13
24707.21234056432
 23
1698.888607911329
 33
0.0
 14
23207.21072964334
 24
825.287650297303
 34
0.0
100
AcDbRotatedDimension
1001
ACAD
1000
DSTYLE
1002
{
1070
    40
1040
150.0
1070
    41
1040
1.5
1070
    42
1040
2.0
1070
   140
1040
1.5
1070
   271
1070
     0
1070
   272
1070
     0
1002
}
  0
DIMENSION
  5
76B8
330
76B4
100
AcDbEntity
  8
DIM
  6
Continuous
 48
100.0
370
     5
100
AcDbDimension
  2
*D17
 10
25162.96744946129
 20
825.3278964245291
 30
0.0
 11
25162.9674494613
 21
1200.327896421815
 31
0.0
 12
37028.71163693254
 22
15638.89591239796
 32
0.0
 70
   128
 71
     5
 42
-1.0
  3
STANDARD_WS
100
AcDbAlignedDimension
 13
24664.47854620695
 23
1575.327896419105
 33
0.0
 14
24664.47569343117
 24
825.3278964245309
 34
0.0
 50
90.0
100
AcDbRotatedDimension
1001
ACAD
1000
DSTYLE
1002
{
1070
    40
1040
150.0
1070
    41
1040
1.5
1070
    42
1040
2.0
1070
   140
1040
1.5
1070
   271
1070
     0
1070
   272
1070
     0
1002
}
  0
ENDBLK
  5
76BA
330
76B4
100
AcDbEntity
  8
0
 48
100.0
370
     5
100
AcDbBlockEnd
  0
BLOCK
  5
76C8
330
76BD
100
AcDbEntity
  8
0
 48
100.0
370
     5
100
AcDbBlockBegin
  2
*D22
 70
     1
 10
0.0
 20
0.0
 30
0.0
  3
*D22
  1

  0
LINE
  5
76D7
330
76BD
100
AcDbEntity
  8
0
  6
Continuous
 62
     0
 48
100.0
370
    -2
100
AcDbLine
 10
-12064.23309072558
 20
-14063.56801597885
 30
0.0
 11
-11455.22297177231
 21
-14063.56801597885
 31
0.0
  0
LINE
  5
76D8
330
76BD
100
AcDbEntity
  8
0
  6
Continuous
 62
     0
 48
100.0
370
    -2
100
AcDbLine
 10
-12064.23594350137
 20
-14813.56801597343
 30
0.0
 11
-11455.22297177231
 21
-14813.56801597343
 31
0.0
  0
LINE
  5
76D9
330
76BD
100
AcDbEntity
  8
0
  6
Continuous
 62
     0
 48
100.0
370
    -2
100
AcDbLine
 10
-11642.72297177231
 20
-13838.56801597885
 30
0.0
 11
-11642.72297177231
 21
-13613.56801597885
 31
0.0
  0
LINE
  5
76DA
330
76BD
100
AcDbEntity
  8
0
  6
Continuous
 62
     0
 48
100.0
370
    -2
100
AcDbLine
 10
-11642.72297177231
 20
-15038.56801597343
 30
0.0
 11
-11642.72297177231
 21
-15263.56801597343
 31
0.0
  0
LINE
  5
76DB
330
76BD
100
AcDbEntity
  8
0
  6
Continuous
 62
     0
 48
100.0
370
    -2
100
AcDbLine
 10
-11642.72297177231
 20
-14063.56801597885
 30
0.0
 11
-11642.72297177231
 21
-14813.56801597343
 31
0.0
  0
SOLID
  5
76DC
330
76BD
100
AcDbEntity
  8
0
  6
Continuous
 62
     0
 48
100.0
370
     5
100
AcDbTrace
 10
-11680.22297177231
 20
-13838.56801597885
 30
0.0
 11
-11605.22297177231
 21
-13838.56801597885
 31
0.0
 12
-11642.72297177231
 22
-14063.56801597885
 32
0.0
 13
-11642.72297177231
 23
-14063.56801597885
 33
0.0
  0
SOLID
  5
76DD
330
76BD
100
AcDbEntity
  8
0
  6
Continuous
 62
     0
 48
100.0
370
     5
100
AcDbTrace
 10
-11680.22297177231
 20
-15038.56801597343
 30
0.0
 11
-11605.22297177231
 21
-15038.56801597343
 31
0.0
 12
-11642.72297177231
 22
-14813.56801597343
 32
0.0
 13
-11642.72297177231
 23
-14813.56801597343
 33
0.0
  0
MTEXT
  5
76DE
330
76BD
100
AcDbEntity
  8
0
  6
Continuous
 62
     0
 48
100.0
370
     5
100
AcDbMText
 10
-11848.97297177231
 20
-14438.56801597614
 30
0.0
 40
225.0
 41
0.0
 71
     5
 72
     1
  1
\A1;750
 11
0.0000000000000001
 21
1.0
 31
0.0
 73
     1
 44
1.0
  0
POINT
  5
76DF
330
76BD
100
AcDbEntity
  8
DEFPOINTS
  6
Continuous
 62
     0
 48
100.0
370
     5
100
AcDbPoint
 10
-12364.23309072558
 20
-14063.56801597885
 30
0.0
  0
POINT
  5
76E0
330
76BD
100
AcDbEntity
  8
DEFPOINTS
  6
Continuous
 62
     0
 48
100.0
370
     5
100
AcDbPoint
 10
-12364.23594350137
 20
-14813.56801597343
 30
0.0
  0
POINT
  5
76E1
330
76BD
100
AcDbEntity
  8
DEFPOINTS
  6
Continuous
 62
     0
 48
100.0
370
     5
100
AcDbPoint
 10
-11642.72297177231
 20
-14813.56801597343
 30
0.0
  0
ENDBLK
  5
76C9
330
76BD
100
AcDbEntity
  8
0
 48
100.0
370
     5
100
AcDbBlockEnd
  0
BLOCK
  5
76D5
330
76CB
100
AcDbEntity
  8
0
 48
100.0
370
     5
100
AcDbBlockBegin
  2
*D23
 70
     1
 10
0.0
 20
0.0
 30
0.0
  3
*D23
  1

  0
LINE
  5
76CC
330
76CB
100
AcDbEntity
  8
0
  6
Continuous
 62
     0
 48
100.0
370
    -2
100
AcDbLine
 10
-12321.49929636821
 20
-14240.00730448664
 30
0.0
 11
-12321.49929636821
 21
-15673.0524655366
 31
0.0
  0
LINE
  5
76CD
330
76CB
100
AcDbEntity
  8
0
  6
Continuous
 62
     0
 48
100.0
370
    -2
100
AcDbLine
 10
-13821.5009072892
 20
-15113.60826210065
 30
0.0
 11
-13821.5009072892
 21
-15673.0524655366
 31
0.0
  0
LINE
  5
76CE
330
76CB
100
AcDbEntity
  8
0
  6
Continuous
 62
     0
 48
100.0
370
    -2
100
AcDbLine
 10
-12546.4992963682
 20
-15485.5524655366
 30
0.0
 11
-13596.5009072892
 21
-15485.5524655366
 31
0.0
  0
SOLID
  5
76CF
330
76CB
100
AcDbEntity
  8
0
  6
Continuous
 62
     0
 48
100.0
370
     5
100
AcDbTrace
 10
-12546.4992963682
 20
-15448.0524655366
 30
0.0
 11
-12546.4992963682
 21
-15523.0524655366
 31
0.0
 12
-12321.49929636821
 22
-15485.5524655366
 32
0.0
 13
-12321.49929636821
 23
-15485.5524655366
 33
0.0
  0
SOLID
  5
76D0
330
76CB
100
AcDbEntity
  8
0
  6
Continuous
 62
     0
 48
100.0
370
     5
100
AcDbTrace
 10
-13596.5009072892
 20
-15448.0524655366
 30
0.0
 11
-13596.5009072892
 21
-15523.0524655366
 31
0.0
 12
-13821.5009072892
 22
-15485.5524655366
 32
0.0
 13
-13821.5009072892
 23
-15485.5524655366
 33
0.0
  0
MTEXT
  5
76D1
330
76CB
100
AcDbEntity
  8
0
  6
Continuous
 62
     0
 48
100.0
370
     5
100
AcDbMText
 10
-13071.5001018287
 20
-15279.3024655366
 30
0.0
 40
225.0
 41
0.0
 71
     5
 72
     1
  1
\A1;1500
 73
     1
 44
1.0
  0
POINT
  5
76D2
330
76CB
100
AcDbEntity
  8
DEFPOINTS
  6
Continuous
 62
     0
 48
100.0
370
     5
100
AcDbPoint
 10
-12321.49929636821
 20
-13940.00730448664
 30
0.0
  0
POINT
  5
76D3
330
76CB
100
AcDbEntity
  8
DEFPOINTS
  6
Continuous
 62
     0
 48
100.0
370
     5
100
AcDbPoint
 10
-13821.5009072892
 20
-14813.60826210065
 30
0.0
  0
POINT
  5
76D4
330
76CB
100
AcDbEntity
  8
DEFPOINTS
  6
Continuous
 62
     0
 48
100.0
370
     5
100
AcDbPoint
 10
-13821.5009072892
 20
-15485.5524655366
 30
0.0
  0
ENDBLK
  5
76D6
330
76CB
100
AcDbEntity
  8
0
 48
100.0
370
     5
100
AcDbBlockEnd
  0
BLOCK
  5
76EE
330
76E3
100
AcDbEntity
  8
0
 48
100.0
370
     5
100
AcDbBlockBegin
  2
*D24
 70
     1
 10
0.0
 20
0.0
 30
0.0
  3
*D24
  1

  0
LINE
  5
76FD
330
76E3
100
AcDbEntity
  8
0
  6
Continuous
 62
     0
 48
100.0
370
    -2
100
AcDbLine
 10
-36578.03818879278
 20
-14063.47705501339
 30
0.0
 11
-36954.35426521348
 21
-14063.47705501338
 31
0.0
  0
LINE
  5
76FE
330
76E3
100
AcDbEntity
  8
0
  6
Continuous
 62
     0
 48
100.0
370
    -2
100
AcDbLine
 10
-36578.04104156856
 20
-14813.47705500796
 30
0.0
 11
-36954.35426521348
 21
-14813.47705500796
 31
0.0
  0
LINE
  5
76FF
330
76E3
100
AcDbEntity
  8
0
  6
Continuous
 62
     0
 48
100.0
370
    -2
100
AcDbLine
 10
-36766.85426521348
 20
-13838.47705501339
 30
0.0
 11
-36766.85426521348
 21
-13613.47705501339
 31
0.0
  0
LINE
  5
7700
330
76E3
100
AcDbEntity
  8
0
  6
Continuous
 62
     0
 48
100.0
370
    -2
100
AcDbLine
 10
-36766.85426521348
 20
-15038.47705500796
 30
0.0
 11
-36766.85426521348
 21
-15263.47705500796
 31
0.0
  0
LINE
  5
7701
330
76E3
100
AcDbEntity
  8
0
  6
Continuous
 62
     0
 48
100.0
370
    -2
100
AcDbLine
 10
-36766.85426521348
 20
-14063.47705501339
 30
0.0
 11
-36766.85426521348
 21
-14813.47705500796
 31
0.0
  0
SOLID
  5
7702
330
76E3
100
AcDbEntity
  8
0
  6
Continuous
 62
     0
 48
100.0
370
     5
100
AcDbTrace
 10
-36804.35426521348
 20
-13838.47705501339
 30
0.0
 11
-36729.35426521348
 21
-13838.47705501339
 31
0.0
 12
-36766.85426521348
 22
-14063.47705501339
 32
0.0
 13
-36766.85426521348
 23
-14063.47705501339
 33
0.0
  0
SOLID
  5
7703
330
76E3
100
AcDbEntity
  8
0
  6
Continuous
 62
     0
 48
100.0
370
     5
100
AcDbTrace
 10
-36804.35426521348
 20
-15038.47705500796
 30
0.0
 11
-36729.35426521348
 21
-15038.47705500796
 31
0.0
 12
-36766.85426521348
 22
-14813.47705500796
 32
0.0
 13
-36766.85426521348
 23
-14813.47705500796
 33
0.0
  0
MTEXT
  5
7704
330
76E3
100
AcDbEntity
  8
0
  6
Continuous
 62
     0
 48
100.0
370
     5
100
AcDbMText
 10
-36973.10426521348
 20
-14438.47705501067
 30
0.0
 40
225.0
 41
0.0
 71
     5
 72
     1
  1
\A1;750
 11
0.0000000000000001
 21
1.0
 31
0.0
 73
     1
 44
1.0
  0
POINT
  5
7705
330
76E3
100
AcDbEntity
  8
DEFPOINTS
  6
Continuous
 62
     0
 48
100.0
370
     5
100
AcDbPoint
 10
-36278.03818879277
 20
-14063.47705501339
 30
0.0
  0
POINT
  5
7706
330
76E3
100
AcDbEntity
  8
DEFPOINTS
  6
Continuous
 62
     0
 48
100.0
370
     5
100
AcDbPoint
 10
-36278.04104156856
 20
-14813.47705500796
 30
0.0
  0
POINT
  5
7707
330
76E3
100
AcDbEntity
  8
DEFPOINTS
  6
Continuous
 62
     0
 48
100.0
370
     5
100
AcDbPoint
 10
-36766.85426521348
 20
-14813.47705500796
 30
0.0
  0
ENDBLK
  5
76EF
330
76E3
100
AcDbEntity
  8
0
 48
100.0
370
     5
100
AcDbBlockEnd
  0
BLOCK
  5
76FB
330
76F1
100
AcDbEntity
  8
0
 48
100.0
370
     5
100
AcDbBlockBegin
  2
*D25
 70
     1
 10
0.0
 20
0.0
 30
0.0
  3
*D25
  1

  0
LINE
  5
7708
330
76F1
100
AcDbEntity
  8
0
  6
Continuous
 62
     0
 48
100.0
370
    -2
100
AcDbLine
 10
-36320.89025950614
 20
-14195.47731548803
 30
0.0
 11
-36320.89025950614
 21
-15696.89513752484
 31
0.0
  0
LINE
  5
7709
330
76F1
100
AcDbEntity
  8
0
  6
Continuous
 62
     0
 48
100.0
370
    -2
100
AcDbLine
 10
-34821.50090707057
 20
-15113.46850060443
 30
0.0
 11
-34821.50090707057
 21
-15696.89513752484
 31
0.0
  0
LINE
  5
770A
330
76F1
100
AcDbEntity
  8
0
  6
Continuous
 62
     0
 48
100.0
370
    -2
100
AcDbLine
 10
-36095.89025950614
 20
-15509.39513752484
 30
0.0
 11
-35046.50090707057
 21
-15509.39513752484
 31
0.0
  0
SOLID
  5
770B
330
76F1
100
AcDbEntity
  8
0
  6
Continuous
 62
     0
 48
100.0
370
     5
100
AcDbTrace
 10
-36095.89025950614
 20
-15471.89513752484
 30
0.0
 11
-36095.89025950614
 21
-15546.89513752484
 31
0.0
 12
-36320.89025950614
 22
-15509.39513752484
 32
0.0
 13
-36320.89025950614
 23
-15509.39513752484
 33
0.0
  0
SOLID
  5
770C
330
76F1
100
AcDbEntity
  8
0
  6
Continuous
 62
     0
 48
100.0
370
     5
100
AcDbTrace
 10
-35046.50090707057
 20
-15471.89513752484
 30
0.0
 11
-35046.50090707057
 21
-15546.89513752484
 31
0.0
 12
-34821.50090707057
 22
-15509.39513752484
 32
0.0
 13
-34821.50090707057
 23
-15509.39513752484
 33
0.0
  0
MTEXT
  5
770D
330
76F1
100
AcDbEntity
  8
0
  6
Continuous
 62
     0
 48
100.0
370
     5
100
AcDbMText
 10
-35571.19558328836
 20
-15303.14513752484
 30
0.0
 40
225.0
 41
0.0
 71
     5
 72
     1
  1
\A1;1500
 73
     1
 44
1.0
  0
POINT
  5
770E
330
76F1
100
AcDbEntity
  8
DEFPOINTS
  6
Continuous
 62
     0
 48
100.0
370
     5
100
AcDbPoint
 10
-36320.89025950614
 20
-13895.47731548803
 30
0.0
  0
POINT
  5
770F
330
76F1
100
AcDbEntity
  8
DEFPOINTS
  6
Continuous
 62
     0
 48
100.0
370
     5
100
AcDbPoint
 10
-34821.50090707057
 20
-14813.46850060443
 30
0.0
  0
POINT
  5
7710
330
76F1
100
AcDbEntity
  8
DEFPOINTS
  6
Continuous
 62
     0
 48
100.0
370
     5
100
AcDbPoint
 10
-34821.50090707057
 20
-15509.39513752484
 30
0.0
  0
ENDBLK
  5
76FC
330
76F1
100
AcDbEntity
  8
0
 48
100.0
370
     5
100
AcDbBlockEnd
  0
ENDSEC
  0
SECTION
  2
ENTITIES
  0
LINE
  5
5494
330
18
100
AcDbEntity
  8
OBJECT
  6
Continuous
 48
100.0
370
     5
100
AcDbLine
 10
-35821.79681917104
 20
-13763.33832923064
 30
0.0
 11
-12811.63244580675
 21
-13763.5843987035
 31
0.0
  0
LINE
  5
5495
330
18
100
AcDbEntity
  8
OBJECT
  6
Continuous
 48
100.0
370
     5
100
AcDbLine
 10
-35821.79361098701
 20
-13463.3383292478
 30
0.0
 11
-12811.63244580675
 21
-13463.58439868635
 31
0.0
  0
LINE
  5
5496
330
18
100
AcDbEntity
  8
OBJECT
  6
Continuous
 48
100.0
370
     5
100
AcDbLine
 10
-35821.79040280299
 20
-13163.33832926495
 30
0.0
 11
-12811.63244580675
 21
-13163.5843986692
 31
0.0
  0
LINE
  5
5497
330
18
100
AcDbEntity
  8
OBJECT
  6
Continuous
 48
100.0
370
     5
100
AcDbLine
 10
-35821.78719461896
 20
-12863.33832928211
 30
0.0
 11
-12811.63244580675
 21
-12863.58439865204
 31
0.0
  0
LINE
  5
54A6
330
18
100
AcDbEntity
  8
OBJECT
  6
Continuous
 48
0.04
370
     5
100
AcDbLine
 10
-35821.32660740632
 20
-26807.99599041167
 30
0.0
 11
-12821.26336663995
 21
-26808.16615340913
 31
0.0
  0
LINE
  5
54A7
330
18
100
AcDbEntity
  8
OBJECT
  6
Continuous
 48
0.04
370
     5
100
AcDbLine
 10
-35821.26336595793
 20
-17807.99599063324
 30
0.0
 11
-12821.26336663995
 21
-17808.16615316281
 31
0.0
  0
LINE
  5
54A8
330
18
100
AcDbEntity
  8
OBJECT
  6
Continuous
 48
100.0
370
     5
100
AcDbLine
 10
-8040.277252808447
 20
-14813.58446301962
 30
0.0
 11
-38343.66445622336
 21
-14813.46919799402
 31
0.0
  0
LINE
  5
54A9
330
18
100
AcDbEntity
  8
OBJECT
  6
Continuous
 48
100.0
370
     5
100
AcDbLine
 10
-35821.78665992161
 20
-12813.33832928496
 30
0.0
 11
-12811.63244580675
 21
-12813.58439864918
 31
0.0
  0
LINE
  5
54AA
330
18
100
AcDbEntity
  8
OBJECT
  6
Continuous
 48
100.0
370
     5
100
AcDbLine
 10
-34791.04543695995
 20
-14683.34935208366
 30
0.0
 11
-13852.11951521537
 21
-14683.57327184279
 31
0.0
  0
LINE
  5
54AC
330
18
100
AcDbEntity
  8
OBJECT
  6
Continuous
 48
100.0
370
     5
100
AcDbLine
 10
-24321.47704851568
 20
-9444.097042025076
 30
0.0
 11
-19821.47704864392
 21
-9444.131703151979
 31
0.0
  0
LINE
  5
54D4
330
18
100
AcDbEntity
  8
OBJECT
  6
Continuous
 48
100.0
370
     5
100
AcDbLine
 10
-23641.78039954661
 20
-5016.503045325608
 30
0.0
 11
-19100.16344233433
 21
-5016.503045325608
 31
0.0
  0
MTEXT
  5
54D5
330
18
100
AcDbEntity
  8
OBJECT
  6
Continuous
 48
100.0
370
     5
100
AcDbMText
 10
-23515.91469252604
 20
-4694.715853810722
 30
0.0
 40
250.0
 41
4676.183299999999
 71
     1
 72
     5
  1
TYPICAL W.T BHD SEC
 73
     1
 44
1.0
  0
MTEXT
  5
54D7
330
18
100
AcDbEntity
  8
FS
  6
Continuous
 48
100.0
370
     5
100
AcDbMText
 10
-20398.22275117961
 20
-14903.43829633146
 30
0.0
 40
250.0
 41
631.9498
 71
     1
 72
     5
  1
8
 73
     1
 44
1.0
  0
LINE
  5
54D8
330
18
100
AcDbEntity
  8
OBJECT
  6
CENTER2
 48
0.04
370
     5
100
AcDbLine
 10
-38343.66445622337
 20
-22307.97732909769
 30
0.0
 11
-8040.277252808447
 21
-22308.20152479426
 31
0.0
  0
LINE
  5
54D9
330
18
100
AcDbEntity
  8
OBJECT
  6
CENTER2
 48
0.009
370
     5
100
AcDbLine
 10
-24636.30564453807
 20
-26772.88974740807
 30
0.0
 11
-24636.30150460166
 21
-26243.23937390318
 31
0.0
  0
LINE
  5
54DA
330
18
100
AcDbEntity
  8
OBJECT
  6
CENTER2
 48
0.009
370
     5
100
AcDbLine
 10
-24006.30564455526
 20
-26772.8944083817
 30
0.0
 11
-24006.30150461886
 21
-26243.24403487681
 31
0.0
  0
CIRCLE
  5
54DB
330
18
100
AcDbEntity
  8
OBJECT
  6
Continuous
 48
100.0
370
     5
100
AcDbCircle
 10
-24006.3035745891
 20
-26508.06948496053
 30
0.0
 40
165.0
  0
ARC
  5
54DC
330
18
100
AcDbEntity
  8
OBJECT
  6
Continuous
 48
0.009
370
     5
100
AcDbCircle
 10
-23886.30423898067
 20
-26593.07010943117
 30
0.0
 40
100.0
100
AcDbArc
 50
269.9995761045751
 51
359.999552155732
  0
CIRCLE
  5
54DD
330
18
100
AcDbEntity
  8
OBJECT
  6
Continuous
 48
100.0
370
     5
100
AcDbCircle
 10
-24006.30357458705
 20
-26508.06922162925
 30
0.0
 40
133.7
  0
ARC
  5
54DE
330
18
100
AcDbEntity
  8
OBJECT
  6
Continuous
 48
0.04
370
     5
100
AcDbCircle
 10
-24756.30423895694
 20
-26593.06367284853
 30
0.0
 40
100.0
100
AcDbArc
 50
179.999552155732
 51
269.9995761045749
  0
CIRCLE
  5
54DF
330
18
100
AcDbEntity
  8
OBJECT
  6
Continuous
 48
100.0
370
     5
100
AcDbCircle
 10
-24636.30357456986
 20
-26508.06456065562
 30
0.0
 40
165.0
  0
CIRCLE
  5
54E0
330
18
100
AcDbEntity
  8
OBJECT
  6
Continuous
 48
100.0
370
     5
100
AcDbCircle
 10
-24636.30357456986
 20
-26508.06456065562
 30
0.0
 40
133.7
  0
ARC
  5
54E1
330
18
100
AcDbEntity
  8
OBJECT
  6
Continuous
 48
0.009
370
     5
100
AcDbCircle
 10
-35376.88042798975
 20
-26593.02870164551
 30
0.0
 40
100.0
100
AcDbArc
 50
179.9997398940388
 51
269.9997159451957
  0
CIRCLE
  5
54E2
330
18
100
AcDbEntity
  8
OBJECT
  6
Continuous
 48
100.0
370
     5
100
AcDbCircle
 10
-35256.88004211624
 20
-26508.02929656937
 30
0.0
 40
133.7
  0
LINE
  5
54E3
330
18
100
AcDbEntity
  8
OBJECT
  6
CENTER2
 48
0.009
370
     5
100
AcDbLine
 10
-35256.88124434458
 20
-26772.85448332717
 30
0.0
 11
-35256.87883988791
 21
-26243.20410981156
 31
0.0
  0
CIRCLE
  5
54E4
330
18
100
AcDbEntity
  8
OBJECT
  6
Continuous
 48
100.0
370
     5
100
AcDbCircle
 10
-34626.88004212393
 20
-26508.03241991507
 30
0.0
 40
165.0
  0
ARC
  5
54E5
330
18
100
AcDbEntity
  8
OBJECT
  6
Continuous
 48
0.04
370
     5
100
AcDbCircle
 10
-34506.88042800035
 20
-26593.0330148372
 30
0.0
 40
100.0
100
AcDbArc
 50
269.9997159451959
 51
359.9997398940388
  0
CIRCLE
  5
54E6
330
18
100
AcDbEntity
  8
OBJECT
  6
Continuous
 48
100.0
370
     5
100
AcDbCircle
 10
-34626.88004212393
 20
-26508.03241991507
 30
0.0
 40
133.7
  0
LINE
  5
54E7
330
18
100
AcDbEntity
  8
OBJECT
  6
CENTER2
 48
0.009
370
     5
100
AcDbLine
 10
-34626.88124435226
 20
-26772.85760667288
 30
0.0
 11
-34626.8788398956
 21
-26243.20723315726
 31
0.0
  0
CIRCLE
  5
54E8
330
18
100
AcDbEntity
  8
OBJECT
  6
Continuous
 48
100.0
370
     5
100
AcDbCircle
 10
-35256.88004211744
 20
-26508.02955990065
 30
0.0
 40
165.0
  0
ARC
  5
54E9
330
18
100
AcDbEntity
  8
OBJECT
  6
Continuous
 48
0.04
370
     5
100
AcDbCircle
 10
-35821.32290822089
 20
-26307.99599042536
 30
0.0
 40
500.0
100
AcDbArc
 50
179.9996000534178
 51
269.9995761045749
  0
LINE
  5
54EA
330
18
100
AcDbEntity
  8
OBJECT
  6
CENTER2
 48
0.04
370
     5
100
AcDbLine
 10
-24321.13639583678
 20
-4611.271655795222
 30
0.0
 11
-24321.28901739656
 21
-29315.18692443776
 31
0.0
  0
LINE
  5
54EB
330
18
100
AcDbEntity
  8
BHD
  6
DASHED
 48
0.008
370
     5
100
AcDbLine
 10
-20321.26357537386
 20
-17808.11066537988
 30
0.0
 11
-20321.32639883607
 21
-26808.11066516141
 31
0.0
  0
LINE
  5
54EC
330
18
100
AcDbEntity
  8
FS
  6
CENTER2
 48
0.009
370
     5
100
AcDbLine
 10
-22321.2635753193
 20
-17808.09586863818
 30
0.0
 11
-22321.32639878152
 21
-26808.09586841971
 31
0.0
  0
LINE
  5
54ED
330
18
100
AcDbEntity
  8
OBJECT
  6
CENTER2
 48
0.009
370
     5
100
AcDbLine
 10
-24321.26357526475
 20
-17808.08107189648
 30
0.0
 11
-24321.32639872696
 21
-26808.081071678
 31
0.0
  0
LINE
  5
54EE
330
18
100
AcDbEntity
  8
FS
  6
CENTER2
 48
0.009
370
     5
100
AcDbLine
 10
-26321.26357521018
 20
-17808.06627515478
 30
0.0
 11
-26321.32639867239
 21
-26808.0662749363
 31
0.0
  0
LINE
  5
54EF
330
18
100
AcDbEntity
  8
BHD
  6
DASHED
 48
0.008
370
     5
100
AcDbLine
 10
-28321.26357515561
 20
-17808.05147841308
 30
0.0
 11
-28321.32639861782
 21
-26808.0514781946
 31
0.0
  0
LINE
  5
54F0
330
18
100
AcDbEntity
  8
FS
  6
CENTER2
 48
0.009
370
     5
100
AcDbLine
 10
-30321.26357510107
 20
-17808.03668167137
 30
0.0
 11
-30321.32639856327
 21
-26808.0366814529
 31
0.0
  0
LINE
  5
54F1
330
18
100
AcDbEntity
  8
FS
  6
CENTER2
 48
0.009
370
     5
100
AcDbLine
 10
-32321.2635750465
 20
-17808.02188492967
 30
0.0
 11
-32321.32639850871
 21
-26808.0218847112
 31
0.0
  0
LINE
  5
54F2
330
18
100
AcDbEntity
  8
FS
  6
CENTER2
 48
0.009
370
     5
100
AcDbLine
 10
-34321.26357499193
 20
-17808.00708818797
 30
0.0
 11
-34321.32639845414
 21
-26808.0070879695
 31
0.0
  0
LINE
  5
5634
330
18
100
AcDbEntity
  8
OBJECT
  6
Continuous
 48
0.04
370
     5
100
AcDbLine
 10
-34506.88092376953
 20
-26693.03301483596
 30
0.0
 11
-35376.8809237589
 21
-26693.02870164428
 31
0.0
  0
LINE
  5
5787
330
18
100
AcDbEntity
  8
OBJECT
  6
Continuous
 48
0.04
370
     5
100
AcDbLine
 10
-24756.30497879402
 20
-26693.06367284579
 30
0.0
 11
-23886.30497881775
 21
-26693.07010942843
 31
0.0
  0
MTEXT
  5
5789
330
18
100
AcDbEntity
  8
OBJECT
  6
Continuous
 48
100.0
370
     5
100
AcDbMText
 10
-29292.08632379909
 20
-4667.822658077155
 30
0.0
 40
250.0
 41
4676.183299999999
 71
     1
 72
     5
  1
TYPICAL TRANS SEC
 73
     1
 44
1.0
  0
LINE
  5
578C
330
18
100
AcDbEntity
  8
OBJECT
  6
Continuous
 48
0.04
370
     5
100
AcDbLine
 10
-36321.26706513118
 20
-18307.99250042721
 30
0.0
 11
-36321.32290820871
 21
-26307.99250023301
 31
0.0
  0
LINE
  5
57A6
330
18
100
AcDbEntity
  8
OBJECT
  6
CENTER2
 48
0.009
370
     5
100
AcDbLine
 10
-34992.05485535898
 20
-26508.03060949097
 30
0.0
 11
-35521.70522887353
 21
-26508.02798364777
 31
0.0
  0
LINE
  5
57A7
330
18
100
AcDbEntity
  8
OBJECT
  6
Continuous
 48
0.04
370
     5
100
AcDbLine
 10
-34506.87916048129
 20
-26323.03301484016
 30
0.0
 11
-35376.87916047068
 21
-26323.02870164848
 31
0.0
  0
ARC
  5
57A8
330
18
100
AcDbEntity
  8
OBJECT
  6
Continuous
 48
0.04
370
     5
100
AcDbCircle
 10
-35376.87965623982
 20
-26423.02870164725
 30
0.0
 40
100.0
100
AcDbArc
 50
89.99971594519582
 51
179.9997398940387
  0
LINE
  5
57A9
330
18
100
AcDbEntity
  8
OBJECT
  6
CENTER2
 48
0.009
370
     5
100
AcDbLine
 10
-35476.88042798871
 20
-26593.02824767497
 30
0.0
 11
-35476.8796562388
 21
-26423.02824767671
 31
0.0
  0
ARC
  5
57AA
330
18
100
AcDbEntity
  8
OBJECT
  6
Continuous
 48
0.009
370
     5
100
AcDbCircle
 10
-34506.87965625045
 20
-26423.03301483893
 30
0.0
 40
100.0
100
AcDbArc
 50
359.9997398940388
 51
89.99971594519582
  0
LINE
  5
57AB
330
18
100
AcDbEntity
  8
OBJECT
  6
CENTER2
 48
0.009
370
     5
100
AcDbLine
 10
-34406.8804280014
 20
-26593.03346880773
 30
0.0
 11
-34406.87965625148
 21
-26423.03346880948
 31
0.0
  0
LINE
  5
57AC
330
18
100
AcDbEntity
  8
OBJECT
  6
CENTER2
 48
0.009
370
     5
100
AcDbLine
 10
-34362.05485536665
 20
-26508.03373283667
 30
0.0
 11
-34891.70522888121
 21
-26508.03110699346
 31
0.0
  0
MTEXT
  5
57AF
330
18
100
AcDbEntity
  8
OBJECT
  6
Continuous
 48
100.0
370
     5
100
AcDbMText
 10
-36649.43066593478
 20
-22398.01671480416
 30
0.0
 40
250.0
 41
631.9498
 71
     1
 72
     5
  1
0
 73
     1
 44
1.0
  0
MTEXT
  5
57B0
330
18
100
AcDbEntity
  8
OBJECT
  6
Continuous
 48
100.0
370
     5
100
AcDbMText
 10
-34613.66588193455
 20
-22407.60234828534
 30
0.0
 40
250.0
 41
631.9498
 71
     1
 72
     5
  1
1
 73
     1
 44
1.0
  0
ARC
  5
57B1
330
18
100
AcDbEntity
  8
OBJECT
  6
Continuous
 48
0.04
370
     5
100
AcDbCircle
 10
-35821.26706514336
 20
-18307.99599061956
 30
0.0
 40
500.0
100
AcDbArc
 50
89.99957610457498
 51
179.9996000534179
  0
LINE
  5
57B2
330
18
100
AcDbEntity
  8
OBJECT
  6
Continuous
 48
0.04
370
     5
100
AcDbLine
 10
-34506.83744481429
 20
-17923.03301494375
 30
0.0
 11
-35376.83744480368
 21
-17923.02870175207
 31
0.0
  0
LINE
  5
57B3
330
18
100
AcDbEntity
  8
OBJECT
  6
Continuous
 48
0.04
370
     5
100
AcDbLine
 10
-34506.83935021784
 20
-18293.03301493884
 30
0.0
 11
-35376.83935020722
 21
-18293.02870174716
 31
0.0
  0
LINE
  5
57B4
330
18
100
AcDbEntity
  8
OBJECT
  6
CENTER2
 48
0.009
370
     5
100
AcDbLine
 10
-34992.01321074963
 20
-18108.0306095942
 30
0.0
 11
-35521.66358426418
 21
-18108.02798375101
 31
0.0
  0
LINE
  5
57B5
330
18
100
AcDbEntity
  8
OBJECT
  6
CENTER2
 48
0.009
370
     5
100
AcDbLine
 10
-35256.83697389203
 20
-17843.2041099159
 30
0.0
 11
-35256.83982112177
 21
-18372.85448342931
 31
0.0
  0
CIRCLE
  5
57B6
330
18
100
AcDbEntity
  8
OBJECT
  6
Continuous
 48
100.0
370
     5
100
AcDbCircle
 10
-35256.83839750691
 20
-18108.02929667261
 30
0.0
 40
133.7
  0
LINE
  5
57B7
330
18
100
AcDbEntity
  8
OBJECT
  6
CENTER2
 48
0.009
370
     5
100
AcDbLine
 10
-35476.83794057139
 20
-18023.02816418306
 30
0.0
 11
-35476.83885443662
 21
-18193.02816418061
 31
0.0
  0
ARC
  5
57B8
330
18
100
AcDbEntity
  8
OBJECT
  6
Continuous
 48
0.009
370
     5
100
AcDbCircle
 10
-35376.83794057283
 20
-18023.02870175084
 30
0.0
 40
100.0
100
AcDbArc
 50
89.99971594519598
 51
179.9996919963529
  0
ARC
  5
57B9
330
18
100
AcDbEntity
  8
OBJECT
  6
Continuous
 48
0.04
370
     5
100
AcDbCircle
 10
-35376.83885443806
 20
-18193.02870174839
 30
0.0
 40
100.0
100
AcDbArc
 50
179.9996919963529
 51
269.9997159451959
  0
CIRCLE
  5
57BA
330
18
100
AcDbEntity
  8
OBJECT
  6
Continuous
 48
100.0
370
     5
100
AcDbCircle
 10
-35256.83839750549
 20
-18108.02903334133
 30
0.0
 40
165.0
  0
LINE
  5
57BB
330
18
100
AcDbEntity
  8
OBJECT
  6
CENTER2
 48
0.009
370
     5
100
AcDbLine
 10
-34362.01321075732
 20
-18108.03373293991
 30
0.0
 11
-34891.66358427187
 21
-18108.0311070967
 31
0.0
  0
LINE
  5
57BC
330
18
100
AcDbEntity
  8
OBJECT
  6
CENTER2
 48
0.009
370
     5
100
AcDbLine
 10
-34626.83697389973
 20
-17843.2072332616
 30
0.0
 11
-34626.83982112946
 21
-18372.85760677501
 31
0.0
  0
CIRCLE
  5
57BD
330
18
100
AcDbEntity
  8
OBJECT
  6
Continuous
 48
100.0
370
     5
100
AcDbCircle
 10
-34626.8383975146
 20
-18108.03242001831
 30
0.0
 40
133.7
  0
LINE
  5
57BE
330
18
100
AcDbEntity
  8
OBJECT
  6
CENTER2
 48
0.009
370
     5
100
AcDbLine
 10
-34406.8379405849
 20
-18023.03355251029
 30
0.0
 11
-34406.83885445012
 21
-18193.03355250785
 31
0.0
  0
ARC
  5
57BF
330
18
100
AcDbEntity
  8
OBJECT
  6
Continuous
 48
0.04
370
     5
100
AcDbCircle
 10
-34506.83794058345
 20
-18023.03301494251
 30
0.0
 40
100.0
100
AcDbArc
 50
359.9996919963529
 51
89.99971594519585
  0
ARC
  5
57C0
330
18
100
AcDbEntity
  8
OBJECT
  6
Continuous
 48
0.009
370
     5
100
AcDbCircle
 10
-34506.83885444867
 20
-18193.03301494007
 30
0.0
 40
100.0
100
AcDbArc
 50
269.9997159451959
 51
359.9996919963529
  0
CIRCLE
  5
57C1
330
18
100
AcDbEntity
  8
OBJECT
  6
Continuous
 48
100.0
370
     5
100
AcDbCircle
 10
-34626.8383975146
 20
-18108.03242001831
 30
0.0
 40
165.0
  0
LINE
  5
57C2
330
18
100
AcDbEntity
  8
OBJECT
  6
Continuous
 48
100.0
370
     5
100
AcDbLine
 10
-36210.96192644743
 20
-13973.26468627709
 30
0.0
 11
-34791.04543695995
 21
-14683.34935208366
 31
0.0
  0
LINE
  5
57C3
330
18
100
AcDbEntity
  8
OBJECT
  6
Continuous
 48
100.0
370
     5
100
AcDbLine
 10
-36210.96283763717
 20
-14118.61382575417
 30
0.0
 11
-34821.50090707057
 21
-14813.46850060443
 31
0.0
  0
LINE
  5
57C4
330
18
100
AcDbEntity
  8
FS
  6
DASHED
 48
0.008
370
     5
100
AcDbLine
 10
-34321.49721889589
 20
-12813.3720731979
 30
0.0
 11
-34321.50090707142
 21
-14813.46942260343
 31
0.0
  0
MTEXT
  5
57C5
330
18
100
AcDbEntity
  8
FS
  6
Continuous
 48
100.0
370
     5
100
AcDbMText
 10
-36398.22850360631
 20
-14903.40879235276
 30
0.0
 40
250.0
 41
631.9498
 71
     1
 72
     5
  1
0
 73
     1
 44
1.0
  0
MTEXT
  5
57C6
330
18
100
AcDbEntity
  8
FS
  6
Continuous
 48
100.0
370
     5
100
AcDbMText
 10
-34362.46371960608
 20
-14912.99442583394
 30
0.0
 40
250.0
 41
631.9498
 71
     1
 72
     5
  1
1
 73
     1
 44
1.0
  0
MTEXT
  5
57E8
330
18
100
AcDbEntity
  8
OBJECT
  6
Continuous
 48
100.0
370
     5
100
AcDbMText
 10
-32649.42491348768
 20
-22398.0240908068
 30
0.0
 40
250.0
 41
631.9498
 71
     1
 72
     5
  1
2
 73
     1
 44
1.0
  0
MTEXT
  5
57E9
330
18
100
AcDbEntity
  8
OBJECT
  6
Continuous
 48
100.0
370
     5
100
AcDbMText
 10
-30649.42491349108
 20
-22398.0277788028
 30
0.0
 40
250.0
 41
631.9498
 71
     1
 72
     5
  1
3
 73
     1
 44
1.0
  0
MTEXT
  5
57EA
330
18
100
AcDbEntity
  8
BHD
  6
Continuous
 48
100.0
370
     5
100
AcDbMText
 10
-28701.96048224482
 20
-21687.40705569804
 30
0.0
 40
250.0
 41
1600.0
 71
     1
 72
     5
  1
T.BHD
 11
0.0000000000000001
 21
1.0
 31
0.0
 73
     1
 44
1.0
  0
MTEXT
  5
57EB
330
18
100
AcDbEntity
  8
OBJECT
  6
Continuous
 48
100.0
370
     5
100
AcDbMText
 10
-28649.42491349448
 20
-22398.03146679882
 30
0.0
 40
250.0
 41
631.9498
 71
     1
 72
     5
  1
4
 73
     1
 44
1.0
  0
LINE
  5
57EC
330
18
100
AcDbEntity
  8
OBJECT
  6
Continuous
 48
0.04
370
     5
100
AcDbLine
 10
-24756.30217033915
 20
-26323.06367285644
 30
0.0
 11
-23886.30217036288
 21
-26323.07010943908
 31
0.0
  0
LINE
  5
57ED
330
18
100
AcDbEntity
  8
OBJECT
  6
CENTER2
 48
0.009
370
     5
100
AcDbLine
 10
-24901.12876132316
 20
-26508.06260138068
 30
0.0
 11
-24371.47838781658
 21
-26508.06651993056
 31
0.0
  0
ARC
  5
57EE
330
18
100
AcDbEntity
  8
OBJECT
  6
Continuous
 48
0.009
370
     5
100
AcDbCircle
 10
-24756.30291017624
 20
-26423.06367285371
 30
0.0
 40
100.0
100
AcDbArc
 50
89.99957610457501
 51
179.999552155732
  0
LINE
  5
57EF
330
18
100
AcDbEntity
  8
OBJECT
  6
CENTER2
 48
0.009
370
     5
100
AcDbLine
 10
-24856.30423895388
 20
-26593.06289121282
 30
0.0
 11
-24856.30291017319
 21
-26423.062891218
 31
0.0
  0
MTEXT
  5
57F0
330
18
100
AcDbEntity
  8
OBJECT
  6
Continuous
 48
100.0
370
     5
100
AcDbMText
 10
-26649.42491349788
 20
-22398.03515479483
 30
0.0
 40
250.0
 41
631.9498
 71
     1
 72
     5
  1
5
 73
     1
 44
1.0
  0
MTEXT
  5
57F1
330
18
100
AcDbEntity
  8
OBJECT
  6
Continuous
 48
100.0
370
     5
100
AcDbMText
 10
-24649.42491350128
 20
-22398.03884279084
 30
0.0
 40
250.0
 41
631.9498
 71
     1
 72
     5
  1
6
 73
     1
 44
1.0
  0
LINE
  5
57F2
330
18
100
AcDbEntity
  8
OBJECT
  6
CENTER2
 48
0.009
370
     5
100
AcDbLine
 10
-24271.12876134033
 20
-26508.06726235431
 30
0.0
 11
-23741.47838783377
 21
-26508.0711809042
 31
0.0
  0
ARC
  5
57F3
330
18
100
AcDbEntity
  8
OBJECT
  6
Continuous
 48
0.04
370
     5
100
AcDbCircle
 10
-23886.30291019998
 20
-26423.07010943635
 30
0.0
 40
100.0
100
AcDbArc
 50
359.9995521557321
 51
89.99957610457501
  0
LINE
  5
57F4
330
18
100
AcDbEntity
  8
OBJECT
  6
CENTER2
 48
0.009
370
     5
100
AcDbLine
 10
-23786.30423898373
 20
-26593.07089106687
 30
0.0
 11
-23786.30291020304
 21
-26423.07089107205
 31
0.0
  0
MTEXT
  5
57F6
330
18
100
AcDbEntity
  8
OBJECT
  6
Continuous
 48
100.0
370
     5
100
AcDbMText
 10
-22649.42491350469
 20
-22398.04253078684
 30
0.0
 40
250.0
 41
631.9498
 71
     1
 72
     5
  1
7
 73
     1
 44
1.0
  0
MTEXT
  5
57F7
330
18
100
AcDbEntity
  8
OBJECT
  6
Continuous
 48
100.0
370
     5
100
AcDbMText
 10
-20649.42491350808
 20
-22398.04621878286
 30
0.0
 40
250.0
 41
631.9498
 71
     1
 72
     5
  1
8
 73
     1
 44
1.0
  0
LINE
  5
57F8
330
18
100
AcDbEntity
  8
OBJECT
  6
CENTER2
 48
0.009
370
     5
100
AcDbLine
 10
-24901.06661521784
 20
-18108.09096300299
 30
0.0
 11
-24371.41624171126
 21
-18108.09488155287
 31
0.0
  0
CIRCLE
  5
57F9
330
18
100
AcDbEntity
  8
OBJECT
  6
Continuous
 48
100.0
370
     5
100
AcDbCircle
 10
-24636.24142846456
 20
-18108.09292227792
 30
0.0
 40
133.7
  0
CIRCLE
  5
57FA
330
18
100
AcDbEntity
  8
OBJECT
  6
Continuous
 48
100.0
370
     5
100
AcDbCircle
 10
-24636.24142846456
 20
-18108.09292227792
 30
0.0
 40
165.0
  0
LINE
  5
57FB
330
18
100
AcDbEntity
  8
OBJECT
  6
Continuous
 48
0.04
370
     5
100
AcDbLine
 10
-24756.24009529148
 20
-17923.09203447822
 30
0.0
 11
-23886.24009531522
 21
-17923.09847106086
 31
0.0
  0
LINE
  5
57FC
330
18
100
AcDbEntity
  8
OBJECT
  6
Continuous
 48
0.04
370
     5
100
AcDbLine
 10
-24756.24276163105
 20
-18293.09203446862
 30
0.0
 11
-23886.24276165479
 21
-18293.09847105126
 31
0.0
  0
ARC
  5
57FD
330
18
100
AcDbEntity
  8
OBJECT
  6
Continuous
 48
100.0
370
     5
100
AcDbCircle
 10
-24672.14521054091
 20
-16527.09047886533
 30
0.0
 40
350.6177064233055
100
AcDbArc
 50
269.9996408143398
 51
89.99964081434065
  0
LINE
  5
57FE
330
18
100
AcDbEntity
  8
OBJECT
  6
CENTER2
 48
0.009
370
     5
100
AcDbLine
 10
-24856.24083512613
 20
-18023.09133643702
 30
0.0
 11
-24856.24202179153
 21
-18193.09133643289
 31
0.0
  0
ARC
  5
57FF
330
18
100
AcDbEntity
  8
OBJECT
  6
Continuous
 48
0.04
370
     5
100
AcDbCircle
 10
-24756.24083512858
 20
-18023.09203447548
 30
0.0
 40
100.0
100
AcDbArc
 50
89.99957610457498
 51
179.9996000534179
  0
ARC
  5
5800
330
18
100
AcDbEntity
  8
OBJECT
  6
Continuous
 48
0.009
370
     5
100
AcDbCircle
 10
-24756.24202179396
 20
-18193.09203447136
 30
0.0
 40
100.0
100
AcDbArc
 50
179.9996000534179
 51
269.9995761045749
  0
CIRCLE
  5
5801
330
18
100
AcDbEntity
  8
OBJECT
  6
Continuous
 48
100.0
370
     5
100
AcDbCircle
 10
-24006.24142848173
 20
-18108.09758325156
 30
0.0
 40
133.7
  0
ARC
  5
5802
330
18
100
AcDbEntity
  8
OBJECT
  6
Continuous
 48
0.009
370
     5
100
AcDbCircle
 10
-23886.2408351523
 20
-18023.09847105812
 30
0.0
 40
100.0
100
AcDbArc
 50
359.999600053418
 51
89.99957610457485
  0
ARC
  5
5803
330
18
100
AcDbEntity
  8
OBJECT
  6
Continuous
 48
0.04
370
     5
100
AcDbCircle
 10
-23886.24202181771
 20
-18193.098471054
 30
0.0
 40
100.0
100
AcDbArc
 50
269.9995761045749
 51
359.9996000534179
  0
CIRCLE
  5
5804
330
18
100
AcDbEntity
  8
OBJECT
  6
Continuous
 48
100.0
370
     5
100
AcDbCircle
 10
-24006.24142847989
 20
-18108.09731992028
 30
0.0
 40
165.0
  0
LINE
  5
5805
330
18
100
AcDbEntity
  8
OBJECT
  6
CENTER2
 48
0.009
370
     5
100
AcDbLine
 10
-24271.06661523502
 20
-18108.09562397662
 30
0.0
 11
-23741.41624172845
 21
-18108.09954252651
 31
0.0
  0
LINE
  5
5806
330
18
100
AcDbEntity
  8
OBJECT
  6
CENTER2
 48
0.009
370
     5
100
AcDbLine
 10
-24006.23957990006
 20
-17843.27239649748
 30
0.0
 11
-24006.24327706341
 21
-18372.92277000564
 31
0.0
  0
LINE
  5
5807
330
18
100
AcDbEntity
  8
OBJECT
  6
CENTER2
 48
0.009
370
     5
100
AcDbLine
 10
-24636.23957988287
 20
-17843.26773552384
 30
0.0
 11
-24636.24327704623
 21
-18372.918109032
 31
0.0
  0
LINE
  5
5808
330
18
100
AcDbEntity
  8
OBJECT
  6
CENTER2
 48
0.009
370
     5
100
AcDbLine
 10
-23786.24083515474
 20
-18023.0991690966
 30
0.0
 11
-23786.24202182014
 21
-18193.09916909246
 31
0.0
  0
ARC
  5
5809
330
18
100
AcDbEntity
  8
OBJECT
  6
Continuous
 48
100.0
370
     5
100
AcDbCircle
 10
-23970.90979772185
 20
-16527.09487489076
 30
0.0
 40
350.6177064233055
100
AcDbArc
 50
89.99964081434022
 51
269.9996408143411
  0
ARC
  5
580A
330
18
100
AcDbEntity
  8
OBJECT
  6
Continuous
 48
100.0
370
     5
100
AcDbCircle
 10
-24321.52750413137
 20
-16527.09267687804
 30
0.0
 40
350.6177064233055
100
AcDbArc
 50
269.9996408143398
 51
89.99964081434065
  0
ARC
  5
580B
330
18
100
AcDbEntity
  8
OBJECT
  6
Continuous
 48
100.0
370
     5
100
AcDbCircle
 10
-24321.52750413137
 20
-16527.09267687804
 30
0.0
 40
350.6177064233055
100
AcDbArc
 50
89.99964081434022
 51
269.9996408143411
  0
LINE
  5
580C
330
18
100
AcDbEntity
  8
OBJECT
370
     5
100
AcDbLine
 10
-28241.97503381875
 20
-9351.07908678397
 30
0.0
 11
-28188.97503383119
 21
-9351.080234942477
 31
0.0
  0
LINE
  5
580D
330
18
100
AcDbEntity
  8
OBJECT
370
     5
100
AcDbLine
 10
-28258.97488217119
 20
-9344.078718508352
 30
0.0
 11
-28183.97488218878
 21
-9344.080343260955
 31
0.0
  0
LINE
  5
580E
330
18
100
AcDbEntity
  8
OBJECT
370
     5
100
AcDbLine
 10
-28244.46529276349
 20
-7541.253461276126
 30
0.0
 11
-28187.96529276458
 21
-7541.25381033489
 31
0.0
  0
LINE
  5
580F
330
18
100
AcDbEntity
  8
OBJECT
370
     5
100
AcDbLine
 10
-28258.96532983141
 20
-7547.253371694558
 30
0.0
 11
-28183.96532983284
 21
-7547.253835046901
 31
0.0
  0
LINE
  5
5810
330
18
100
AcDbEntity
  8
OBJECT
  6
Continuous
 48
100.0
370
     5
100
AcDbLine
 10
-24321.47592700053
 20
-9203.097042027678
 30
0.0
 11
-28821.47592695703
 21
-9203.076100873607
 31
0.0
  0
LINE
  5
5811
330
18
100
AcDbEntity
  8
OBJECT
  6
Continuous
 48
100.0
370
     5
100
AcDbLine
 10
-24321.47588511823
 20
-9194.097042027777
 30
0.0
 11
-28821.47588507473
 21
-9194.076100873706
 31
0.0
  0
SPLINE
  5
5814
330
18
100
AcDbEntity
  8
OBJECT
  6
Continuous
 48
100.0
370
     5
100
AcDbSpline
210
0.0
220
0.0
230
1.0
 70
     8
 71
     3
 72
    11
 73
     7
 74
     5
 42
0.0000000001
 43
0.0000000001
 44
0.0000000001
 40
0.0
 40
0.0
 40
0.0
 40
0.0
 40
1125.786638342682
 40
2251.233422206712
 40
3376.406908618382
 40
4501.739935552699
 40
4501.739935552699
 40
4501.739935552699
 40
4501.739935552699
 10
-28821.47239488239
 20
-7444.076100876414
 30
0.0
 10
-28446.49648461612
 20
-7429.348891861789
 30
0.0
 10
-27696.65786248029
 20
-7399.898919708665
 30
0.0
 10
-26571.6025821258
 20
-7368.655223561034
 30
0.0
 10
-25446.44067422773
 20
-7347.951078823226
 30
0.0
 10
-24696.26680449469
 20
-7345.386678176241
 30
0.0
 10
-24321.15327936271
 20
-7344.10438695636
 30
0.0
 11
-28821.47239488239
 21
-7444.076100876414
 31
0.0
 11
-27696.47046928569
 21
-7402.049651173432
 31
0.0
 11
-26571.468543689
 21
-7370.409001470452
 31
0.0
 11
-25446.46661809231
 21
-7350.761051767469
 31
0.0
 11
-24321.15327936271
 21
-7344.10438695636
 31
0.0
  0
LINE
  5
5815
330
18
100
AcDbEntity
  8
OBJECT
  6
Continuous
 48
100.0
370
     5
100
AcDbLine
 10
-28821.47239488238
 20
-7444.076100876414
 30
0.0
 11
-24321.46469249562
 21
-7444.103902064488
 31
0.0
  0
LINE
  5
5816
330
18
100
AcDbEntity
  8
OBJECT
  6
Continuous
 48
100.0
370
     5
100
AcDbLine
 10
-24321.47704851568
 20
-9444.09704202507
 30
0.0
 11
-28821.47704847218
 21
-9444.076100870999
 31
0.0
  0
LINE
  5
5817
330
18
100
AcDbEntity
  8
OBJECT
  6
Continuous
 48
100.0
370
     5
100
AcDbLine
 10
-29551.5051743617
 20
-4989.609228090494
 30
0.0
 11
-25009.88821714942
 21
-4989.609228090494
 31
0.0
  0
LINE
  5
5819
330
18
100
AcDbEntity
  8
FS
  6
DASHED
 48
0.008
370
     5
100
AcDbLine
 10
-32321.4972188993
 20
-12813.37576119391
 30
0.0
 11
-32321.50090707482
 21
-14813.47311059944
 31
0.0
  0
MTEXT
  5
581A
330
18
100
AcDbEntity
  8
FS
  6
Continuous
 48
100.0
370
     5
100
AcDbMText
 10
-32398.22275115921
 20
-14903.4161683554
 30
0.0
 40
250.0
 41
631.9498
 71
     1
 72
     5
  1
2
 73
     1
 44
1.0
  0
LINE
  5
582C
330
18
100
AcDbEntity
  8
BHD
  6
DASHED
 48
0.008
370
     5
100
AcDbLine
 10
-28321.49721897137
 20
-12813.41853698097
 30
0.0
 11
-28321.50090708162
 21
-14813.48048659146
 31
0.0
  0
LINE
  5
582D
330
18
100
AcDbEntity
  8
FS
  6
CENTER2
 48
0.009
370
     5
100
AcDbLine
 10
-30321.49721893534
 20
-12813.39714908744
 30
0.0
 11
-30321.50090707821
 21
-14813.47679859545
 31
0.0
  0
MTEXT
  5
582E
330
18
100
AcDbEntity
  8
FS
  6
Continuous
 48
100.0
370
     5
100
AcDbMText
 10
-30398.22275116261
 20
-14903.41985635141
 30
0.0
 40
250.0
 41
631.9498
 71
     1
 72
     5
  1
3
 73
     1
 44
1.0
  0
MTEXT
  5
582F
330
18
100
AcDbEntity
  8
FS
  6
Continuous
 48
100.0
370
     5
100
AcDbMText
 10
-28398.22275116601
 20
-14903.42354434742
 30
0.0
 40
250.0
 41
631.9498
 71
     1
 72
     5
  1
4
 73
     1
 44
1.0
  0
LINE
  5
5830
330
18
100
AcDbEntity
  8
OBJECT
  6
Continuous
 48
100.0
370
     5
100
AcDbLine
 10
-28321.49851036622
 20
-12813.46369612844
 30
0.0
 11
-28321.49710626877
 21
-12673.46369613548
 31
0.0
  0
CIRCLE
  5
5831
330
18
100
AcDbEntity
  8
OBJECT
  6
Continuous
 48
100.0
370
     5
100
AcDbCircle
 10
-28201.49710627232
 20
-12673.4646204322
 30
0.0
 40
50.0
  0
LINE
  5
5832
330
18
100
AcDbEntity
  8
OBJECT
  6
CENTER2
 48
100.0
370
     5
100
AcDbLine
 10
-28201.49863641079
 20
-12803.46462042312
 30
0.0
 11
-28201.4958874434
 21
-12523.46462043721
 31
0.0
  0
LINE
  5
5833
330
18
100
AcDbEntity
  8
OBJECT
  6
Continuous
 48
100.0
370
     5
100
AcDbLine
 10
-28081.49710627589
 20
-12673.46554472892
 30
0.0
 11
-28081.49785887077
 21
-12813.46554472689
 31
0.0
  0
CIRCLE
  5
5834
330
18
100
AcDbEntity
  8
OBJECT
  6
Continuous
 48
100.0
370
     5
100
AcDbCircle
 10
-28201.49710627232
 20
-12673.4646204322
 30
0.0
 40
100.0
  0
ARC
  5
5835
330
18
100
AcDbEntity
  8
OBJECT
  6
Continuous
 48
100.0
370
     5
100
AcDbCircle
 10
-28201.49710627232
 20
-12673.4646204322
 30
0.0
 40
120.0000000000006
100
AcDbArc
 50
359.9995586808262
 51
179.9995586808261
  0
LINE
  5
5836
330
18
100
AcDbEntity
  8
OBJECT
  6
CENTER2
 48
100.0
370
     5
100
AcDbLine
 10
-28351.49710626788
 20
-12673.4634650613
 30
0.0
 11
-28051.49710627677
 21
-12673.4657758031
 31
0.0
  0
LINE
  5
5838
330
18
100
AcDbEntity
  8
OBJECT
370
     5
100
AcDbLine
 10
-28721.47006809947
 20
-7944.077649408322
 30
0.0
 11
-28721.47122949029
 21
-8019.07764939933
 31
0.0
  0
LINE
  5
5839
330
18
100
AcDbEntity
  8
OBJECT
370
     5
100
AcDbLine
 10
-28728.47033134723
 20
-7961.077541009808
 30
0.0
 11
-28728.4711520634
 21
-8014.077541003453
 31
0.0
  0
LINE
  5
583A
330
18
100
AcDbEntity
  8
OBJECT
  6
Continuous
 48
100.0
370
     5
100
AcDbLine
 10
-28562.47646677555
 20
-9194.077306150758
 30
0.0
 11
-28562.10533230179
 21
-7743.150603242206
 31
0.0
  0
LINE
  5
583B
330
18
100
AcDbEntity
  8
OBJECT
  6
Continuous
 48
100.0
370
     5
100
AcDbLine
 10
-28571.4764667755
 20
-9194.077264268448
 30
0.0
 11
-28571.47309161698
 21
-7743.516014160775
 31
0.0
  0
LINE
  5
583C
330
18
100
AcDbEntity
  8
OBJECT
  6
Continuous
 48
100.0
370
     5
100
AcDbLine
 10
-28821.47704847218
 20
-9444.076100870999
 30
0.0
 11
-28821.47239488238
 21
-7444.076100876414
 31
0.0
  0
INSERT
  5
583D
330
18
100
AcDbEntity
  8
OBJECT
  6
Continuous
 48
100.0
370
     5
100
AcDbBlockReference
  2
L130X9
 10
-28829.96232984643
 20
-9452.561382245239
 30
0.0
  0
LINE
  5
583E
330
18
100
AcDbEntity
  8
OBJECT
  6
Continuous
 48
100.0
370
     5
100
AcDbLine
 10
-28547.47588506725
 20
-8944.073160403201
 30
0.0
 11
-28562.47588506698
 21
-8944.07306652875
 31
0.0
  0
LINE
  5
583F
330
18
100
AcDbEntity
  8
OBJECT
  6
Continuous
 48
0.04
370
     5
100
AcDbLine
 10
-28312.47771401505
 20
-9179.074631096083
 30
0.0
 11
-28312.47783075909
 21
-9194.07501220601
 31
0.0
  0
LINE
  5
5840
330
18
100
AcDbEntity
  8
OBJECT
  6
Continuous
 48
100.0
370
     5
100
AcDbLine
 10
-28547.47588506725
 20
-8944.073160403201
 30
0.0
 11
-28312.47771401505
 21
-9179.07463109609
 31
0.0
  0
LINE
  5
5841
330
18
100
AcDbEntity
  8
OBJECT
370
     5
100
AcDbLine
 10
-28258.97488217119
 20
-9344.078718508352
 30
0.0
 11
-28258.97704850798
 21
-9444.07871848489
 31
0.0
  0
LINE
  5
5842
330
18
100
AcDbEntity
  8
OBJECT
370
     5
100
AcDbLine
 10
-28258.97704850798
 20
-9444.07871848489
 30
0.0
 11
-28256.97704850846
 21
-9444.078761811626
 31
0.0
  0
LINE
  5
5843
330
18
100
AcDbEntity
  8
OBJECT
370
     5
100
AcDbLine
 10
-28251.97525045008
 20
-9361.078870147945
 30
0.0
 11
-28251.97694019279
 21
-9439.078870129639
 31
0.0
  0
ARC
  5
5844
330
18
100
AcDbEntity
  8
OBJECT
370
     5
100
AcDbCircle
 10
-28241.97525045242
 20
-9361.079086781622
 30
0.0
 40
10.0
100
AcDbArc
 50
89.99875878044205
 51
179.998758780442
  0
ARC
  5
5845
330
18
100
AcDbEntity
  8
OBJECT
370
     5
100
AcDbCircle
 10
-28256.97694019162
 20
-9439.078761812796
 30
0.0
 40
5.0
100
AcDbArc
 50
269.9987587804421
 51
359.998758780442
  0
LINE
  5
5846
330
18
100
AcDbEntity
  8
OBJECT
  6
Continuous
 48
100.0
370
     5
100
AcDbLine
 10
-28833.47460533745
 20
-8394.076045033337
 30
0.0
 11
-28833.47390729898
 21
-8094.076045033338
 31
0.0
  0
LINE
  5
5847
330
18
100
AcDbEntity
  8
OBJECT
  6
Continuous
 48
100.0
370
     5
100
AcDbLine
 10
-28821.47681579269
 20
-8394.076100866127
 30
0.0
 11
-28833.47460533745
 21
-8394.076045033337
 31
0.0
  0
LINE
  5
5848
330
18
100
AcDbEntity
  8
OBJECT
  6
Continuous
 48
100.0
370
     5
100
AcDbLine
 10
-28821.47541971574
 20
-8094.076100869376
 30
0.0
 11
-28833.47390729898
 21
-8094.076045033338
 31
0.0
  0
LINE
  5
5849
330
18
100
AcDbEntity
  8
OBJECT
370
     5
100
AcDbLine
 10
-28721.47122949029
 20
-8019.07764939933
 30
0.0
 11
-28723.47122949006
 21
-8019.077618428907
 31
0.0
  0
ARC
  5
584A
330
18
100
AcDbEntity
  8
OBJECT
370
     5
100
AcDbCircle
 10
-28723.47115206401
 20
-8014.077618429508
 30
0.0
 40
5.0
100
AcDbArc
 50
179.9991127627759
 51
269.9991127627759
  0
LINE
  5
584B
330
18
100
AcDbEntity
  8
OBJECT
370
     5
100
AcDbLine
 10
-28721.47239489437
 20
-8444.077649402906
 30
0.0
 11
-28821.47239488238
 21
-8444.076100881828
 31
0.0
  0
LINE
  5
584C
330
18
100
AcDbEntity
  8
OBJECT
370
     5
100
AcDbLine
 10
-28821.47239488238
 20
-8444.076100881828
 30
0.0
 11
-28821.47242585281
 21
-8446.076100881587
 31
0.0
  0
LINE
  5
584D
330
18
100
AcDbEntity
  8
OBJECT
370
     5
100
AcDbLine
 10
-28738.47250328882
 20
-8451.077386153485
 30
0.0
 11
-28816.47250327947
 21
-8451.07617830704
 31
0.0
  0
ARC
  5
584E
330
18
100
AcDbEntity
  8
OBJECT
370
     5
100
AcDbCircle
 10
-28738.47265814093
 20
-8461.077386152288
 30
0.0
 40
10.0
100
AcDbArc
 50
359.9991127627759
 51
89.99911276277591
  0
ARC
  5
584F
330
18
100
AcDbEntity
  8
OBJECT
370
     5
100
AcDbCircle
 10
-28816.47242585341
 20
-8446.076178307643
 30
0.0
 40
5.0
100
AcDbArc
 50
179.9991127627759
 51
269.9991127627759
  0
ARC
  5
5850
330
18
100
AcDbEntity
  8
OBJECT
370
     5
100
AcDbCircle
 10
-28723.47347885891
 20
-8514.077618424094
 30
0.0
 40
5.0
100
AcDbArc
 50
179.9991127627759
 51
269.9991127627759
  0
LINE
  5
5851
330
18
100
AcDbEntity
  8
OBJECT
370
     5
100
AcDbLine
 10
-28728.47265814213
 20
-8461.077541004394
 30
0.0
 11
-28728.4734788583
 21
-8514.077540998037
 31
0.0
  0
LINE
  5
5852
330
18
100
AcDbEntity
  8
OBJECT
370
     5
100
AcDbLine
 10
-28721.47239489437
 20
-8444.077649402906
 30
0.0
 11
-28721.47355628518
 21
-8519.077649393913
 31
0.0
  0
LINE
  5
5853
330
18
100
AcDbEntity
  8
OBJECT
370
     5
100
AcDbLine
 10
-28721.47355628518
 20
-8519.077649393913
 30
0.0
 11
-28723.47355628495
 21
-8519.077618423493
 31
0.0
  0
ARC
  5
5854
330
18
100
AcDbEntity
  8
OBJECT
370
     5
100
AcDbCircle
 10
-28816.47475264831
 20
-8946.076178302231
 30
0.0
 40
5.0
100
AcDbArc
 50
179.9991127627759
 51
269.9991127627759
  0
ARC
  5
5855
330
18
100
AcDbEntity
  8
OBJECT
370
     5
100
AcDbCircle
 10
-28723.4758056538
 20
-9014.07761841868
 30
0.0
 40
5.0
100
AcDbArc
 50
179.9991127627759
 51
269.9991127627759
  0
ARC
  5
5856
330
18
100
AcDbEntity
  8
OBJECT
370
     5
100
AcDbCircle
 10
-28738.47498493583
 20
-8961.077386146873
 30
0.0
 40
10.0
100
AcDbArc
 50
359.9991127627759
 51
89.99911276277591
  0
LINE
  5
5857
330
18
100
AcDbEntity
  8
OBJECT
370
     5
100
AcDbLine
 10
-28728.47498493703
 20
-8961.07754099898
 30
0.0
 11
-28728.4758056532
 21
-9014.077540992625
 31
0.0
  0
LINE
  5
5858
330
18
100
AcDbEntity
  8
OBJECT
370
     5
100
AcDbLine
 10
-28738.47483008372
 20
-8951.077386148073
 30
0.0
 11
-28816.47483007435
 21
-8951.076178301628
 31
0.0
  0
LINE
  5
5859
330
18
100
AcDbEntity
  8
OBJECT
370
     5
100
AcDbLine
 10
-28821.47472167728
 20
-8944.076100876413
 30
0.0
 11
-28821.47475264772
 21
-8946.076100876174
 31
0.0
  0
LINE
  5
585A
330
18
100
AcDbEntity
  8
OBJECT
370
     5
100
AcDbLine
 10
-28721.47472168927
 20
-8944.077649397494
 30
0.0
 11
-28721.47588308008
 21
-9019.077649388501
 31
0.0
  0
LINE
  5
585B
330
18
100
AcDbEntity
  8
OBJECT
370
     5
100
AcDbLine
 10
-28721.47472168927
 20
-8944.077649397494
 30
0.0
 11
-28821.47472167728
 21
-8944.076100876413
 31
0.0
  0
LINE
  5
585C
330
18
100
AcDbEntity
  8
OBJECT
370
     5
100
AcDbLine
 10
-28721.47588308008
 20
-9019.077649388501
 30
0.0
 11
-28723.47588307985
 21
-9019.077618418078
 31
0.0
  0
LINE
  5
585D
330
18
100
AcDbEntity
  8
OBJECT
  6
Continuous
 48
100.0
370
     5
100
AcDbLine
 10
-28546.68848125913
 20
-7983.478466519926
 30
0.0
 11
-28561.68848125887
 21
-7983.478375053441
 31
0.0
  0
LINE
  5
585E
330
18
100
AcDbEntity
  8
OBJECT
  6
Continuous
 48
0.04
370
     5
100
AcDbLine
 10
-28311.68740653203
 20
-7748.479899497056
 30
0.0
 11
-28311.68733793043
 21
-7733.479518386833
 31
0.0
  0
LINE
  5
585F
330
18
100
AcDbEntity
  8
OBJECT
  6
Continuous
 48
100.0
370
     5
100
AcDbLine
 10
-28546.68848125914
 20
-7983.478466519926
 30
0.0
 11
-28311.68740653203
 21
-7748.47989949705
 31
0.0
  0
ARC
  5
5860
330
18
100
AcDbEntity
  8
OBJECT
370
     5
100
AcDbCircle
 10
-28244.46524025023
 20
-7532.753461276289
 30
0.0
 40
8.5
100
AcDbArc
 50
179.9996460248852
 51
269.9996460248852
  0
ARC
  5
5861
330
18
100
AcDbEntity
  8
OBJECT
370
     5
100
AcDbCircle
 10
-28256.96458228967
 20
-7426.253384052931
 30
0.0
 40
4.0
100
AcDbArc
 50
359.9996460248852
 51
89.99964602488518
  0
LINE
  5
5862
330
18
100
AcDbEntity
  8
OBJECT
370
     5
100
AcDbLine
 10
-28252.96524025007
 20
-7532.753408763023
 30
0.0
 11
-28252.96458228975
 21
-7426.253408765055
 31
0.0
  0
LINE
  5
5863
330
18
100
AcDbEntity
  8
OBJECT
370
     5
100
AcDbLine
 10
-28258.96532983141
 20
-7547.253371694558
 30
0.0
 11
-28258.96455757751
 21
-7422.253371696943
 31
0.0
  0
LINE
  5
5864
330
18
100
AcDbEntity
  8
OBJECT
370
     5
100
AcDbLine
 10
-28258.96455757751
 20
-7422.253371696943
 30
0.0
 11
-28256.96455757756
 21
-7422.253384053006
 31
0.0
  0
LINE
  5
5865
330
18
100
AcDbEntity
  8
OBJECT
  6
Continuous
 48
100.0
370
     5
100
AcDbLine
 10
-28833.47320926051
 20
-7794.076045033335
 30
0.0
 11
-28833.47251122204
 21
-7494.076045033337
 31
0.0
  0
LINE
  5
5866
330
18
100
AcDbEntity
  8
OBJECT
  6
Continuous
 48
100.0
370
     5
100
AcDbLine
 10
-28821.47402363882
 20
-7794.076100872624
 30
0.0
 11
-28833.47320926051
 21
-7794.076045033335
 31
0.0
  0
LINE
  5
5867
330
18
100
AcDbEntity
  8
OBJECT
  6
Continuous
 48
100.0
370
     5
100
AcDbLine
 10
-28821.47262756189
 20
-7494.076100875872
 30
0.0
 11
-28833.47251122204
 21
-7494.076045033337
 31
0.0
  0
ARC
  5
5868
330
18
100
AcDbEntity
  8
OBJECT
370
     5
100
AcDbCircle
 10
-28816.47009905851
 20
-7946.076178313058
 30
0.0
 40
5.0
100
AcDbArc
 50
179.9991127627759
 51
269.9991127627759
  0
ARC
  5
5869
330
18
100
AcDbEntity
  8
OBJECT
370
     5
100
AcDbCircle
 10
-28738.47033134603
 20
-7961.077386157701
 30
0.0
 40
10.0
100
AcDbArc
 50
359.9991127627759
 51
89.99911276277591
  0
LINE
  5
586A
330
18
100
AcDbEntity
  8
OBJECT
370
     5
100
AcDbLine
 10
-28738.47017649393
 20
-7951.0773861589
 30
0.0
 11
-28816.47017648457
 21
-7951.076178312456
 31
0.0
  0
LINE
  5
586B
330
18
100
AcDbEntity
  8
OBJECT
370
     5
100
AcDbLine
 10
-28821.4700680875
 20
-7944.076100887241
 30
0.0
 11
-28821.47009905791
 21
-7946.076100887001
 31
0.0
  0
LINE
  5
586C
330
18
100
AcDbEntity
  8
OBJECT
370
     5
100
AcDbLine
 10
-28721.47006809947
 20
-7944.077649408322
 30
0.0
 11
-28821.4700680875
 21
-7944.076100887241
 31
0.0
  0
MTEXT
  5
586D
330
18
100
AcDbEntity
  8
OBJECT
  6
ByBlock
 62
     0
 48
100.0
370
     5
100
AcDbMText
 10
-24283.7996329817
 20
-15584.2635978105
 30
0.0
 40
320.0
 41
0.0
 71
     5
 72
     1
  1
\A1;FRAME SPACE 2000
 11
0.9999999999213999
 21
-0.0000125379447703
 31
0.0
 73
     1
 44
1.0
  0
LINE
  5
586E
330
18
100
AcDbEntity
  8
OBJECT
  6
ByBlock
 62
     0
 48
100.0
370
     5
100
AcDbLine
 10
-21895.45134011957
 20
-15865.52770303128
 30
0.0
 11
-26747.57878992776
 21
-15865.49326245332
 31
0.0
  0
LINE
  5
586F
330
18
100
AcDbEntity
  8
OBJECT
  6
CENTER2
 48
0.009
370
     5
100
AcDbLine
 10
-24321.49721904345
 20
-12813.46131276803
 30
0.0
 11
-24321.50090708843
 21
-14813.48786258348
 31
0.0
  0
LINE
  5
5870
330
18
100
AcDbEntity
  8
FS
  6
CENTER2
 48
0.009
370
     5
100
AcDbLine
 10
-26321.49721900741
 20
-12813.4399248745
 30
0.0
 11
-26321.50090708502
 21
-14813.48417458747
 31
0.0
  0
SOLID
  5
5871
330
18
100
AcDbEntity
  8
OBJECT
  6
ByBlock
 62
     0
 48
100.0
370
     5
100
AcDbTrace
 10
-26747.57800630621
 20
-15802.99326245823
 30
0.0
 11
-26747.5795735493
 21
-15927.99326244841
 31
0.0
 12
-27122.57878989828
 22
-15865.48856072403
 32
0.0
 13
-27122.57878989828
 23
-15865.48856072403
 33
0.0
  0
MTEXT
  5
5872
330
18
100
AcDbEntity
  8
FS
  6
Continuous
 48
100.0
370
     5
100
AcDbMText
 10
-26398.22275116941
 20
-14903.42723234343
 30
0.0
 40
250.0
 41
631.9498
 71
     1
 72
     5
  1
5
 73
     1
 44
1.0
  0
MTEXT
  5
5873
330
18
100
AcDbEntity
  8
FS
  6
Continuous
 48
100.0
370
     5
100
AcDbMText
 10
-24398.22275117281
 20
-14903.43092033944
 30
0.0
 40
250.0
 41
631.9498
 71
     1
 72
     5
  1
6
 73
     1
 44
1.0
  0
LINE
  5
5874
330
18
100
AcDbEntity
  8
BHD
  6
DASHED
 48
0.008
370
     5
100
AcDbLine
 10
-20321.49721911553
 20
-12813.50408855509
 30
0.0
 11
-20321.50090709522
 21
-14813.4952385755
 31
0.0
  0
LINE
  5
5875
330
18
100
AcDbEntity
  8
FS
  6
CENTER2
 48
0.009
370
     5
100
AcDbLine
 10
-22321.4972190795
 20
-12813.48270066156
 30
0.0
 11
-22321.50090709183
 21
-14813.49155057949
 31
0.0
  0
MTEXT
  5
5876
330
18
100
AcDbEntity
  8
FS
  6
Continuous
 48
100.0
370
     5
100
AcDbMText
 10
-22398.22275117621
 20
-14903.43460833544
 30
0.0
 40
250.0
 41
631.9498
 71
     1
 72
     5
  1
7
 73
     1
 44
1.0
  0
SOLID
  5
5877
330
18
100
AcDbEntity
  8
OBJECT
  6
ByBlock
 62
     0
 48
100.0
370
     5
100
AcDbTrace
 10
-21895.45055649802
 20
-15803.02770303619
 30
0.0
 11
-21895.45212374112
 21
-15928.02770302636
 31
0.0
 12
-21520.45134014904
 22
-15865.53240476057
 32
0.0
 13
-21520.45134014904
 23
-15865.53240476057
 33
0.0
  0
LINE
  5
5878
330
18
100
AcDbEntity
  8
OBJECT
  6
HIDDEN2
 48
0.02
370
     5
100
AcDbLine
 10
-26642.37520640507
 20
-7681.153726648339
 30
0.0
 11
-26644.07550398551
 21
-9194.086248846312
 31
0.0
  0
LINE
  5
5879
330
18
100
AcDbEntity
  8
OBJECT
  6
HIDDEN2
 48
0.02
370
     5
100
AcDbLine
 10
-26498.86613652485
 20
-7677.833324725686
 30
0.0
 11
-26498.87550398674
 21
-9194.08689405872
 31
0.0
  0
LINE
  5
587A
330
18
100
AcDbEntity
  8
OBJECT
  6
Continuous
 48
0.04
370
     5
100
AcDbLine
 10
-26487.17715429052
 20
-7677.570579902945
 30
0.0
 11
-26488.87550398693
 21
-9194.086955839033
 31
0.0
  0
LINE
  5
587B
330
18
100
AcDbEntity
  8
OBJECT
  6
Continuous
 48
0.04
370
     5
100
AcDbLine
 10
-26652.36350786248
 20
-7681.391291578792
 30
0.0
 11
-26654.07550398533
 21
-9194.086187065998
 31
0.0
  0
LINE
  5
587C
330
18
100
AcDbEntity
  8
OBJECT
  6
CENTER2
 48
0.04
370
     5
100
AcDbLine
 10
-26571.46563743622
 20
-7597.04868742312
 30
0.0
 11
-26571.4755595884
 21
-9203.086571452352
 31
0.0
  0
LINE
  5
587D
330
18
100
AcDbEntity
  8
OBJECT
  6
Continuous
 48
100.0
370
     5
100
AcDbLine
 10
-26472.96431415598
 20
-9323.587488319082
 30
0.0
 11
-26512.83220494752
 21
-9334.269444344666
 31
0.0
  0
LINE
  5
587E
330
18
100
AcDbEntity
  8
OBJECT
  6
Continuous
 48
100.0
370
     5
100
AcDbLine
 10
-26472.96431415598
 20
-9323.587488319082
 30
0.0
 11
-26512.83200610285
 21
-9312.904790180111
 31
0.0
  0
LINE
  5
587F
330
18
100
AcDbEntity
  8
OBJECT
  6
Continuous
 48
100.0
370
     5
100
AcDbLine
 10
-26556.47632690838
 20
-9323.586711057782
 30
0.0
 11
-26472.96431415598
 21
-9323.587488319082
 31
0.0
  0
LINE
  5
5880
330
18
100
AcDbEntity
  8
OBJECT
370
     5
100
AcDbLine
 10
-27679.47681907707
 20
-9351.081704419922
 30
0.0
 11
-27626.47681908951
 21
-9351.082852578427
 31
0.0
  0
LINE
  5
5881
330
18
100
AcDbEntity
  8
OBJECT
370
     5
100
AcDbLine
 10
-27696.47666742951
 20
-9344.081336144304
 30
0.0
 11
-27621.4766674471
 21
-9344.082960896907
 31
0.0
  0
ARC
  5
5882
330
18
100
AcDbEntity
  8
OBJECT
370
     5
100
AcDbCircle
 10
-27626.47671077266
 20
-9346.0828525796
 30
0.0
 40
5.0
100
AcDbArc
 50
269.9987587804421
 51
359.998758780442
  0
LINE
  5
5883
330
18
100
AcDbEntity
  8
OBJECT
370
     5
100
AcDbLine
 10
-27621.4766674471
 20
-9344.082960896907
 30
0.0
 11
-27621.47671077384
 21
-9346.082960896444
 31
0.0
  0
LINE
  5
5884
330
18
100
AcDbEntity
  8
OBJECT
370
     5
100
AcDbLine
 10
-27696.47666742951
 20
-9344.081336144304
 30
0.0
 11
-27696.4788337663
 21
-9444.081336120843
 31
0.0
  0
LINE
  5
5885
330
18
100
AcDbEntity
  8
OBJECT
370
     5
100
AcDbLine
 10
-27696.4788337663
 20
-9444.081336120843
 30
0.0
 11
-27694.47883376677
 21
-9444.081379447579
 31
0.0
  0
LINE
  5
5886
330
18
100
AcDbEntity
  8
OBJECT
370
     5
100
AcDbLine
 10
-27689.4770357084
 20
-9361.081487783897
 30
0.0
 11
-27689.4787254511
 21
-9439.081487765589
 31
0.0
  0
ARC
  5
5887
330
18
100
AcDbEntity
  8
OBJECT
370
     5
100
AcDbCircle
 10
-27679.47703571075
 20
-9361.081704417573
 30
0.0
 40
10.0
100
AcDbArc
 50
89.99875878044205
 51
179.998758780442
  0
ARC
  5
5888
330
18
100
AcDbEntity
  8
OBJECT
370
     5
100
AcDbCircle
 10
-27694.47872544994
 20
-9439.081379448747
 30
0.0
 40
5.0
100
AcDbArc
 50
269.9987587804421
 51
359.998758780442
  0
ARC
  5
5889
330
18
100
AcDbEntity
  8
OBJECT
370
     5
100
AcDbCircle
 10
-28188.97492551434
 20
-9346.080234943649
 30
0.0
 40
5.0
100
AcDbArc
 50
269.9987587804421
 51
359.998758780442
  0
LINE
  5
588A
330
18
100
AcDbEntity
  8
OBJECT
370
     5
100
AcDbLine
 10
-28183.97488218878
 20
-9344.080343260955
 30
0.0
 11
-28183.97492551552
 21
-9346.080343260494
 31
0.0
  0
LINE
  5
588B
330
18
100
AcDbEntity
  8
OBJECT
  6
Continuous
 48
100.0
370
     5
100
AcDbLine
 10
-26630.12051032519
 20
-9312.904035932801
 30
0.0
 11
-26630.12054829256
 21
-9323.586363015476
 31
0.0
  0
LINE
  5
588C
330
18
100
AcDbEntity
  8
OBJECT
  6
Continuous
 48
100.0
370
     5
100
AcDbLine
 10
-26669.98833966325
 20
-9323.586221316471
 30
0.0
 11
-26630.12051032519
 21
-9312.904035932801
 31
0.0
  0
LINE
  5
588D
330
18
100
AcDbEntity
  8
OBJECT
  6
Continuous
 48
100.0
370
     5
100
AcDbLine
 10
-26669.98833966325
 20
-9323.586221316471
 30
0.0
 11
-26630.12058625993
 21
-9334.268690098147
 31
0.0
  0
LINE
  5
588E
330
18
100
AcDbEntity
  8
OBJECT
  6
Continuous
 48
100.0
370
     5
100
AcDbLine
 10
-26630.12058625993
 20
-9334.268690098147
 30
0.0
 11
-26630.12054829256
 21
-9323.586363015477
 31
0.0
  0
LINE
  5
588F
330
18
100
AcDbEntity
  8
OBJECT
  6
Continuous
 48
100.0
370
     5
100
AcDbLine
 10
-26586.47632690775
 20
-9323.58651813675
 30
0.0
 11
-26669.98833966325
 21
-9323.586221316471
 31
0.0
  0
LINE
  5
5890
330
18
100
AcDbEntity
  8
OBJECT
  6
Continuous
 48
100.0
370
     5
100
AcDbLine
 10
-26512.83220494752
 20
-9334.269444344666
 30
0.0
 11
-26512.83210552519
 21
-9323.587117262389
 31
0.0
  0
LINE
  5
5891
330
18
100
AcDbEntity
  8
OBJECT
  6
Continuous
 48
100.0
370
     5
100
AcDbLine
 10
-26512.83200610285
 20
-9312.904790180111
 30
0.0
 11
-26512.83210552519
 21
-9323.587117262389
 31
0.0
  0
LINE
  5
5892
330
18
100
AcDbEntity
  8
OBJECT
  6
Continuous
 48
100.0
370
     5
100
AcDbLine
 10
-26571.47574492934
 20
-9233.086571451815
 30
0.0
 11
-26571.47690888624
 21
-9414.086571448361
 31
0.0
  0
LINE
  5
5893
330
18
100
AcDbEntity
  8
OBJECT
  6
Continuous
 48
0.04
370
     5
100
AcDbLine
 10
-26904.07541130617
 20
-9179.084009610379
 30
0.0
 11
-26904.075503979
 21
-9194.084390720473
 31
0.0
  0
LINE
  5
5894
330
18
100
AcDbEntity
  8
OBJECT
  6
Continuous
 48
100.0
370
     5
100
AcDbLine
 10
-26669.07395947554
 20
-8944.085819695667
 30
0.0
 11
-26654.07395947597
 21
-8944.085935232758
 31
0.0
  0
LINE
  5
5895
330
18
100
AcDbEntity
  8
OBJECT
  6
Continuous
 48
100.0
370
     5
100
AcDbLine
 10
-26669.07395947554
 20
-8944.085819695667
 30
0.0
 11
-26904.07541130618
 21
-9179.084009610383
 31
0.0
  0
ARC
  5
5896
330
18
100
AcDbEntity
  8
OBJECT
370
     5
100
AcDbCircle
 10
-27131.97694017211
 20
-9439.083997131682
 30
0.0
 40
5.0
100
AcDbArc
 50
269.9987587804421
 51
359.998758780442
  0
ARC
  5
5897
330
18
100
AcDbEntity
  8
OBJECT
370
     5
100
AcDbCircle
 10
-27116.97525043294
 20
-9361.084322100508
 30
0.0
 40
10.0
100
AcDbArc
 50
89.99875878044205
 51
179.998758780442
  0
LINE
  5
5898
330
18
100
AcDbEntity
  8
OBJECT
370
     5
100
AcDbLine
 10
-27126.9752504306
 20
-9361.084105466831
 30
0.0
 11
-27126.97694017329
 21
-9439.084105448525
 31
0.0
  0
LINE
  5
5899
330
18
100
AcDbEntity
  8
OBJECT
370
     5
100
AcDbLine
 10
-27133.9770484885
 20
-9444.083953803776
 30
0.0
 11
-27131.97704848896
 21
-9444.083997130512
 31
0.0
  0
LINE
  5
589A
330
18
100
AcDbEntity
  8
OBJECT
370
     5
100
AcDbLine
 10
-27133.9748821517
 20
-9344.083953827237
 30
0.0
 11
-27133.9770484885
 21
-9444.083953803776
 31
0.0
  0
LINE
  5
589B
330
18
100
AcDbEntity
  8
OBJECT
370
     5
100
AcDbLine
 10
-27058.97488216929
 20
-9344.085578579841
 30
0.0
 11
-27058.97492549603
 21
-9346.08557857938
 31
0.0
  0
ARC
  5
589C
330
18
100
AcDbEntity
  8
OBJECT
370
     5
100
AcDbCircle
 10
-27063.97492549486
 20
-9346.085470262535
 30
0.0
 40
5.0
100
AcDbArc
 50
269.9987587804421
 51
359.998758780442
  0
LINE
  5
589D
330
18
100
AcDbEntity
  8
OBJECT
370
     5
100
AcDbLine
 10
-27133.9748821517
 20
-9344.083953827237
 30
0.0
 11
-27058.97488216929
 21
-9344.085578579841
 31
0.0
  0
LINE
  5
589E
330
18
100
AcDbEntity
  8
OBJECT
370
     5
100
AcDbLine
 10
-27116.97503379926
 20
-9351.084322102854
 30
0.0
 11
-27063.9750338117
 21
-9351.085470261361
 31
0.0
  0
LINE
  5
589F
330
18
100
AcDbEntity
  8
OBJECT
  6
Continuous
 48
100.0
370
     5
100
AcDbLine
 10
-26473.87395947927
 20
-8944.087025647359
 30
0.0
 11
-26238.87541131888
 21
-9179.08811923675
 31
0.0
  0
LINE
  5
58A0
330
18
100
AcDbEntity
  8
OBJECT
  6
Continuous
 48
0.04
370
     5
100
AcDbLine
 10
-26238.87541131888
 20
-9179.088119236743
 30
0.0
 11
-26238.8755039917
 21
-9194.088500346838
 31
0.0
  0
LINE
  5
58A1
330
18
100
AcDbEntity
  8
OBJECT
  6
Continuous
 48
100.0
370
     5
100
AcDbLine
 10
-26473.87395947926
 20
-8944.087025647359
 30
0.0
 11
-26488.87395947911
 21
-8944.086955843511
 31
0.0
  0
ARC
  5
58A2
330
18
100
AcDbEntity
  8
OBJECT
370
     5
100
AcDbCircle
 10
-26006.97694016011
 20
-9439.089232420199
 30
0.0
 40
5.0
100
AcDbArc
 50
269.9987587804421
 51
359.998758780442
  0
ARC
  5
58A3
330
18
100
AcDbEntity
  8
OBJECT
370
     5
100
AcDbCircle
 10
-25991.97525042092
 20
-9361.089557389025
 30
0.0
 40
10.0
100
AcDbArc
 50
89.99875878044205
 51
179.998758780442
  0
LINE
  5
58A4
330
18
100
AcDbEntity
  8
OBJECT
370
     5
100
AcDbLine
 10
-26001.97525041859
 20
-9361.089340755349
 30
0.0
 11
-26001.97694016129
 21
-9439.089340737043
 31
0.0
  0
LINE
  5
58A5
330
18
100
AcDbEntity
  8
OBJECT
370
     5
100
AcDbLine
 10
-26008.97704847649
 20
-9444.089189092293
 30
0.0
 11
-26006.97704847696
 21
-9444.089232419029
 31
0.0
  0
LINE
  5
58A6
330
18
100
AcDbEntity
  8
OBJECT
370
     5
100
AcDbLine
 10
-26008.97488213968
 20
-9344.089189115754
 30
0.0
 11
-26008.97704847649
 21
-9444.089189092293
 31
0.0
  0
LINE
  5
58A7
330
18
100
AcDbEntity
  8
OBJECT
370
     5
100
AcDbLine
 10
-25933.97488215729
 20
-9344.09081386836
 30
0.0
 11
-25933.97492548402
 21
-9346.090813867897
 31
0.0
  0
ARC
  5
58A8
330
18
100
AcDbEntity
  8
OBJECT
370
     5
100
AcDbCircle
 10
-25938.97492548285
 20
-9346.090705551054
 30
0.0
 40
5.0
100
AcDbArc
 50
269.9987587804421
 51
359.998758780442
  0
LINE
  5
58A9
330
18
100
AcDbEntity
  8
OBJECT
370
     5
100
AcDbLine
 10
-26008.97488213968
 20
-9344.089189115754
 30
0.0
 11
-25933.97488215729
 21
-9344.09081386836
 31
0.0
  0
LINE
  5
58AA
330
18
100
AcDbEntity
  8
OBJECT
370
     5
100
AcDbLine
 10
-25991.97503378726
 20
-9351.089557391373
 30
0.0
 11
-25938.97503379968
 21
-9351.090705549879
 31
0.0
  0
ARC
  5
58AB
330
18
100
AcDbEntity
  8
OBJECT
370
     5
100
AcDbCircle
 10
-24881.97694020532
 20
-9439.095325207018
 30
0.0
 40
5.0
100
AcDbArc
 50
269.9987587804421
 51
359.998758780442
  0
ARC
  5
58AC
330
18
100
AcDbEntity
  8
OBJECT
370
     5
100
AcDbCircle
 10
-24866.97525046615
 20
-9361.095650175846
 30
0.0
 40
10.0
100
AcDbArc
 50
89.99875878044205
 51
179.998758780442
  0
LINE
  5
58AD
330
18
100
AcDbEntity
  8
OBJECT
370
     5
100
AcDbLine
 10
-24876.9752504638
 20
-9361.095433542168
 30
0.0
 11
-24876.97694020651
 21
-9439.095433523862
 31
0.0
  0
LINE
  5
58AE
330
18
100
AcDbEntity
  8
OBJECT
370
     5
100
AcDbLine
 10
-24883.9770485217
 20
-9444.095281879114
 30
0.0
 11
-24881.97704852218
 21
-9444.09532520585
 31
0.0
  0
LINE
  5
58AF
330
18
100
AcDbEntity
  8
OBJECT
370
     5
100
AcDbLine
 10
-24883.97488218491
 20
-9344.095281902575
 30
0.0
 11
-24883.9770485217
 21
-9444.095281879114
 31
0.0
  0
LINE
  5
58B0
330
18
100
AcDbEntity
  8
OBJECT
370
     5
100
AcDbLine
 10
-24808.9748822025
 20
-9344.096906655179
 30
0.0
 11
-24808.97492552924
 21
-9346.096906654716
 31
0.0
  0
ARC
  5
58B1
330
18
100
AcDbEntity
  8
OBJECT
370
     5
100
AcDbCircle
 10
-24813.97492552806
 20
-9346.096798337873
 30
0.0
 40
5.0
100
AcDbArc
 50
269.9987587804421
 51
359.998758780442
  0
LINE
  5
58B2
330
18
100
AcDbEntity
  8
OBJECT
370
     5
100
AcDbLine
 10
-24883.97488218491
 20
-9344.095281902575
 30
0.0
 11
-24808.9748822025
 21
-9344.096906655179
 31
0.0
  0
LINE
  5
58B3
330
18
100
AcDbEntity
  8
OBJECT
370
     5
100
AcDbLine
 10
-24866.97503383247
 20
-9351.095650178192
 30
0.0
 11
-24813.97503384491
 21
-9351.096798336699
 31
0.0
  0
LINE
  5
58B4
330
18
100
AcDbEntity
  8
OBJECT
370
     5
100
AcDbLine
 10
-25429.47503382704
 20
-9351.093032533935
 30
0.0
 11
-25376.47503383947
 21
-9351.09418069244
 31
0.0
  0
LINE
  5
58B5
330
18
100
AcDbEntity
  8
OBJECT
370
     5
100
AcDbLine
 10
-25446.47488217946
 20
-9344.092664258317
 30
0.0
 11
-25371.47488219707
 21
-9344.09428901092
 31
0.0
  0
ARC
  5
58B6
330
18
100
AcDbEntity
  8
OBJECT
370
     5
100
AcDbCircle
 10
-25376.47492552264
 20
-9346.094180693613
 30
0.0
 40
5.0
100
AcDbArc
 50
269.9987587804421
 51
359.998758780442
  0
LINE
  5
58B7
330
18
100
AcDbEntity
  8
OBJECT
370
     5
100
AcDbLine
 10
-25371.47488219707
 20
-9344.09428901092
 30
0.0
 11
-25371.4749255238
 21
-9346.094289010457
 31
0.0
  0
LINE
  5
58B8
330
18
100
AcDbEntity
  8
OBJECT
370
     5
100
AcDbLine
 10
-25446.47488217946
 20
-9344.092664258317
 30
0.0
 11
-25446.47704851628
 21
-9444.092664234856
 31
0.0
  0
LINE
  5
58B9
330
18
100
AcDbEntity
  8
OBJECT
370
     5
100
AcDbLine
 10
-25446.47704851628
 20
-9444.092664234856
 30
0.0
 11
-25444.47704851674
 21
-9444.092707561592
 31
0.0
  0
LINE
  5
58BA
330
18
100
AcDbEntity
  8
OBJECT
370
     5
100
AcDbLine
 10
-25439.47525045838
 20
-9361.09281589791
 30
0.0
 11
-25439.47694020107
 21
-9439.092815879602
 31
0.0
  0
ARC
  5
58BB
330
18
100
AcDbEntity
  8
OBJECT
370
     5
100
AcDbCircle
 10
-25429.4752504607
 20
-9361.093032531586
 30
0.0
 40
10.0
100
AcDbArc
 50
89.99875878044205
 51
179.998758780442
  0
ARC
  5
58BC
330
18
100
AcDbEntity
  8
OBJECT
370
     5
100
AcDbCircle
 10
-25444.47694019989
 20
-9439.09270756276
 30
0.0
 40
5.0
100
AcDbArc
 50
269.9987587804421
 51
359.998758780442
  0
LINE
  5
58BD
330
18
100
AcDbEntity
  8
OBJECT
  6
Continuous
 48
100.0
370
     5
100
AcDbLine
 10
-26472.9529230733
 20
-7452.668102312792
 30
0.0
 11
-26512.82061502017
 21
-7441.98540417382
 31
0.0
  0
LINE
  5
58BE
330
18
100
AcDbEntity
  8
OBJECT
  6
Continuous
 48
100.0
370
     5
100
AcDbLine
 10
-26472.9529230733
 20
-7452.668102312792
 30
0.0
 11
-26512.82081386485
 21
-7463.350058338375
 31
0.0
  0
LINE
  5
58BF
330
18
100
AcDbEntity
  8
OBJECT
  6
Continuous
 48
100.0
370
     5
100
AcDbLine
 10
-26556.4649358257
 20
-7452.667325051492
 30
0.0
 11
-26472.9529230733
 21
-7452.668102312792
 31
0.0
  0
LINE
  5
58C0
330
18
100
AcDbEntity
  8
OBJECT
370
     5
100
AcDbLine
 10
-27696.47046928569
 20
-7402.049651173432
 30
0.0
 11
-27694.47046928573
 21
-7402.049663529495
 31
0.0
  0
ARC
  5
58C1
330
18
100
AcDbEntity
  8
OBJECT
370
     5
100
AcDbCircle
 10
-27694.47049399786
 20
-7406.04966352942
 30
0.0
 40
4.0
100
AcDbArc
 50
359.9996460248852
 51
89.99964602488518
  0
ARC
  5
58C2
330
18
100
AcDbEntity
  8
OBJECT
370
     5
100
AcDbCircle
 10
-27681.97115195841
 20
-7512.549740752776
 30
0.0
 40
8.5
100
AcDbArc
 50
179.9996460248852
 51
269.9996460248852
  0
ARC
  5
58C3
330
18
100
AcDbEntity
  8
OBJECT
370
     5
100
AcDbCircle
 10
-27625.47122918489
 20
-7525.050089811303
 30
0.0
 40
4.0
100
AcDbArc
 50
359.9996460248852
 51
89.99964602488518
  0
LINE
  5
58C4
330
18
100
AcDbEntity
  8
OBJECT
370
     5
100
AcDbLine
 10
-27681.97120447168
 20
-7521.049740752613
 30
0.0
 11
-27625.47120447277
 21
-7521.050089811378
 31
0.0
  0
LINE
  5
58C5
330
18
100
AcDbEntity
  8
OBJECT
370
     5
100
AcDbLine
 10
-27621.47124154102
 20
-7527.050114523388
 30
0.0
 11
-27621.47122918496
 21
-7525.050114523427
 31
0.0
  0
LINE
  5
58C6
330
18
100
AcDbEntity
  8
OBJECT
370
     5
100
AcDbLine
 10
-27696.47124153959
 20
-7527.049651171046
 30
0.0
 11
-27621.47124154102
 21
-7527.050114523388
 31
0.0
  0
LINE
  5
58C7
330
18
100
AcDbEntity
  8
OBJECT
370
     5
100
AcDbLine
 10
-27696.47124153959
 20
-7527.049651171046
 30
0.0
 11
-27696.47046928569
 21
-7402.049651173432
 31
0.0
  0
LINE
  5
58C8
330
18
100
AcDbEntity
  8
OBJECT
370
     5
100
AcDbLine
 10
-27690.47115195825
 20
-7512.549688239509
 30
0.0
 11
-27690.47049399793
 21
-7406.049688241544
 31
0.0
  0
ARC
  5
58C9
330
18
100
AcDbEntity
  8
OBJECT
370
     5
100
AcDbCircle
 10
-28187.9653174767
 20
-7545.253810334815
 30
0.0
 40
4.0
100
AcDbArc
 50
359.9996460248852
 51
89.99964602488518
  0
LINE
  5
58CA
330
18
100
AcDbEntity
  8
OBJECT
370
     5
100
AcDbLine
 10
-28183.96532983284
 20
-7547.253835046901
 30
0.0
 11
-28183.96531747678
 21
-7545.253835046938
 31
0.0
  0
LINE
  5
58CB
330
18
100
AcDbEntity
  8
OBJECT
  6
Continuous
 48
100.0
370
     5
100
AcDbLine
 10
-26512.82061502017
 20
-7441.98540417382
 30
0.0
 11
-26512.82071444252
 21
-7452.667731256098
 31
0.0
  0
LINE
  5
58CC
330
18
100
AcDbEntity
  8
OBJECT
  6
Continuous
 48
100.0
370
     5
100
AcDbLine
 10
-26512.82081386485
 20
-7463.350058338375
 30
0.0
 11
-26512.82071444251
 21
-7452.667731256099
 31
0.0
  0
LINE
  5
58CD
330
18
100
AcDbEntity
  8
OBJECT
  6
Continuous
 48
100.0
370
     5
100
AcDbLine
 10
-26586.46493582509
 20
-7452.667132130459
 30
0.0
 11
-26669.97694858058
 21
-7452.666835310181
 31
0.0
  0
LINE
  5
58CE
330
18
100
AcDbEntity
  8
OBJECT
  6
Continuous
 48
100.0
370
     5
100
AcDbLine
 10
-26630.10919517725
 20
-7463.349304091855
 30
0.0
 11
-26630.1091572099
 21
-7452.666977009186
 31
0.0
  0
LINE
  5
58CF
330
18
100
AcDbEntity
  8
OBJECT
  6
Continuous
 48
100.0
370
     5
100
AcDbLine
 10
-26669.97694858058
 20
-7452.666835310181
 30
0.0
 11
-26630.10919517725
 21
-7463.349304091855
 31
0.0
  0
LINE
  5
58D0
330
18
100
AcDbEntity
  8
OBJECT
  6
Continuous
 48
100.0
370
     5
100
AcDbLine
 10
-26669.97694858058
 20
-7452.666835310181
 30
0.0
 11
-26630.10911924252
 21
-7441.98464992651
 31
0.0
  0
LINE
  5
58D1
330
18
100
AcDbEntity
  8
OBJECT
  6
Continuous
 48
100.0
370
     5
100
AcDbLine
 10
-26630.10911924252
 20
-7441.98464992651
 30
0.0
 11
-26630.10915720988
 21
-7452.666977009184
 31
0.0
  0
LINE
  5
58D2
330
18
100
AcDbEntity
  8
OBJECT
  6
Continuous
 48
100.0
370
     5
100
AcDbLine
 10
-26572.25629345278
 20
-7326.795107441009
 30
0.0
 11
-26571.46545189503
 21
-7567.016272342407
 31
0.0
  0
LINE
  5
58D3
330
18
100
AcDbEntity
  8
OBJECT
  6
Continuous
 48
100.0
370
     5
100
AcDbLine
 10
-26669.06735432521
 20
-7937.663691929819
 30
0.0
 11
-26654.06735432535
 21
-7937.663761733664
 31
0.0
  0
LINE
  5
58D4
330
18
100
AcDbEntity
  8
OBJECT
  6
Continuous
 48
0.04
370
     5
100
AcDbLine
 10
-26904.06590248559
 20
-7702.662598340438
 30
0.0
 11
-26904.06580981278
 21
-7687.662217230344
 31
0.0
  0
LINE
  5
58D5
330
18
100
AcDbEntity
  8
OBJECT
  6
Continuous
 48
100.0
370
     5
100
AcDbLine
 10
-26669.06735432519
 20
-7937.663691929819
 30
0.0
 11
-26904.0659024856
 21
-7702.662598340433
 31
0.0
  0
LINE
  5
58D6
330
18
100
AcDbEntity
  8
OBJECT
370
     5
100
AcDbLine
 10
-27127.96500860345
 20
-7495.261668066953
 30
0.0
 11
-27127.96435064313
 21
-7388.761668068986
 31
0.0
  0
LINE
  5
58D7
330
18
100
AcDbEntity
  8
OBJECT
370
     5
100
AcDbLine
 10
-27133.9650981848
 20
-7509.76163099849
 30
0.0
 11
-27133.9643259309
 21
-7384.761631000876
 31
0.0
  0
LINE
  5
58D8
330
18
100
AcDbEntity
  8
OBJECT
370
     5
100
AcDbLine
 10
-27133.9650981848
 20
-7509.76163099849
 30
0.0
 11
-27058.96509818622
 21
-7509.762094350832
 31
0.0
  0
LINE
  5
58D9
330
18
100
AcDbEntity
  8
OBJECT
370
     5
100
AcDbLine
 10
-27058.96509818622
 20
-7509.762094350832
 30
0.0
 11
-27058.96508583016
 21
-7507.76209435087
 31
0.0
  0
LINE
  5
58DA
330
18
100
AcDbEntity
  8
OBJECT
370
     5
100
AcDbLine
 10
-27119.46506111689
 20
-7503.761720580057
 30
0.0
 11
-27062.96506111797
 21
-7503.762069638821
 31
0.0
  0
ARC
  5
58DB
330
18
100
AcDbEntity
  8
OBJECT
370
     5
100
AcDbCircle
 10
-27062.96508583009
 20
-7507.762069638745
 30
0.0
 40
4.0
100
AcDbArc
 50
359.9996460248852
 51
89.99964602488518
  0
ARC
  5
58DC
330
18
100
AcDbEntity
  8
OBJECT
370
     5
100
AcDbCircle
 10
-27119.46500860363
 20
-7495.26172058022
 30
0.0
 40
8.5
100
AcDbArc
 50
179.9996460248852
 51
269.9996460248852
  0
ARC
  5
58DD
330
18
100
AcDbEntity
  8
OBJECT
370
     5
100
AcDbCircle
 10
-27131.96435064306
 20
-7388.761643356862
 30
0.0
 40
4.0
100
AcDbArc
 50
359.9996460248852
 51
89.99964602488518
  0
LINE
  5
58DE
330
18
100
AcDbEntity
  8
OBJECT
370
     5
100
AcDbLine
 10
-27133.9643259309
 20
-7384.761631000876
 30
0.0
 11
-27131.96432593094
 21
-7384.761643356937
 31
0.0
  0
LINE
  5
58DF
330
18
100
AcDbEntity
  8
OBJECT
  6
Continuous
 48
0.04
370
     5
100
AcDbLine
 10
-26239.60634220822
 20
-7687.296489612402
 30
0.0
 11
-26239.6062495354
 21
-7672.296108502307
 31
0.0
  0
LINE
  5
58E0
330
18
100
AcDbEntity
  8
OBJECT
  6
Continuous
 48
100.0
370
     5
100
AcDbLine
 10
-26474.60779403885
 20
-7922.294679527117
 30
0.0
 11
-26489.60779403843
 21
-7922.294563990026
 31
0.0
  0
LINE
  5
58E1
330
18
100
AcDbEntity
  8
OBJECT
  6
Continuous
 48
100.0
370
     5
100
AcDbLine
 10
-26474.60779403886
 20
-7922.294679527117
 30
0.0
 11
-26239.60634220822
 21
-7687.296489612396
 31
0.0
  0
LINE
  5
58E2
330
18
100
AcDbEntity
  8
OBJECT
370
     5
100
AcDbLine
 10
-26002.96484864017
 20
-7469.372869264292
 30
0.0
 11
-26002.96419067985
 21
-7362.872869266325
 31
0.0
  0
LINE
  5
58E3
330
18
100
AcDbEntity
  8
OBJECT
370
     5
100
AcDbLine
 10
-26008.96493822151
 20
-7483.872832195828
 30
0.0
 11
-26008.96416596761
 21
-7358.872832198213
 31
0.0
  0
LINE
  5
58E4
330
18
100
AcDbEntity
  8
OBJECT
370
     5
100
AcDbLine
 10
-26008.96493822151
 20
-7483.872832195828
 30
0.0
 11
-25933.96493822293
 21
-7483.87329554817
 31
0.0
  0
LINE
  5
58E5
330
18
100
AcDbEntity
  8
OBJECT
370
     5
100
AcDbLine
 10
-25933.96493822293
 20
-7483.87329554817
 30
0.0
 11
-25933.96492586688
 21
-7481.873295548209
 31
0.0
  0
LINE
  5
58E6
330
18
100
AcDbEntity
  8
OBJECT
370
     5
100
AcDbLine
 10
-25994.46490115361
 20
-7477.872921777396
 30
0.0
 11
-25937.96490115468
 21
-7477.87327083616
 31
0.0
  0
ARC
  5
58E7
330
18
100
AcDbEntity
  8
OBJECT
370
     5
100
AcDbCircle
 10
-25937.9649258668
 20
-7481.873270836084
 30
0.0
 40
4.0
100
AcDbArc
 50
359.9996460248852
 51
89.99964602488518
  0
ARC
  5
58E8
330
18
100
AcDbEntity
  8
OBJECT
370
     5
100
AcDbCircle
 10
-25994.46484864034
 20
-7469.372921777559
 30
0.0
 40
8.5
100
AcDbArc
 50
179.9996460248852
 51
269.9996460248852
  0
ARC
  5
58E9
330
18
100
AcDbEntity
  8
OBJECT
370
     5
100
AcDbCircle
 10
-26006.96419067977
 20
-7362.872844554201
 30
0.0
 40
4.0
100
AcDbArc
 50
359.9996460248852
 51
89.99964602488518
  0
LINE
  5
58EA
330
18
100
AcDbEntity
  8
OBJECT
370
     5
100
AcDbLine
 10
-26008.96416596761
 20
-7358.872832198213
 30
0.0
 11
-26006.96416596765
 21
-7358.872844554276
 31
0.0
  0
LINE
  5
58EB
330
18
100
AcDbEntity
  8
OBJECT
370
     5
100
AcDbLine
 10
-24877.96477143641
 20
-7456.879846348072
 30
0.0
 11
-24877.9641134761
 21
-7350.379846350104
 31
0.0
  0
LINE
  5
58EC
330
18
100
AcDbEntity
  8
OBJECT
370
     5
100
AcDbLine
 10
-24883.96486101775
 20
-7471.379809279608
 30
0.0
 11
-24883.96408876385
 21
-7346.379809281994
 31
0.0
  0
LINE
  5
58ED
330
18
100
AcDbEntity
  8
OBJECT
370
     5
100
AcDbLine
 10
-24883.96486101775
 20
-7471.379809279608
 30
0.0
 11
-24808.9648610192
 21
-7471.38027263195
 31
0.0
  0
LINE
  5
58EE
330
18
100
AcDbEntity
  8
OBJECT
370
     5
100
AcDbLine
 10
-24808.9648610192
 20
-7471.38027263195
 30
0.0
 11
-24808.96484866313
 21
-7469.380272631989
 31
0.0
  0
LINE
  5
58EF
330
18
100
AcDbEntity
  8
OBJECT
370
     5
100
AcDbLine
 10
-24869.46482394985
 20
-7465.379898861176
 30
0.0
 11
-24812.96482395093
 21
-7465.38024791994
 31
0.0
  0
ARC
  5
58F0
330
18
100
AcDbEntity
  8
OBJECT
370
     5
100
AcDbCircle
 10
-24812.96484866305
 20
-7469.380247919864
 30
0.0
 40
4.0
100
AcDbArc
 50
359.9996460248852
 51
89.99964602488518
  0
ARC
  5
58F1
330
18
100
AcDbEntity
  8
OBJECT
370
     5
100
AcDbCircle
 10
-24869.46477143658
 20
-7456.879898861338
 30
0.0
 40
8.5
100
AcDbArc
 50
179.9996460248852
 51
269.9996460248852
  0
ARC
  5
58F2
330
18
100
AcDbEntity
  8
OBJECT
370
     5
100
AcDbCircle
 10
-24881.96411347602
 20
-7350.37982163798
 30
0.0
 40
4.0
100
AcDbArc
 50
359.9996460248852
 51
89.99964602488518
  0
LINE
  5
58F3
330
18
100
AcDbEntity
  8
OBJECT
370
     5
100
AcDbLine
 10
-24883.96408876385
 20
-7346.379809281994
 30
0.0
 11
-24881.9640887639
 21
-7346.379821638056
 31
0.0
  0
LINE
  5
58F4
330
18
100
AcDbEntity
  8
OBJECT
370
     5
100
AcDbLine
 10
-25446.46411584187
 20
-7350.761024468687
 30
0.0
 11
-25444.46411584191
 21
-7350.761036824749
 31
0.0
  0
ARC
  5
58F5
330
18
100
AcDbEntity
  8
OBJECT
370
     5
100
AcDbCircle
 10
-25444.46414055403
 20
-7354.761036824675
 30
0.0
 40
4.0
100
AcDbArc
 50
359.9996460248852
 51
89.99964602488518
  0
ARC
  5
58F6
330
18
100
AcDbEntity
  8
OBJECT
370
     5
100
AcDbCircle
 10
-25431.9647985146
 20
-7461.261114048032
 30
0.0
 40
8.5
100
AcDbArc
 50
179.9996460248852
 51
269.9996460248852
  0
ARC
  5
58F7
330
18
100
AcDbEntity
  8
OBJECT
370
     5
100
AcDbCircle
 10
-25375.46487574107
 20
-7473.761463106558
 30
0.0
 40
4.0
100
AcDbArc
 50
359.9996460248852
 51
89.99964602488518
  0
LINE
  5
58F8
330
18
100
AcDbEntity
  8
OBJECT
370
     5
100
AcDbLine
 10
-25431.96485102787
 20
-7469.761114047869
 30
0.0
 11
-25375.46485102895
 21
-7469.761463106634
 31
0.0
  0
LINE
  5
58F9
330
18
100
AcDbEntity
  8
OBJECT
370
     5
100
AcDbLine
 10
-25371.4648880972
 20
-7475.761487818644
 30
0.0
 11
-25371.46487574114
 21
-7473.761487818681
 31
0.0
  0
LINE
  5
58FA
330
18
100
AcDbEntity
  8
OBJECT
370
     5
100
AcDbLine
 10
-25446.46488809577
 20
-7475.761024466303
 30
0.0
 11
-25371.4648880972
 21
-7475.761487818644
 31
0.0
  0
LINE
  5
58FB
330
18
100
AcDbEntity
  8
OBJECT
370
     5
100
AcDbLine
 10
-25446.46488809577
 20
-7475.761024466303
 30
0.0
 11
-25446.46411584187
 21
-7350.761024468687
 31
0.0
  0
LINE
  5
58FC
330
18
100
AcDbEntity
  8
OBJECT
370
     5
100
AcDbLine
 10
-25440.46479851445
 20
-7461.261061534766
 30
0.0
 11
-25440.46414055411
 21
-7354.761061536798
 31
0.0
  0
LINE
  5
58FD
330
18
100
AcDbEntity
  8
OBJECT
  6
Continuous
 48
100.0
370
     5
100
AcDbLine
 10
-23758.94420555275
 20
-9444.101374918909
 30
0.0
 11
-23758.93932459373
 21
-7346.383598758842
 31
0.0
  0
LINE
  5
58FE
330
18
100
AcDbEntity
  8
OBJECT
  6
Continuous
 48
100.0
370
     5
100
AcDbLine
 10
-23196.44889742292
 20
-9444.105707523634
 30
0.0
 11
-23196.44402665627
 21
-7350.768361668706
 31
0.0
  0
LINE
  5
58FF
330
18
100
AcDbEntity
  8
OBJECT
  6
Continuous
 48
100.0
370
     5
100
AcDbLine
 10
-22633.95358929309
 20
-9444.110040128359
 30
0.0
 11
-22633.94873739734
 21
-7358.882953200849
 31
0.0
  0
LINE
  5
5900
330
18
100
AcDbEntity
  8
OBJECT
  6
Continuous
 48
100.0
370
     5
100
AcDbLine
 10
-22071.47704857981
 20
-9444.114372588527
 30
0.0
 11
-22071.47222352336
 21
-7370.422167261327
 31
0.0
  0
LINE
  5
5901
330
18
100
AcDbEntity
  8
OBJECT
  6
Continuous
 48
100.0
370
     5
100
AcDbLine
 10
-21508.96297303343
 20
-9444.118705337807
 30
0.0
 11
-21508.95818137259
 21
-7384.779125783996
 31
0.0
  0
LINE
  5
5902
330
18
100
AcDbEntity
  8
OBJECT
  6
Continuous
 48
0.04
370
     5
100
AcDbLine
 10
-24571.47541135068
 20
-9179.098420485999
 30
0.0
 11
-24571.4755040235
 21
-9194.098801596094
 31
0.0
  0
LINE
  5
5903
330
18
100
AcDbEntity
  8
OBJECT
  6
Continuous
 48
100.0
370
     5
100
AcDbLine
 10
-24336.47395952005
 20
-8944.100230571288
 30
0.0
 11
-24321.47395952048
 21
-8944.100346108378
 31
0.0
  0
LINE
  5
5904
330
18
100
AcDbEntity
  8
OBJECT
  6
Continuous
 48
100.0
370
     5
100
AcDbLine
 10
-24336.47395952005
 20
-8944.100230571288
 30
0.0
 11
-24571.4754113507
 21
-9179.098420486004
 31
0.0
  0
SPLINE
  5
5905
330
18
100
AcDbEntity
  8
OBJECT
  6
Continuous
 48
100.0
370
     5
100
AcDbSpline
210
0.0
220
0.0
230
1.0
 70
     8
 71
     3
 72
    11
 73
     7
 74
     5
 42
0.0000000001
 43
0.0000000001
 44
0.0000000001
 40
0.0
 40
0.0
 40
0.0
 40
0.0
 40
111.8037110495731
 40
223.6067977545604
 40
335.409884459541
 40
447.2135955091109
 40
447.2135955091109
 40
447.2135955091109
 40
447.2135955091109
 10
-22002.58328489502
 20
-8415.921466726791
 30
0.0
 10
-21969.24982358709
 20
-8390.921420190759
 30
0.0
 10
-21902.58308711502
 20
-8340.921466726259
 30
0.0
 10
-21802.58328489014
 20
-8415.921466726784
 30
0.0
 10
-21702.58348266528
 20
-8490.921466727304
 30
0.0
 10
-21635.9167461932
 20
-8440.921513262809
 30
0.0
 10
-21602.58328488527
 20
-8415.921466726784
 30
0.0
 11
-22002.58328489502
 21
-8415.921466726791
 31
0.0
 11
-21902.58293587335
 21
-8365.921466726783
 31
0.0
 11
-21802.58328489014
 21
-8415.921466726784
 31
0.0
 11
-21702.58363390694
 21
-8465.921466726783
 31
0.0
 11
-21602.58328488527
 21
-8415.921466726784
 31
0.0
  0
MTEXT
  5
5906
330
18
100
AcDbEntity
  8
OBJECT
  6
Continuous
 48
100.0
370
     5
100
AcDbMText
 10
-21892.03071098983
 20
-8072.701637726519
 30
0.0
 40
250.0
 41
631.9498
 71
     1
 72
     5
  1
6
 73
     1
 44
1.0
  0
DIMENSION
  5
5907
330
18
100
AcDbEntity
  8
DIM
  6
Continuous
 48
100.0
370
     5
100
AcDbDimension
  2
*D10
 10
-24322.99140005552
 20
-7445.598336075974
 30
0.0
 11
-23860.32359694388
 21
-7928.470023446286
 31
0.0
 70
   164
 71
     5
 42
-1.0
  3
STANDARD_WS
100
AcDbRadialDimension
 15
-24392.17537061427
 25
-7373.393223945834
 35
0.0
 40
0.0
1001
ACAD
1000
DSTYLE
1002
{
1070
    40
1040
150.0
1070
    41
1040
1.5
1070
    42
1040
2.0
1070
   140
1040
1.0
1070
   271
1070
     0
1070
   272
1070
     0
1002
}
  0
CIRCLE
  5
5908
330
18
100
AcDbEntity
  8
OBJECT
  6
Continuous
 48
100.0
370
     5
100
AcDbCircle
 10
-24321.46469249562
 20
-7444.103902064488
 30
0.0
 40
100.0
  0
LINE
  5
590A
330
18
100
AcDbEntity
  8
OBJECT
  6
Continuous
 48
100.0
370
     5
100
AcDbLine
 10
-24336.09163890058
 20
-7903.992573232511
 30
0.0
 11
-24321.09163890058
 21
-7903.992597303115
 31
0.0
  0
LINE
  5
590B
330
18
100
AcDbEntity
  8
OBJECT
  6
Continuous
 48
0.04
370
     5
100
AcDbLine
 10
-24571.09090355067
 20
-7668.992196127263
 30
0.0
 11
-24571.09085661226
 21
-7653.991815016955
 31
0.0
  0
LINE
  5
590C
330
18
100
AcDbEntity
  8
OBJECT
  6
Continuous
 48
100.0
370
     5
100
AcDbLine
 10
-24336.09163890058
 20
-7903.992573232511
 30
0.0
 11
-24571.09090355068
 21
-7668.992196127257
 31
0.0
  0
LINE
  5
590E
330
18
100
AcDbEntity
  8
OBJECT
  6
CENTER2
 48
0.009
370
     5
100
AcDbLine
 10
-13386.32988601639
 20
-26773.0019563387
 30
0.0
 11
-13386.32574607998
 21
-26243.35158283381
 31
0.0
  0
CIRCLE
  5
590F
330
18
100
AcDbEntity
  8
OBJECT
  6
Continuous
 48
100.0
370
     5
100
AcDbCircle
 10
-13386.32781604817
 20
-26508.17676958625
 30
0.0
 40
133.7
  0
ARC
  5
5910
330
18
100
AcDbEntity
  8
OBJECT
  6
Continuous
 48
0.009
370
     5
100
AcDbCircle
 10
-13266.32848044179
 20
-26593.17765738816
 30
0.0
 40
100.0
100
AcDbArc
 50
269.9995761045751
 51
359.999552155732
  0
LINE
  5
5911
330
18
100
AcDbEntity
  8
OBJECT
  6
CENTER2
 48
0.009
370
     5
100
AcDbLine
 10
-14016.32988599921
 20
-26772.99729536506
 30
0.0
 11
-14016.32574606279
 21
-26243.34692186018
 31
0.0
  0
CIRCLE
  5
5912
330
18
100
AcDbEntity
  8
OBJECT
  6
Continuous
 48
100.0
370
     5
100
AcDbCircle
 10
-14016.327816031
 20
-26508.17210861262
 30
0.0
 40
133.7
  0
ARC
  5
5913
330
18
100
AcDbEntity
  8
OBJECT
  6
Continuous
 48
0.04
370
     5
100
AcDbCircle
 10
-14136.32848041807
 20
-26593.17122080552
 30
0.0
 40
100.0
100
AcDbArc
 50
179.999552155732
 51
269.9995761045749
  0
CIRCLE
  5
5914
330
18
100
AcDbEntity
  8
OBJECT
  6
Continuous
 48
100.0
370
     5
100
AcDbCircle
 10
-14016.327816031
 20
-26508.17210861262
 30
0.0
 40
165.0
  0
CIRCLE
  5
5915
330
18
100
AcDbEntity
  8
OBJECT
  6
Continuous
 48
100.0
370
     5
100
AcDbCircle
 10
-13386.32781605024
 20
-26508.17703291754
 30
0.0
 40
165.0
  0
ARC
  5
5916
330
18
100
AcDbEntity
  8
OBJECT
  6
Continuous
 48
0.009
370
     5
100
AcDbCircle
 10
-12821.32290890289
 20
-26308.18094969663
 30
0.0
 40
500.0
100
AcDbArc
 50
269.9995761045749
 51
359.9996000534179
  0
LINE
  5
5918
330
18
100
AcDbEntity
  8
FS
  6
CENTER2
 48
0.009
370
     5
100
AcDbLine
 10
-14321.26357553755
 20
-17808.15505560498
 30
0.0
 11
-14321.32639899976
 21
-26808.15505538651
 31
0.0
  0
LINE
  5
5919
330
18
100
AcDbEntity
  8
FS
  6
CENTER2
 48
0.009
370
     5
100
AcDbLine
 10
-16321.26357548299
 20
-17808.14025886328
 30
0.0
 11
-16321.32639894521
 21
-26808.14025864481
 31
0.0
  0
LINE
  5
591A
330
18
100
AcDbEntity
  8
FS
  6
CENTER2
 48
0.009
370
     5
100
AcDbLine
 10
-18321.26357542843
 20
-17808.12546212158
 30
0.0
 11
-18321.32639889064
 21
-26808.12546190312
 31
0.0
  0
LINE
  5
5A6C
330
18
100
AcDbEntity
  8
OBJECT
  6
Continuous
 48
0.04
370
     5
100
AcDbLine
 10
-14136.32922025515
 20
-26693.17122080279
 30
0.0
 11
-13266.32922027888
 21
-26693.17765738543
 31
0.0
  0
MTEXT
  5
5A81
330
18
100
AcDbEntity
  8
BHD
  6
Continuous
 48
100.0
370
     5
100
AcDbMText
 10
-20701.96048234343
 20
-21687.44910510348
 30
0.0
 40
250.0
 41
1600.0
 71
     1
 72
     5
  1
T.BHD
 11
0.0000000000000001
 21
1.0
 31
0.0
 73
     1
 44
1.0
  0
MTEXT
  5
5A82
330
18
100
AcDbEntity
  8
OBJECT
  6
Continuous
 48
100.0
370
     5
100
AcDbMText
 10
-18649.42491351149
 20
-22398.04990677887
 30
0.0
 40
250.0
 41
631.9498
 71
     1
 72
     5
  1
9
 73
     1
 44
1.0
  0
MTEXT
  5
5A84
330
18
100
AcDbEntity
  8
OBJECT
  6
Continuous
 48
100.0
370
     5
100
AcDbMText
 10
-16697.10323034058
 20
-22398.07107279707
 30
0.0
 40
250.0
 41
631.9498
 71
     1
 72
     5
  1
10
 73
     1
 44
1.0
  0
MTEXT
  5
5A85
330
18
100
AcDbEntity
  8
OBJECT
  6
Continuous
 48
100.0
370
     5
100
AcDbMText
 10
-14697.10323034398
 20
-22398.07476079308
 30
0.0
 40
250.0
 41
631.9498
 71
     1
 72
     5
  1
11
 73
     1
 44
1.0
  0
LINE
  5
5A88
330
18
100
AcDbEntity
  8
OBJECT
  6
Continuous
 48
0.04
370
     5
100
AcDbLine
 10
-12321.26706583757
 20
-18308.18444008317
 30
0.0
 11
-12321.32290891507
 21
-26308.18443988897
 31
0.0
  0
LINE
  5
5A89
330
18
100
AcDbEntity
  8
OBJECT
  6
Continuous
 48
0.04
370
     5
100
AcDbLine
 10
-14136.32641180028
 20
-26323.17122081344
 30
0.0
 11
-13266.32641182402
 21
-26323.17765739608
 31
0.0
  0
LINE
  5
5A8A
330
18
100
AcDbEntity
  8
OBJECT
  6
CENTER2
 48
0.009
370
     5
100
AcDbLine
 10
-13651.15300280147
 20
-26508.17481031131
 30
0.0
 11
-13121.50262929489
 21
-26508.1787288612
 31
0.0
  0
LINE
  5
5A8B
330
18
100
AcDbEntity
  8
OBJECT
  6
CENTER2
 48
0.009
370
     5
100
AcDbLine
 10
-14281.15300278428
 20
-26508.17014933767
 30
0.0
 11
-13751.5026292777
 21
-26508.17406788756
 31
0.0
  0
LINE
  5
5A8C
330
18
100
AcDbEntity
  8
OBJECT
  6
CENTER2
 48
0.009
370
     5
100
AcDbLine
 10
-14236.328480415
 20
-26593.17043916982
 30
0.0
 11
-14236.32715163431
 21
-26423.170439175
 31
0.0
  0
ARC
  5
5A8D
330
18
100
AcDbEntity
  8
OBJECT
  6
Continuous
 48
0.009
370
     5
100
AcDbCircle
 10
-14136.32715163736
 20
-26423.17122081071
 30
0.0
 40
100.0
100
AcDbArc
 50
89.99957610457501
 51
179.999552155732
  0
LINE
  5
5A8E
330
18
100
AcDbEntity
  8
OBJECT
  6
CENTER2
 48
0.009
370
     5
100
AcDbLine
 10
-13166.32848044485
 20
-26593.17843902387
 30
0.0
 11
-13166.32715166415
 21
-26423.17843902905
 31
0.0
  0
ARC
  5
5A8F
330
18
100
AcDbEntity
  8
OBJECT
  6
Continuous
 48
0.04
370
     5
100
AcDbCircle
 10
-13266.3271516611
 20
-26423.17765739335
 30
0.0
 40
100.0
100
AcDbArc
 50
359.9995521557321
 51
89.99957610457501
  0
MTEXT
  5
5A90
330
18
100
AcDbEntity
  8
OBJECT
  6
Continuous
 48
100.0
370
     5
100
AcDbMText
 10
-12697.10323034739
 20
-22398.07844878909
 30
0.0
 40
250.0
 41
631.9498
 71
     1
 72
     5
  1
12
 73
     1
 44
1.0
  0
LINE
  5
5AB1
330
18
100
AcDbEntity
  8
OBJECT
  6
CENTER2
 48
0.009
370
     5
100
AcDbLine
 10
-13651.09085648632
 20
-18108.17481054121
 30
0.0
 11
-13121.44048297974
 21
-18108.17872909109
 31
0.0
  0
CIRCLE
  5
5AB2
330
18
100
AcDbEntity
  8
OBJECT
  6
Continuous
 48
100.0
370
     5
100
AcDbCircle
 10
-13386.26566973119
 20
-18108.17650648487
 30
0.0
 40
165.0
  0
LINE
  5
5AB3
330
18
100
AcDbEntity
  8
OBJECT
  6
Continuous
 48
0.04
370
     5
100
AcDbLine
 10
-14136.26700288235
 20
-18293.17122103321
 30
0.0
 11
-13266.26700290608
 21
-18293.17765761585
 31
0.0
  0
LINE
  5
5AB4
330
18
100
AcDbEntity
  8
OBJECT
  6
Continuous
 48
0.04
370
     5
100
AcDbLine
 10
-14136.26433654279
 20
-17923.17122104281
 30
0.0
 11
-13266.26433656653
 21
-17923.17765762545
 31
0.0
  0
CIRCLE
  5
5AB5
330
18
100
AcDbEntity
  8
OBJECT
  6
Continuous
 48
100.0
370
     5
100
AcDbCircle
 10
-14016.26566971585
 20
-18108.17210884251
 30
0.0
 40
165.0
  0
ARC
  5
5AB6
330
18
100
AcDbEntity
  8
OBJECT
  6
Continuous
 48
0.009
370
     5
100
AcDbCircle
 10
-14136.26626304527
 20
-18193.17122103594
 30
0.0
 40
100.0
100
AcDbArc
 50
179.9996000534179
 51
269.9995761045749
  0
ARC
  5
5AB7
330
18
100
AcDbEntity
  8
OBJECT
  6
Continuous
 48
0.04
370
     5
100
AcDbCircle
 10
-14136.26507637987
 20
-18023.17122104007
 30
0.0
 40
100.0
100
AcDbArc
 50
89.99957610457498
 51
179.9996000534179
  0
LINE
  5
5AB8
330
18
100
AcDbEntity
  8
OBJECT
  6
CENTER2
 48
0.009
370
     5
100
AcDbLine
 10
-14236.26507637743
 20
-18023.17052300161
 30
0.0
 11
-14236.26626304282
 21
-18193.17052299748
 31
0.0
  0
CIRCLE
  5
5AB9
330
18
100
AcDbEntity
  8
OBJECT
  6
Continuous
 48
100.0
370
     5
100
AcDbCircle
 10
-14016.26566971585
 20
-18108.17210884251
 30
0.0
 40
133.7
  0
LINE
  5
5ABA
330
18
100
AcDbEntity
  8
OBJECT
  6
CENTER2
 48
0.009
370
     5
100
AcDbLine
 10
-14016.26382113417
 20
-17843.34692208843
 30
0.0
 11
-14016.26751829752
 21
-18372.99729559659
 31
0.0
  0
LINE
  5
5ABB
330
18
100
AcDbEntity
  8
OBJECT
  6
CENTER2
 48
0.009
370
     5
100
AcDbLine
 10
-14281.09085646913
 20
-18108.17014956757
 30
0.0
 11
-13751.44048296256
 21
-18108.17406811746
 31
0.0
  0
ARC
  5
5ABC
330
18
100
AcDbEntity
  8
OBJECT
  6
Continuous
 48
0.009
370
     5
100
AcDbCircle
 10
-12821.26706582537
 20
-18308.18094989082
 30
0.0
 40
500.0
100
AcDbArc
 50
359.9996000534179
 51
89.99957610457498
  0
ARC
  5
5ABD
330
18
100
AcDbEntity
  8
OBJECT
  6
Continuous
 48
0.04
370
     5
100
AcDbCircle
 10
-13266.266263069
 20
-18193.17765761859
 30
0.0
 40
100.0
100
AcDbArc
 50
269.9995761045749
 51
359.9996000534179
  0
ARC
  5
5ABE
330
18
100
AcDbEntity
  8
OBJECT
  6
Continuous
 48
0.009
370
     5
100
AcDbCircle
 10
-13266.26507640361
 20
-18023.17765762271
 30
0.0
 40
100.0
100
AcDbArc
 50
359.999600053418
 51
89.99957610457485
  0
LINE
  5
5ABF
330
18
100
AcDbEntity
  8
OBJECT
  6
CENTER2
 48
0.009
370
     5
100
AcDbLine
 10
-13166.26507640604
 20
-18023.17835566118
 30
0.0
 11
-13166.26626307143
 21
-18193.17835565705
 31
0.0
  0
CIRCLE
  5
5AC0
330
18
100
AcDbEntity
  8
OBJECT
  6
Continuous
 48
100.0
370
     5
100
AcDbCircle
 10
-13386.26566973302
 20
-18108.17676981615
 30
0.0
 40
133.7
  0
LINE
  5
5AC1
330
18
100
AcDbEntity
  8
OBJECT
  6
CENTER2
 48
0.009
370
     5
100
AcDbLine
 10
-13386.26382115135
 20
-17843.35158306206
 30
0.0
 11
-13386.26751831472
 21
-18373.00195657023
 31
0.0
  0
LINE
  5
5AD8
330
18
100
AcDbEntity
  8
FS
  6
CENTER2
 48
0.009
370
     5
100
AcDbLine
 10
-18321.49721915157
 20
-12813.52547644862
 30
0.0
 11
-18321.50090709863
 21
-14813.49892657151
 31
0.0
  0
MTEXT
  5
5AD9
330
18
100
AcDbEntity
  8
FS
  6
Continuous
 48
100.0
370
     5
100
AcDbMText
 10
-18398.22275118302
 20
-14903.44198432747
 30
0.0
 40
250.0
 41
631.9498
 71
     1
 72
     5
  1
9
 73
     1
 44
1.0
  0
ARC
  5
5ADA
330
18
100
AcDbEntity
  8
OBJECT
  6
Continuous
 48
100.0
370
     5
100
AcDbCircle
 10
-20441.49689336294
 20
-12673.50353012469
 30
0.0
 40
120.0000000000006
100
AcDbArc
 50
359.9997333689447
 51
179.9997333689446
  0
CIRCLE
  5
5ADB
330
18
100
AcDbEntity
  8
OBJECT
  6
Continuous
 48
100.0
370
     5
100
AcDbCircle
 10
-20441.49689336294
 20
-12673.50353012469
 30
0.0
 40
100.0
  0
LINE
  5
5ADC
330
18
100
AcDbEntity
  8
OBJECT
  6
CENTER2
 48
100.0
370
     5
100
AcDbLine
 10
-20291.49689336456
 20
-12673.50422816316
 30
0.0
 11
-20591.49689336131
 21
-12673.50283208622
 31
0.0
  0
LINE
  5
5ADD
330
18
100
AcDbEntity
  8
OBJECT
  6
Continuous
 48
100.0
370
     5
100
AcDbLine
 10
-20561.49689336163
 20
-12673.50297169391
 30
0.0
 11
-20561.4978706155
 21
-12813.5029716905
 31
0.0
  0
LINE
  5
5ADE
330
18
100
AcDbEntity
  8
OBJECT
  6
CENTER2
 48
100.0
370
     5
100
AcDbLine
 10
-20441.49696951259
 20
-12803.50353012459
 30
0.0
 11
-20441.49625878251
 21
-12523.50353012608
 31
0.0
  0
CIRCLE
  5
5ADF
330
18
100
AcDbEntity
  8
OBJECT
  6
Continuous
 48
100.0
370
     5
100
AcDbCircle
 10
-20441.49689336294
 20
-12673.50353012469
 30
0.0
 40
50.0
  0
LINE
  5
5AE0
330
18
100
AcDbEntity
  8
OBJECT
  6
Continuous
 48
100.0
370
     5
100
AcDbLine
 10
-20321.49721911553
 20
-12813.50408855509
 30
0.0
 11
-20321.49689336424
 21
-12673.50408855547
 31
0.0
  0
LINE
  5
5AE1
330
18
100
AcDbEntity
  8
FS
  6
CENTER2
 48
0.009
370
     5
100
AcDbLine
 10
-14321.49721922364
 20
-12813.56825223568
 30
0.0
 11
-14321.50090710542
 21
-14813.50630256353
 31
0.0
  0
LINE
  5
5AE2
330
18
100
AcDbEntity
  8
FS
  6
CENTER2
 48
0.009
370
     5
100
AcDbLine
 10
-16321.49721918761
 20
-12813.54686434215
 30
0.0
 11
-16321.50090710203
 21
-14813.50261456752
 31
0.0
  0
MTEXT
  5
5AE3
330
18
100
AcDbEntity
  8
FS
  6
Continuous
 48
100.0
370
     5
100
AcDbMText
 10
-16445.90106801211
 20
-14903.46315034567
 30
0.0
 40
250.0
 41
631.9498
 71
     1
 72
     5
  1
10
 73
     1
 44
1.0
  0
MTEXT
  5
5AE4
330
18
100
AcDbEntity
  8
FS
  6
Continuous
 48
100.0
370
     5
100
AcDbMText
 10
-14445.90106801551
 20
-14903.46683834169
 30
0.0
 40
250.0
 41
631.9498
 71
     1
 72
     5
  1
11
 73
     1
 44
1.0
  0
LINE
  5
5AE7
330
18
100
AcDbEntity
  8
OBJECT
  6
Continuous
 48
100.0
370
     5
100
AcDbLine
 10
-20946.46766490358
 20
-9444.123037942532
 30
0.0
 11
-20946.46291346584
 21
-7402.070363337282
 31
0.0
  0
LINE
  5
5AE8
330
18
100
AcDbEntity
  8
OBJECT
  6
Continuous
 48
100.0
370
     5
100
AcDbLine
 10
-20383.97235677377
 20
-9444.127370547255
 30
0.0
 11
-20383.96765234586
 21
-7422.278385113234
 31
0.0
  0
LINE
  5
5AE9
330
18
100
AcDbEntity
  8
OBJECT
  6
Continuous
 48
100.0
370
     5
100
AcDbLine
 10
-19821.47704864392
 20
-9444.131703151979
 30
0.0
 11
-19821.45699010885
 21
-7444.131703252565
 31
0.0
  0
LINE
  5
5AEA
330
18
100
AcDbEntity
  8
OBJECT
  6
Continuous
 48
100.0
370
     5
100
AcDbLine
 10
-19821.46199671607
 20
-8094.131703233284
 30
0.0
 11
-19809.46350913307
 21
-8094.131795651305
 31
0.0
  0
LINE
  5
5AEB
330
18
100
AcDbEntity
  8
OBJECT
  6
Continuous
 48
100.0
370
     5
100
AcDbLine
 10
-19821.46430745786
 20
-8394.131703224383
 30
0.0
 11
-19809.46651791333
 21
-8394.131795637029
 31
0.0
  0
LINE
  5
5AEC
330
18
100
AcDbEntity
  8
OBJECT
  6
Continuous
 48
100.0
370
     5
100
AcDbLine
 10
-19809.46651791333
 20
-8394.131795637029
 30
0.0
 11
-19809.46350913307
 21
-8094.131795651305
 31
0.0
  0
LINE
  5
5AED
330
18
100
AcDbEntity
  8
OBJECT
370
     5
100
AcDbLine
 10
-19821.46549493496
 20
-7944.131703196474
 30
0.0
 11
-19821.46548867666
 21
-7946.131703196464
 31
0.0
  0
ARC
  5
5AEE
330
18
100
AcDbEntity
  8
OBJECT
370
     5
100
AcDbCircle
 10
-19826.46548867663
 20
-7946.131718842209
 30
0.0
 40
5.0
100
AcDbArc
 50
270.000179286995
 51
0.0001792869949164
  0
LINE
  5
5AEF
330
18
100
AcDbEntity
  8
OBJECT
  6
Continuous
 48
100.0
370
     5
100
AcDbLine
 10
-19821.45737523248
 20
-7494.131703251081
 30
0.0
 11
-19809.45749157254
 21
-7494.131795679857
 31
0.0
  0
LINE
  5
5AF0
330
18
100
AcDbEntity
  8
OBJECT
  6
Continuous
 48
100.0
370
     5
100
AcDbLine
 10
-19809.46050035281
 20
-7794.131795665581
 30
0.0
 11
-19809.45749157254
 21
-7494.131795679857
 31
0.0
  0
LINE
  5
5AF1
330
18
100
AcDbEntity
  8
OBJECT
  6
Continuous
 48
100.0
370
     5
100
AcDbLine
 10
-19821.45968597427
 20
-7794.131703242183
 30
0.0
 11
-19809.46050035281
 21
-7794.131795665581
 31
0.0
  0
LINE
  5
5AFC
330
18
100
AcDbEntity
  8
OBJECT
  6
Continuous
 48
100.0
370
     5
100
AcDbLine
 10
-12432.05695574535
 20
-13973.54840722375
 30
0.0
 11
-13852.11951521537
 21
-14683.57327184279
 31
0.0
  0
LINE
  5
5AFD
330
18
100
AcDbEntity
  8
OBJECT
  6
Continuous
 48
100.0
370
     5
100
AcDbLine
 10
-12432.05722375994
 20
-14118.89269713159
 30
0.0
 11
-13821.5009072892
 21
-14813.60826210065
 31
0.0
  0
MTEXT
  5
5AFF
330
18
100
AcDbEntity
  8
FS
  6
Continuous
 48
100.0
370
     5
100
AcDbMText
 10
-12445.90106801891
 20
-14903.4705263377
 30
0.0
 40
250.0
 41
631.9498
 71
     1
 72
     5
  1
12
 73
     1
 44
1.0
  0
LINE
  5
5B01
330
18
100
AcDbEntity
  8
OBJECT
  6
Continuous
 48
100.0
370
     5
100
AcDbLine
 10
-13551.19792316694
 20
-12424.59290495285
 30
0.0
 11
-13221.19792315834
 21
-12424.59290495284
 31
0.0
  0
LINE
  5
5B02
330
18
100
AcDbEntity
  8
OBJECT
  6
Continuous
 48
100.0
370
     5
100
AcDbLine
 10
-13551.1979897523
 20
-12433.59290495284
 30
0.0
 11
-13221.1979897437
 21
-12433.59290495285
 31
0.0
  0
LINE
  5
5B03
330
18
100
AcDbEntity
  8
OBJECT
  6
Continuous
 48
100.0
370
     5
100
AcDbLine
 10
-14236.20073456721
 20
-12804.59290495285
 30
0.0
 11
-13166.20073453784
 21
-12804.59290495286
 31
0.0
  0
LINE
  5
5B04
330
18
100
AcDbEntity
  8
OBJECT
  6
Continuous
 48
100.0
370
     5
100
AcDbLine
 10
-13882.50073455751
 20
-12804.59290495286
 30
0.0
 11
-13882.49798976152
 21
-12433.59290495284
 31
0.0
  0
LINE
  5
5B05
330
18
100
AcDbEntity
  8
OBJECT
  6
Continuous
 48
100.0
370
     5
100
AcDbLine
 10
-14149.90073456484
 20
-12804.59290495285
 30
0.0
 11
-14149.89798976884
 21
-12433.59290495284
 31
0.0
  0
LINE
  5
5B06
330
18
100
AcDbEntity
  8
OBJECT
  6
Continuous
 48
100.0
370
     5
100
AcDbLine
 10
-14016.202428343
 20
-13033.53271125187
 30
0.0
 11
-14016.19683480996
 21
-12277.4835311272
 31
0.0
  0
LINE
  5
5B07
330
18
100
AcDbEntity
  8
OBJECT
  6
Continuous
 48
100.0
370
     5
100
AcDbLine
 10
-14236.20080115256
 20
-12813.59290495285
 30
0.0
 11
-14236.20073456721
 21
-12804.59290495285
 31
0.0
  0
LINE
  5
5B08
330
18
100
AcDbEntity
  8
OBJECT
  6
Continuous
 48
100.0
370
     5
100
AcDbLine
 10
-13551.1979897523
 20
-12433.59290495284
 30
0.0
 11
-13551.19792316694
 21
-12424.59290495285
 31
0.0
  0
LINE
  5
5B09
330
18
100
AcDbEntity
  8
OBJECT
  6
Continuous
 48
100.0
370
     5
100
AcDbLine
 10
-14181.19798976968
 20
-12433.59290495284
 30
0.0
 11
-14181.19792318434
 21
-12424.59290495285
 31
0.0
  0
LINE
  5
5B0A
330
18
100
AcDbEntity
  8
OBJECT
  6
Continuous
 48
100.0
370
     5
100
AcDbLine
 10
-14181.19792318434
 20
-12424.59290495285
 30
0.0
 11
-13851.1998503746
 21
-12424.59290495284
 31
0.0
  0
LINE
  5
5B0B
330
18
100
AcDbEntity
  8
OBJECT
  6
Continuous
 48
100.0
370
     5
100
AcDbLine
 10
-13851.19987131576
 20
-12433.59290495284
 30
0.0
 11
-13851.1998503746
 21
-12424.59290495284
 31
0.0
  0
LINE
  5
5B0C
330
18
100
AcDbEntity
  8
OBJECT
  6
Continuous
 48
100.0
370
     5
100
AcDbLine
 10
-14181.19798976968
 20
-12433.59290495284
 30
0.0
 11
-13851.19987131576
 21
-12433.59290495284
 31
0.0
  0
LINE
  5
5B0F
330
18
100
AcDbEntity
  8
OBJECT
  6
Continuous
 48
100.0
370
     5
100
AcDbLine
 10
-13519.90073454754
 20
-12804.59290495286
 30
0.0
 11
-13519.89798975152
 21
-12433.59290495285
 31
0.0
  0
LINE
  5
5B10
330
18
100
AcDbEntity
  8
OBJECT
  6
Continuous
 48
100.0
370
     5
100
AcDbLine
 10
-13252.50073454022
 20
-12804.59290495286
 30
0.0
 11
-13252.49798974422
 21
-12433.59290495285
 31
0.0
  0
LINE
  5
5B11
330
18
100
AcDbEntity
  8
OBJECT
  6
Continuous
 48
100.0
370
     5
100
AcDbLine
 10
-13386.20242836911
 20
-13033.538574775
 30
0.0
 11
-13386.19683483607
 21
-12277.48939465034
 31
0.0
  0
LINE
  5
5B19
330
18
100
AcDbEntity
  8
OBJECT
  6
Continuous
 48
100.0
370
     5
100
AcDbLine
 10
-13166.20073453784
 20
-12804.59290495286
 30
0.0
 11
-13166.20073453782
 21
-12813.59290495285
 31
0.0
  0
LINE
  5
5B1A
330
18
100
AcDbEntity
  8
OBJECT
  6
Continuous
 48
100.0
370
     5
100
AcDbLine
 10
-12321.49929636821
 20
-13940.00730448664
 30
0.0
 11
-12321.49902835364
 21
-13794.66301457879
 31
0.0
  0
ARC
  5
5B1B
330
18
100
AcDbEntity
  8
OBJECT
  6
Continuous
 48
0.008
370
     5
100
AcDbCircle
 10
-12521.49902835331
 20
-13794.6626457792
 30
0.0
 40
200.0
100
AcDbArc
 50
296.564844110294
 51
359.9998943466996
  0
ARC
  5
5B1C
330
18
100
AcDbEntity
  8
OBJECT
  6
Continuous
 48
100.0
370
     5
100
AcDbCircle
 10
-12521.49929636787
 20
-13940.00693568704
 30
0.0
 40
200.0
100
AcDbArc
 50
296.5648441102938
 51
359.9998943466983
  0
LINE
  5
5B1E
330
18
100
AcDbEntity
  8
OBJECT
  6
Continuous
 48
0.008
370
     5
100
AcDbLine
 10
-12321.50683757974
 20
-13794.78870438869
 30
0.0
 11
-12321.50702372259
 21
-13895.73396361494
 31
0.0
  0
LINE
  5
5B23
330
18
100
AcDbEntity
  8
OBJECT
  6
Continuous
 48
100.0
370
     5
100
AcDbLine
 10
-13221.1979897437
 20
-12433.59290495285
 30
0.0
 11
-13221.19792315834
 21
-12424.59290495284
 31
0.0
  0
LINE
  5
5B25
330
18
100
AcDbEntity
  8
OBJECT
  6
Continuous
 48
0.008
370
     5
100
AcDbLine
 10
-12321.50484384036
 20
-12713.58397288522
 30
0.0
 11
-12321.50493831036
 21
-12764.81504811748
 31
0.0
  0
INSERT
  5
5B2E
330
18
100
AcDbEntity
  8
OBJECT
  6
Continuous
 48
100.0
370
     5
100
AcDbBlockReference
  2
A$C28EC78B4
 10
-10533.27139680805
 20
-22657.1067754975
 30
0.0
 41
0.3584
 42
0.3584
 43
0.3584
  0
MTEXT
  5
5B35
330
18
100
AcDbEntity
  8
OBJECT
  6
Continuous
 48
100.0
370
     5
100
AcDbMText
 10
-9206.795012577371
 20
-14375.81472193108
 30
0.0
 40
364.0
 41
1419.94419
 71
     1
 72
     5
  1
B.L
 73
     1
 44
1.0
  0
LINE
  5
60FB
330
18
100
AcDbEntity
  8
LONG
  6
HIDDEN2
 48
0.01
370
     5
100
AcDbLine
 10
-36321.26750140376
 20
-18370.49229143261
 30
0.0
 11
-12321.26750200978
 21
-18370.66985233303
 31
0.0
  0
MTEXT
  5
631D
330
18
100
AcDbEntity
  8
BHD
  6
Continuous
 48
100.0
370
     5
100
AcDbMText
 10
-24652.95222516667
 20
-8926.337275573189
 30
0.0
 40
250.0
 41
1600.0
 71
     1
 72
     5
  1
L.BHD
 11
0.0000000000000001
 21
1.0
 31
0.0
 73
     1
 44
1.0
  0
DIMENSION
  5
6A7C
330
18
100
AcDbEntity
  8
DIM
  6
Continuous
 48
100.0
370
     5
100
AcDbDimension
  2
*D11
 10
-11070.44819144072
 20
-26808.18094969663
 30
0.0
 11
-11070.44819144072
 21
-22308.17685919846
 31
0.0
 70
   160
 71
     5
 42
-1.0
  3
STANDARD_WS
100
AcDbAlignedDimension
 13
-12821.26336663996
 23
-17808.18094990451
 33
0.0
 14
-12821.32290890289
 24
-26808.18094969663
 34
0.0
 50
90.0
100
AcDbRotatedDimension
1001
ACAD
1000
DSTYLE
1002
{
1070
    40
1040
150.0
1070
    42
1040
2.0
1070
   140
1040
1.5
1070
   271
1070
     0
1070
   272
1070
     0
1002
}
  0
DIMENSION
  5
6A89
330
18
100
AcDbEntity
  8
DIM
  6
Continuous
 48
100.0
370
     5
100
AcDbDimension
  2
*D12
 10
-36321.32025313526
 20
-28144.4216961675
 30
0.0
 11
-24321.32158102517
 21
-27938.1716961675
 31
0.0
 70
    32
 71
     5
 42
-1.0
  3
STANDARD_WS
100
AcDbAlignedDimension
 13
-12321.32290891507
 23
-26308.18443988898
 33
0.0
 14
-36321.32025313526
 24
-26245.49229125787
 34
0.0
100
AcDbRotatedDimension
1001
ACAD
1000
DSTYLE
1002
{
1070
    40
1040
150.0
1070
    42
1040
2.0
1070
   140
1040
1.5
1070
   271
1070
     0
1070
   272
1070
     0
1002
}
  0
LINE
  5
6BC8
330
18
100
AcDbEntity
  8
OBJECT
  6
Continuous
 48
100.0
370
     5
100
AcDbLine
 10
-28821.47239488239
 20
-7444.076100876414
 30
0.0
 11
-28822.45351547843
 21
-7419.095360247361
 31
0.0
  0
LINE
  5
6BC9
330
18
100
AcDbEntity
  8
OBJECT
  6
Continuous
 48
100.0
370
     5
100
AcDbLine
 10
-19820.51702650031
 20
-7432.16857371157
 30
0.0
 11
-19821.45699010884
 21
-7444.131703252565
 31
0.0
  0
LINE
  5
6BCC
330
18
100
AcDbEntity
  8
OBJECT
  6
Continuous
 48
100.0
370
     5
100
AcDbLine
 10
-28686.47335589259
 20
-7043.112959722087
 30
0.0
 11
-28356.47335588399
 21
-7043.112959722083
 31
0.0
  0
LINE
  5
6BCD
330
18
100
AcDbEntity
  8
OBJECT
  6
Continuous
 48
100.0
370
     5
100
AcDbLine
 10
-28686.47342247795
 20
-7052.112959722084
 30
0.0
 11
-28356.47342246934
 21
-7052.112959722087
 31
0.0
  0
LINE
  5
6BCE
330
18
100
AcDbEntity
  8
OBJECT
  6
Continuous
 48
100.0
370
     5
100
AcDbLine
 10
-28686.47342247795
 20
-7052.112959722084
 30
0.0
 11
-28686.47335589259
 21
-7043.112959722087
 31
0.0
  0
LINE
  5
6BCF
330
18
100
AcDbEntity
  8
OBJECT
  6
Continuous
 48
100.0
370
     5
100
AcDbLine
 10
-28655.1760889959
 20
-7412.53262077797
 30
0.0
 11
-28655.17342247717
 21
-7052.112959722087
 31
0.0
  0
LINE
  5
6BD0
330
18
100
AcDbEntity
  8
OBJECT
  6
Continuous
 48
100.0
370
     5
100
AcDbLine
 10
-28387.62522088778
 20
-7402.142068623891
 30
0.0
 11
-28387.77342246988
 21
-7052.112959722087
 31
0.0
  0
LINE
  5
6BD1
330
18
100
AcDbEntity
  8
OBJECT
  6
Continuous
 48
100.0
370
     5
100
AcDbLine
 10
-28521.47768679837
 20
-7628.499879959052
 30
0.0
 11
-28521.47209326532
 21
-6872.450699834391
 31
0.0
  0
LINE
  5
6BD2
330
18
100
AcDbEntity
  8
OBJECT
  6
Continuous
 48
100.0
370
     5
100
AcDbLine
 10
-28356.47342246934
 20
-7052.112959722087
 30
0.0
 11
-28356.47335588399
 21
-7043.112959722083
 31
0.0
  0
DIMENSION
  5
6BDE
330
18
100
AcDbEntity
  8
DIM
  6
Continuous
 48
100.0
370
     5
100
AcDbDimension
  2
*D13
 10
-20285.80013497905
 20
-6695.124651437189
 30
0.0
 11
-24321.13674543152
 21
-6488.874651437189
 31
0.0
 70
    32
  1
8070
 71
     5
 42
-1.0
  3
STANDARD_WS
100
AcDbAlignedDimension
 13
-28356.47335588399
 23
-7224.304098923281
 33
0.0
 14
-20285.80013497905
 24
-7224.244389071012
 34
0.0
100
AcDbRotatedDimension
1001
ACAD
1000
DSTYLE
1002
{
1070
    40
1040
150.0
1070
    41
1040
1.5
1070
    42
1040
2.0
1070
   140
1040
1.5
1070
   271
1070
     0
1070
   272
1070
     0
1002
}
  0
DIMENSION
  5
6BEB
330
18
100
AcDbEntity
  8
DIM
  6
Continuous
 48
100.0
370
     5
100
AcDbDimension
  2
*D14
 10
-19821.47708094491
 20
-10197.86892462149
 30
0.0
 11
-24321.47708085905
 21
-9991.618924621491
 31
0.0
 70
    32
 71
     5
 42
-1.0
  3
STANDARD_WS
100
AcDbAlignedDimension
 13
-28821.47708077317
 23
-9448.269688464732
 33
0.0
 14
-19821.47708094491
 24
-9448.325290745712
 34
0.0
100
AcDbRotatedDimension
1001
ACAD
1000
DSTYLE
1002
{
1070
    40
1040
150.0
1070
    41
1040
1.5
1070
    42
1040
2.0
1070
   140
1040
1.5
1070
   271
1070
     0
1070
   272
1070
     0
1002
}
  0
MTEXT
  5
6C47
330
18
100
AcDbEntity
  8
DIM
  6
Continuous
 48
100.0
370
     5
100
AcDbMText
 10
-19478.87716360225
 20
-11574.376309975
 30
0.0
 40
150.0
 41
0.0
 71
     4
 72
     1
  1
LIFTING PIECE
 73
     1
 44
1.0
  0
SOLID
  5
6C48
330
18
100
AcDbEntity
  8
DIM
  6
Continuous
 48
100.0
370
     5
100
AcDbTrace
 10
-20125.7589524574
 20
-12342.68590230097
 30
0.0
 11
-20441.88251494189
 21
-12553.86625944177
 31
0.0
 12
-20211.33763923196
 22
-12251.57449593523
 32
0.0
 13
-20211.33763923196
 23
-12251.57449593523
 33
0.0
1001
ACAD
1000
DSTYLE
1002
{
1070
     5
1000

1070
    40
1040
150.0
1070
    42
1040
2.0
1070
   271
1070
     1
1070
   342
1005
0
1002
}
  0
LWPOLYLINE
  5
6C49
330
18
100
AcDbEntity
  8
DIM
  6
Continuous
 48
100.0
370
     5
100
AcDbPolyline
 90
        3
 70
     0
 43
0.0
 10
-20168.54829584468
 20
-12297.1301991181
 10
-19578.72768309226
 20
-11743.126309975
 10
-17625.31975371342
 20
-11743.126309975
1001
ACAD
1000
DSTYLE
1002
{
1070
     5
1000

1070
    40
1040
150.0
1070
    42
1040
2.0
1070
   271
1070
     1
1070
   342
1005
0
1002
}
  0
SOLID
  5
6C4D
330
18
100
AcDbEntity
  8
DIM
  6
Continuous
 48
100.0
370
     5
100
AcDbTrace
 10
-27885.75969841435
 20
-12352.64699260588
 30
0.0
 11
-28201.88326089884
 21
-12563.82734974668
 31
0.0
 12
-27971.3383851889
 22
-12261.53558624014
 32
0.0
 13
-27971.3383851889
 23
-12261.53558624014
 33
0.0
1001
ACAD
1000
DSTYLE
1002
{
1070
     5
1000

1070
    40
1040
150.0
1070
    42
1040
2.0
1070
   271
1070
     1
1070
   342
1005
0
1002
}
  0
LWPOLYLINE
  5
6C4E
330
18
100
AcDbEntity
  8
DIM
  6
Continuous
 48
100.0
370
     5
100
AcDbPolyline
 90
        3
 70
     0
 43
0.0
 10
-27928.54904180163
 20
-12307.09128942301
 10
-27338.72842904921
 20
-11753.08740027991
 10
-25385.32049967037
 20
-11753.08740027991
1001
ACAD
1000
DSTYLE
1002
{
1070
     5
1000

1070
    40
1040
150.0
1070
    42
1040
2.0
1070
   271
1070
     1
1070
   342
1005
0
1002
}
  0
MTEXT
  5
6C4F
330
18
100
AcDbEntity
  8
DIM
  6
Continuous
 48
100.0
370
     5
100
AcDbMText
 10
-27238.8779095592
 20
-11584.33740027991
 30
0.0
 40
150.0
 41
0.0
 71
     4
 72
     1
  1
LIFTING PIECE
 73
     1
 44
1.0
  0
LINE
  5
6C50
330
18
100
AcDbEntity
  8
OBJECT
  6
Continuous
 48
100.0
370
     5
100
AcDbLine
 10
-24321.47319727935
 20
-8944.097042039906
 30
0.0
 11
-23758.94304215529
 21
-8944.101374913037
 31
0.0
  0
LINE
  5
6C51
330
18
100
AcDbEntity
  8
OBJECT
  6
Continuous
 48
100.0
370
     5
100
AcDbLine
 10
-24321.46934604303
 20
-8444.097042054739
 30
0.0
 11
-23758.94187875784
 21
-8444.101374907166
 31
0.0
  0
LINE
  5
6C52
330
18
100
AcDbEntity
  8
OBJECT
  6
Continuous
 48
100.0
370
     5
100
AcDbLine
 10
-24321.46549480671
 20
-7944.097042069571
 30
0.0
 11
-23758.9407153604
 21
-7944.101374901295
 31
0.0
  0
LINE
  5
6C54
330
18
100
AcDbEntity
  8
OBJECT
  6
Continuous
 48
100.0
370
     5
100
AcDbLine
 10
-20383.96886658142
 20
-7944.127370529644
 30
0.0
 11
-19821.46549493495
 21
-7944.131703196475
 31
0.0
  0
LINE
  5
6C55
330
18
100
AcDbEntity
  8
OBJECT
  6
Continuous
 48
100.0
370
     5
100
AcDbLine
 10
-20383.97002997887
 20
-8444.127370535513
 30
0.0
 11
-19821.46934617127
 21
-8444.131703181644
 31
0.0
  0
LINE
  5
6C56
330
18
100
AcDbEntity
  8
OBJECT
  6
Continuous
 48
100.0
370
     5
100
AcDbLine
 10
-20383.97119337632
 20
-8944.127370541385
 30
0.0
 11
-19821.4731974076
 21
-8944.131703166812
 31
0.0
  0
MTEXT
  5
6C93
330
18
100
AcDbEntity
  8
DIM
  6
ByBlock
 62
     0
 48
100.0
370
     5
100
AcDbMText
 10
-11896.52469627089
 20
-22289.32988058065
 30
0.0
 40
160.0
 41
0.0
 71
     5
 72
     1
  1
LONG  SPACE 562.5
 11
0.0000000000000001
 21
1.0
 31
0.0
 73
     1
 44
1.0
  0
LINE
  5
6C94
330
18
100
AcDbEntity
  8
DIM
  6
ByBlock
 62
     0
 48
100.0
370
     5
100
AcDbLine
 10
-11755.88986506258
 20
-21095.15606137477
 30
0.0
 11
-11755.91273030424
 21
-23521.21978623222
 31
0.0
  0
SOLID
  5
6C95
330
18
100
AcDbEntity
  8
DIM
  6
ByBlock
 62
     0
 48
100.0
370
     5
100
AcDbTrace
 10
-11787.13986505913
 20
-21095.15559685165
 30
0.0
 11
-11724.63986506602
 21
-21095.15652589788
 31
0.0
 12
-11755.88707792388
 22
-20907.65606139548
 32
0.0
 13
-11755.88707792388
 23
-20907.65606139548
 33
0.0
  0
MTEXT
  5
6C96
330
18
100
AcDbEntity
  8
DIM
  6
ByBlock
 62
     0
 48
100.0
370
     5
100
AcDbMText
 10
-11920.56703621766
 20
-22775.82249424673
 30
0.0
 40
140.0
 41
0.0
 71
     5
 72
     1
  1
L
 11
0.0000148647396671
 21
0.9999999998895196
 31
0.0
 73
     1
 44
1.0
  0
LINE
  5
6C97
330
18
100
AcDbEntity
  8
DIM
  6
Continuous
 48
100.0
370
     5
100
AcDbLine
 10
-11797.97053582823
 20
-22720.49420814187
 30
0.0
 11
-11797.97134858859
 21
-22836.9291043174
 31
0.0
  0
SOLID
  5
6C98
330
18
100
AcDbEntity
  8
DIM
  6
ByBlock
 62
     0
 48
100.0
370
     5
100
AcDbTrace
 10
-11787.1627303008
 20
-23521.21932170911
 30
0.0
 11
-11724.6627303077
 21
-23521.22025075534
 31
0.0
 12
-11755.91551744294
 22
-23708.71978621151
 32
0.0
 13
-11755.91551744294
 23
-23708.71978621151
 33
0.0
  0
MTEXT
  5
6CAB
330
18
100
AcDbEntity
  8
DIM
  6
Continuous
 48
100.0
370
     5
100
AcDbMText
 10
-22002.12993781473
 20
-25346.3528573155
 30
0.0
 40
250.0
 41
3135.0107
 71
     1
 72
     5
  1
DECK PL t=25
 73
     1
 44
1.0
  0
MTEXT
  5
6CAC
330
18
100
AcDbEntity
  8
BHD
  6
Continuous
 48
100.0
370
     5
100
AcDbMText
 10
-33871.44518154893
 20
-21927.3401741216
 30
0.0
 40
250.0
 41
1600.0
 71
     1
 72
     5
  1
L.BHD
 73
     1
 44
1.0
  0
MTEXT
  5
6CAD
330
18
100
AcDbEntity
  8
BHD
  6
Continuous
 48
100.0
370
     5
100
AcDbMText
 10
-27871.44518171261
 20
-21927.38456434671
 30
0.0
 40
250.0
 41
1600.0
 71
     1
 72
     5
  1
L.BHD
 73
     1
 44
1.0
  0
MTEXT
  5
6CAE
330
18
100
AcDbEntity
  8
BHD
  6
Continuous
 48
100.0
370
     5
100
AcDbMText
 10
-21871.44518184128
 20
-21927.42393873789
 30
0.0
 40
250.0
 41
1600.0
 71
     1
 72
     5
  1
L.BHD
 73
     1
 44
1.0
  0
MTEXT
  5
6CAF
330
18
100
AcDbEntity
  8
BHD
  6
Continuous
 48
100.0
370
     5
100
AcDbMText
 10
-15871.44518198746
 20
-21927.46582104603
 30
0.0
 40
250.0
 41
1600.0
 71
     1
 72
     5
  1
L.BHD
 73
     1
 44
1.0
  0
LINE
  5
6CB0
330
18
100
AcDbEntity
  8
TANK
  6
CENTER2
 48
0.04
370
     5
100
AcDbLine
 10
-36321.29498666848
 20
-22307.99229133703
 30
0.0
 11
-28321.32639861782
 21
-26808.0514781946
 31
0.0
  0
LINE
  5
6CB1
330
18
100
AcDbEntity
  8
TANK
  6
CENTER2
 48
0.04
370
     5
100
AcDbLine
 10
-28321.32639861782
 20
-26808.0514781946
 30
0.0
 11
-20321.29498710496
 21
-22308.11066527064
 31
0.0
  0
LINE
  5
6CB2
330
18
100
AcDbEntity
  8
TANK
  6
CENTER2
 48
0.04
370
     5
100
AcDbLine
 10
-20321.29498710496
 20
-22308.11066527064
 30
0.0
 11
-12467.77206014764
 21
-26661.73688210966
 31
0.0
  0
LINE
  5
6CB3
330
18
100
AcDbEntity
  8
TANK
  6
CENTER2
 48
0.04
370
     5
100
AcDbLine
 10
-12321.29498727449
 20
-22308.16985223745
 30
0.0
 11
-20321.32639883607
 21
-26808.11066516141
 31
0.0
  0
LINE
  5
6CB4
330
18
100
AcDbEntity
  8
TANK
  6
CENTER2
 48
0.04
370
     5
100
AcDbLine
 10
-20321.32639883607
 20
-26808.11066516141
 30
0.0
 11
-28321.29498688671
 21
-22308.05147830384
 31
0.0
  0
LINE
  5
6CB5
330
18
100
AcDbEntity
  8
TANK
  6
CENTER2
 48
0.04
370
     5
100
AcDbLine
 10
-28321.29498688671
 20
-22308.05147830384
 30
0.0
 11
-36174.87884063391
 21
-26661.5468391806
 31
0.0
  0
LINE
  5
6CF3
330
18
100
AcDbEntity
  8
TANK
  6
CENTER2
 48
0.04
370
     5
100
AcDbLine
 10
-36321.29498666848
 20
-22307.99229133702
 30
0.0
 11
-28321.26357515561
 21
-17808.05147841308
 31
0.0
  0
LINE
  5
6CF4
330
18
100
AcDbEntity
  8
TANK
  6
CENTER2
 48
0.04
370
     5
100
AcDbLine
 10
-28321.26357515561
 20
-17808.05147841308
 30
0.0
 11
-20321.29498710496
 21
-22308.11066527064
 31
0.0
  0
LINE
  5
6CF5
330
18
100
AcDbEntity
  8
TANK
  6
CENTER2
 48
0.04
370
     5
100
AcDbLine
 10
-20321.29498710496
 20
-22308.11066527064
 30
0.0
 11
-12467.71113341235
 21
-17954.63010113557
 31
0.0
  0
LINE
  5
6CF6
330
18
100
AcDbEntity
  8
TANK
  6
CENTER2
 48
0.04
370
     5
100
AcDbLine
 10
-12321.29498727449
 20
-22308.16985223745
 30
0.0
 11
-20321.26357537386
 21
-17808.11066537988
 31
0.0
  0
LINE
  5
6CF7
330
18
100
AcDbEntity
  8
TANK
  6
CENTER2
 48
0.04
370
     5
100
AcDbLine
 10
-20321.26357537386
 20
-17808.11066537988
 30
0.0
 11
-28321.2949868867
 21
-22308.05147830384
 31
0.0
  0
LINE
  5
6CF8
330
18
100
AcDbEntity
  8
TANK
  6
CENTER2
 48
0.04
370
     5
100
AcDbLine
 10
-28321.2949868867
 20
-22308.05147830384
 30
0.0
 11
-36174.81791389861
 21
-17954.44005820653
 31
0.0
  0
MTEXT
  5
6D37
330
18
100
AcDbEntity
  8
DIM
  6
Continuous
 48
100.0
370
     5
100
AcDbMText
 10
-27448.17898202103
 20
-9628.904886456362
 30
0.0
 40
150.0
 41
0.0
 71
     4
 72
     1
  1
BOTTOM PL t=9
 73
     1
 44
1.0
  0
MTEXT
  5
6D38
330
18
100
AcDbEntity
  8
DIM
  6
Continuous
 48
100.0
370
     5
100
AcDbMText
 10
-27448.17898202103
 20
-7052.684775537385
 30
0.0
 40
150.0
 41
0.0
 71
     4
 72
     1
  1
DECK PL t=25
 73
     1
 44
1.0
  0
LINE
  5
6D92
330
18
100
AcDbEntity
  8
OBJECT
  6
Continuous
 48
100.0
370
     5
100
AcDbLine
 10
-12371.28732155078
 20
-21958.15278444047
 30
0.0
 11
-13121.28951568292
 21
-21958.14929423791
 31
0.0
  0
LINE
  5
6D93
330
18
100
AcDbEntity
  8
OBJECT
  6
Continuous
 48
100.0
370
     5
100
AcDbLine
 10
-13121.28951568292
 20
-21958.14929423791
 30
0.0
 11
-13121.29210523339
 21
-22308.16560537688
 31
0.0
  0
LINE
  5
6D94
330
18
100
AcDbEntity
  8
OBJECT
  6
Continuous
 48
100.0
370
     5
100
AcDbLine
 10
-12371.29171006175
 20
-22658.18952391004
 30
0.0
 11
-13121.29469478387
 21
-22658.18191651583
 31
0.0
  0
LINE
  5
6D95
330
18
100
AcDbEntity
  8
OBJECT
  6
Continuous
 48
100.0
370
     5
100
AcDbLine
 10
-13121.29469478387
 20
-22658.18191651583
 30
0.0
 11
-13121.2921052334
 21
-22308.16560537687
 31
0.0
  0
LINE
  5
6D96
330
18
100
AcDbEntity
  8
OBJECT
  6
Continuous
 48
0.04
370
     5
100
AcDbLine
 10
-12371.28512740993
 20
-21608.15270368863
 30
0.0
 11
-12371.2939042026
 21
-23008.18960466149
 31
0.0
  0
LINE
  5
6D97
330
18
100
AcDbEntity
  8
OBJECT
  6
Continuous
 48
100.0
370
     5
100
AcDbLine
 10
-12321.28951569158
 20
-21608.15301710974
 30
0.0
 11
-12371.28512740993
 21
-21608.15270368863
 31
0.0
  0
LINE
  5
6D98
330
18
100
AcDbEntity
  8
OBJECT
  6
Continuous
 48
100.0
370
     5
100
AcDbLine
 10
-12321.29987368463
 20
-23008.19003099904
 30
0.0
 11
-12371.2939042026
 21
-23008.18960466149
 31
0.0
  0
LINE
  5
6D9A
330
18
100
AcDbEntity
  8
OBJECT
  6
CENTER2
 48
0.009
370
     5
100
AcDbLine
 10
-13036.11620926153
 20
-22308.14841144176
 30
0.0
 11
-12506.46583575495
 21
-22308.15232999164
 31
0.0
  0
CIRCLE
  5
6D9B
330
18
100
AcDbEntity
  8
OBJECT
  6
Continuous
 48
100.0
370
     5
100
AcDbCircle
 10
-12771.2910225064
 20
-22308.15010738541
 30
0.0
 40
165.0
  0
CIRCLE
  5
6D9C
330
18
100
AcDbEntity
  8
OBJECT
  6
Continuous
 48
100.0
370
     5
100
AcDbCircle
 10
-12771.29102250823
 20
-22308.15037071669
 30
0.0
 40
133.7
  0
LINE
  5
6D9D
330
18
100
AcDbEntity
  8
OBJECT
  6
CENTER2
 48
0.009
370
     5
100
AcDbLine
 10
-12771.28917392657
 20
-22043.32518396261
 30
0.0
 11
-12771.29287108993
 21
-22572.97555747078
 31
0.0
  0
LINE
  5
6D9E
330
18
100
AcDbEntity
  8
OBJECT
  6
Continuous
 48
100.0
370
     5
100
AcDbLine
 10
-36271.33909723923
 20
-22657.74635786878
 30
0.0
 11
-35521.33611275072
 21
-22657.7665642984
 31
0.0
  0
LINE
  5
6D9F
330
18
100
AcDbEntity
  8
OBJECT
  6
Continuous
 48
100.0
370
     5
100
AcDbLine
 10
-36271.31752492213
 20
-21957.70961871784
 30
0.0
 11
-35521.31533117629
 21
-21957.73394230978
 31
0.0
  0
LINE
  5
6DA0
330
18
100
AcDbEntity
  8
OBJECT
  6
Continuous
 48
100.0
370
     5
100
AcDbLine
 10
-35521.33611275072
 20
-22657.7665642984
 30
0.0
 11
-35521.3257219635
 21
-22307.75025330409
 31
0.0
  0
LINE
  5
6DA1
330
18
100
AcDbEntity
  8
OBJECT
  6
Continuous
 48
100.0
370
     5
100
AcDbLine
 10
-35521.31533117629
 20
-21957.73394230978
 30
0.0
 11
-35521.32572196351
 21
-22307.75025330409
 31
0.0
  0
LINE
  5
6DA2
330
18
100
AcDbEntity
  8
OBJECT
  6
Continuous
 48
0.04
370
     5
100
AcDbLine
 10
-36271.3067393272
 20
-21607.70953812531
 30
0.0
 11
-36271.34988283416
 21
-23007.74643846093
 31
0.0
  0
LINE
  5
6DA3
330
18
100
AcDbEntity
  8
OBJECT
  6
Continuous
 48
100.0
370
     5
100
AcDbLine
 10
-36321.34391333357
 20
-23007.74501077232
 30
0.0
 11
-36271.34988283416
 21
-23007.74643846093
 31
0.0
  0
LINE
  5
6DA4
330
18
100
AcDbEntity
  8
OBJECT
  6
CENTER2
 48
0.009
370
     5
100
AcDbLine
 10
-35871.31883143565
 20
-22042.89685223045
 30
0.0
 11
-35871.33477633035
 21
-22572.54722551151
 31
0.0
  0
CIRCLE
  5
6DA5
330
18
100
AcDbEntity
  8
OBJECT
  6
Continuous
 48
100.0
370
     5
100
AcDbCircle
 10
-35871.32680388302
 20
-22307.72203887098
 30
0.0
 40
133.7
  0
CIRCLE
  5
6DA6
330
18
100
AcDbEntity
  8
OBJECT
  6
Continuous
 48
100.0
370
     5
100
AcDbCircle
 10
-35871.32680387508
 20
-22307.72177553969
 30
0.0
 40
165.0
  0
LINE
  5
6DA7
330
18
100
AcDbEntity
  8
OBJECT
  6
CENTER2
 48
0.009
370
     5
100
AcDbLine
 10
-35606.50161723916
 20
-22307.72990062507
 30
0.0
 11
-36136.15199052685
 21
-22307.71417711689
 31
0.0
  0
LINE
  5
6DA8
330
18
100
AcDbEntity
  8
OBJECT
  6
Continuous
 48
100.0
370
     5
100
AcDbLine
 10
-36321.30235102279
 20
-21607.70799746162
 30
0.0
 11
-36271.3067393272
 21
-21607.70953812531
 31
0.0
  0
LINE
  5
6DE5
330
18
100
AcDbEntity
  8
TANK
  6
CENTER2
 48
0.04
370
     5
100
AcDbLine
 10
-36321.48657034111
 20
-12713.32731835801
 30
0.0
 11
-28321.50090708162
 21
-14813.48048659146
 31
0.0
  0
LINE
  5
6DE6
330
18
100
AcDbEntity
  8
TANK
  6
CENTER2
 48
0.04
370
     5
100
AcDbLine
 10
-28321.50090708162
 20
-14813.48048659146
 30
0.0
 11
-20321.49698642734
 21
-12713.50035061503
 31
0.0
  0
LINE
  5
6DE7
330
18
100
AcDbEntity
  8
TANK
  6
CENTER2
 48
0.04
370
     5
100
AcDbLine
 10
-20321.49698642734
 20
-12713.50035061503
 30
0.0
 11
-13126.77906552457
 21
-14466.25047961612
 31
0.0
  0
LINE
  5
6DE8
330
18
100
AcDbEntity
  8
TANK
  6
CENTER2
 48
0.04
370
     5
100
AcDbLine
 10
-12321.50484615433
 20
-12714.83884032209
 30
0.0
 11
-20321.50090709522
 21
-14813.4952385755
 31
0.0
  0
LINE
  5
6DE9
330
18
100
AcDbEntity
  8
TANK
  6
CENTER2
 48
0.04
370
     5
100
AcDbLine
 10
-20321.50090709522
 20
-14813.4952385755
 30
0.0
 11
-28321.49750696842
 21
-12713.41672825726
 31
0.0
  0
LINE
  5
6DEA
330
18
100
AcDbEntity
  8
TANK
  6
CENTER2
 48
0.04
370
     5
100
AcDbLine
 10
-28321.49750696842
 20
-12713.41672825726
 30
0.0
 11
-35516.23187235387
 21
-14466.0411631793
 31
0.0
  0
LINE
  5
6DEC
330
18
100
AcDbEntity
  8
OBJECT
  6
Continuous
 48
100.0
370
     5
100
AcDbLine
 10
-12936.42547162046
 20
-12343.63532573504
 30
0.0
 11
-12606.42547161184
 21
-12343.63532573504
 31
0.0
  0
LINE
  5
6DED
330
18
100
AcDbEntity
  8
OBJECT
  6
Continuous
 48
100.0
370
     5
100
AcDbLine
 10
-12936.4254050351
 20
-12334.63532573505
 30
0.0
 11
-12606.4254050265
 21
-12334.63532573505
 31
0.0
  0
LINE
  5
6DEE
330
18
100
AcDbEntity
  8
OBJECT
  6
Continuous
 48
100.0
370
     5
100
AcDbLine
 10
-12936.42547162046
 20
-12343.63532573504
 30
0.0
 11
-12936.4254050351
 21
-12334.63532573505
 31
0.0
  0
LINE
  5
6DEF
330
18
100
AcDbEntity
  8
OBJECT
  6
Continuous
 48
100.0
370
     5
100
AcDbLine
 10
-12905.1282164157
 20
-12714.63532573506
 30
0.0
 11
-12905.12547161968
 21
-12343.63532573504
 31
0.0
  0
LINE
  5
6DF0
330
18
100
AcDbEntity
  8
OBJECT
  6
Continuous
 48
100.0
370
     5
100
AcDbLine
 10
-12637.72821640837
 20
-12714.63532573506
 30
0.0
 11
-12637.72547161239
 21
-12343.63532573504
 31
0.0
  0
LINE
  5
6DF1
330
18
100
AcDbEntity
  8
OBJECT
  6
Continuous
 48
100.0
370
     5
100
AcDbLine
 10
-12606.42547161184
 20
-12343.63532573504
 30
0.0
 11
-12606.4254050265
 21
-12334.63532573505
 31
0.0
  0
LINE
  5
6DF2
330
18
100
AcDbEntity
  8
OBJECT
  6
Continuous
 48
100.0
370
     5
100
AcDbLine
 10
-12771.42991023736
 20
-12789.36681652593
 30
0.0
 11
-12771.42431670432
 21
-12187.53181543254
 31
0.0
  0
LINE
  5
6E0C
330
18
100
AcDbEntity
  8
OBJECT
  6
Continuous
 48
100.0
370
     5
100
AcDbLine
 10
-24171.65775901901
 20
-12423.74396973818
 30
0.0
 11
-23841.65775901041
 21
-12423.74396973817
 31
0.0
  0
LINE
  5
6E0D
330
18
100
AcDbEntity
  8
OBJECT
  6
Continuous
 48
100.0
370
     5
100
AcDbLine
 10
-24171.65782560437
 20
-12432.74396973817
 30
0.0
 11
-23841.65782559577
 21
-12432.74396973818
 31
0.0
  0
LINE
  5
6E0E
330
18
100
AcDbEntity
  8
OBJECT
  6
Continuous
 48
100.0
370
     5
100
AcDbLine
 10
-24856.66057041929
 20
-12803.74396973818
 30
0.0
 11
-23786.6605703899
 21
-12803.74396973819
 31
0.0
  0
LINE
  5
6E0F
330
18
100
AcDbEntity
  8
OBJECT
  6
Continuous
 48
100.0
370
     5
100
AcDbLine
 10
-24502.96057040958
 20
-12803.74396973818
 30
0.0
 11
-24502.95782561359
 21
-12432.74396973817
 31
0.0
  0
LINE
  5
6E10
330
18
100
AcDbEntity
  8
OBJECT
  6
Continuous
 48
100.0
370
     5
100
AcDbLine
 10
-24770.36057041691
 20
-12803.74396973818
 30
0.0
 11
-24770.35782562091
 21
-12432.74396973817
 31
0.0
  0
LINE
  5
6E11
330
18
100
AcDbEntity
  8
OBJECT
  6
Continuous
 48
100.0
370
     5
100
AcDbLine
 10
-24636.66226419507
 20
-13032.68377603719
 30
0.0
 11
-24636.65667066203
 21
-12276.63459591253
 31
0.0
  0
LINE
  5
6E12
330
18
100
AcDbEntity
  8
OBJECT
  6
Continuous
 48
100.0
370
     5
100
AcDbLine
 10
-24856.66063700463
 20
-12812.74396973818
 30
0.0
 11
-24856.66057041929
 21
-12803.74396973818
 31
0.0
  0
LINE
  5
6E13
330
18
100
AcDbEntity
  8
OBJECT
  6
Continuous
 48
100.0
370
     5
100
AcDbLine
 10
-24171.65782560437
 20
-12432.74396973817
 30
0.0
 11
-24171.65775901901
 21
-12423.74396973818
 31
0.0
  0
LINE
  5
6E14
330
18
100
AcDbEntity
  8
OBJECT
  6
Continuous
 48
100.0
370
     5
100
AcDbLine
 10
-24801.65782562175
 20
-12432.74396973817
 30
0.0
 11
-24801.65775903641
 21
-12423.74396973818
 31
0.0
  0
LINE
  5
6E15
330
18
100
AcDbEntity
  8
OBJECT
  6
Continuous
 48
100.0
370
     5
100
AcDbLine
 10
-24801.65775903641
 20
-12423.74396973818
 30
0.0
 11
-24471.65968622667
 21
-12423.74396973817
 31
0.0
  0
LINE
  5
6E16
330
18
100
AcDbEntity
  8
OBJECT
  6
Continuous
 48
100.0
370
     5
100
AcDbLine
 10
-24471.65970716783
 20
-12432.74396973817
 30
0.0
 11
-24471.65968622667
 21
-12423.74396973817
 31
0.0
  0
LINE
  5
6E17
330
18
100
AcDbEntity
  8
OBJECT
  6
Continuous
 48
100.0
370
     5
100
AcDbLine
 10
-24801.65782562175
 20
-12432.74396973817
 30
0.0
 11
-24471.65970716783
 21
-12432.74396973817
 31
0.0
  0
LINE
  5
6E18
330
18
100
AcDbEntity
  8
OBJECT
  6
Continuous
 48
100.0
370
     5
100
AcDbLine
 10
-24140.36057039961
 20
-12803.74396973819
 30
0.0
 11
-24140.35782560359
 21
-12432.74396973818
 31
0.0
  0
LINE
  5
6E19
330
18
100
AcDbEntity
  8
OBJECT
  6
Continuous
 48
100.0
370
     5
100
AcDbLine
 10
-23872.96057039229
 20
-12803.74396973819
 30
0.0
 11
-23872.95782559629
 21
-12432.74396973818
 31
0.0
  0
LINE
  5
6E1A
330
18
100
AcDbEntity
  8
OBJECT
  6
Continuous
 48
100.0
370
     5
100
AcDbLine
 10
-24006.66226422118
 20
-13032.68963956033
 30
0.0
 11
-24006.65667068814
 21
-12276.64045943567
 31
0.0
  0
LINE
  5
6E1B
330
18
100
AcDbEntity
  8
OBJECT
  6
Continuous
 48
100.0
370
     5
100
AcDbLine
 10
-23786.6605703899
 20
-12803.74396973819
 30
0.0
 11
-23786.66057038989
 21
-12812.74396973818
 31
0.0
  0
LINE
  5
6E1C
330
18
100
AcDbEntity
  8
OBJECT
  6
Continuous
 48
100.0
370
     5
100
AcDbLine
 10
-23841.65782559577
 20
-12432.74396973818
 30
0.0
 11
-23841.65775901041
 21
-12423.74396973817
 31
0.0
  0
DIMENSION
  5
6E83
330
18
100
AcDbEntity
  8
DIM
  6
Continuous
 48
100.0
370
     5
100
AcDbDimension
  2
*D15
 10
-11060.47940976044
 20
-12813.58439864918
 30
0.0
 11
-11266.72940976044
 21
-13813.59633037492
 31
0.0
 70
    32
 71
     5
 42
-1.0
  3
STANDARD_WS
100
AcDbAlignedDimension
 13
-13821.5009072892
 23
-14813.60826210065
 33
0.0
 14
-12811.63244580675
 24
-12813.58439864918
 34
0.0
 50
90.0
100
AcDbRotatedDimension
1001
ACAD
1000
DSTYLE
1002
{
1070
    40
1040
150.0
1070
    41
1040
1.5
1070
    42
1040
2.0
1070
   140
1040
1.5
1070
   271
1070
     0
1070
   272
1070
     0
1002
}
  0
DIMENSION
  5
6E90
330
18
100
AcDbEntity
  8
DIM
  6
Continuous
 48
100.0
370
     5
100
AcDbDimension
  2
*D16
 10
-11060.47940976044
 20
-12713.58397288522
 30
0.0
 11
-11266.72940976044
 21
-11944.83397288523
 31
0.0
 70
    32
 71
     5
 42
-1.0
  3
STANDARD_WS
100
AcDbAlignedDimension
 13
-12811.6222865573
 23
-12813.60578665136
 33
0.0
 14
-12321.50484384036
 24
-12713.58397288522
 34
0.0
 50
90.0
100
AcDbRotatedDimension
1001
ACAD
1000
DSTYLE
1002
{
1070
    40
1040
150.0
1070
    41
1040
1.5
1070
    42
1040
2.0
1070
   140
1040
1.5
1070
   271
1070
     0
1070
   272
1070
     0
1002
}
  0
MTEXT
  5
6E9F
330
18
100
AcDbEntity
  8
DIM
  6
Continuous
 48
100.0
370
     5
100
AcDbMText
 10
-11643.35378655005
 20
-12362.83887513033
 30
0.0
 40
200.0
 41
1453.6594
 71
     1
 72
     5
  1
CAMBER
 11
0.0000116339744812
 21
0.9999999999323254
 31
0.0
 73
     1
 44
1.0
  0
INSERT
  5
6EA0
330
18
100
AcDbEntity
  8
OBJECT
  6
Continuous
 48
100.0
370
     5
100
AcDbBlockReference
  2
L130X9
 10
-19812.41718895501
 20
-9453.071987462575
 30
0.0
 41
-1.0
 50
0.0468049736913656
  0
SPLINE
  5
6EA1
330
18
100
AcDbEntity
  8
DIM
  6
Continuous
 48
100.0
370
     5
100
AcDbSpline
210
0.0
220
0.0
230
1.0
 70
     8
 71
     3
 72
    11
 73
     7
 74
     5
 42
0.0000000001
 43
0.0000000001
 44
0.0000000001
 40
0.0
 40
0.0
 40
0.0
 40
0.0
 40
111.8037110495731
 40
223.6067977545604
 40
335.409884459541
 40
447.2135955091109
 40
447.2135955091109
 40
447.2135955091109
 40
447.2135955091109
 10
-33384.20597344622
 20
-14356.19988148139
 30
0.0
 10
-33350.87251213829
 20
-14331.19983494536
 30
0.0
 10
-33284.20577566621
 20
-14281.19988148086
 30
0.0
 10
-33184.20597344134
 20
-14356.19988148139
 30
0.0
 10
-33084.20617121648
 20
-14431.1998814819
 30
0.0
 10
-33017.5394347444
 20
-14381.19992801741
 30
0.0
 10
-32984.20597343648
 20
-14356.19988148139
 30
0.0
 11
-33384.20597344622
 21
-14356.19988148139
 31
0.0
 11
-33284.20562442455
 21
-14306.19988148138
 31
0.0
 11
-33184.20597344134
 21
-14356.19988148139
 31
0.0
 11
-33084.20632245814
 21
-14406.19988148139
 31
0.0
 11
-32984.20597343648
 21
-14356.19988148139
 31
0.0
  0
MTEXT
  5
6EA2
330
18
100
AcDbEntity
  8
DIM
  6
Continuous
 48
100.0
370
     5
100
AcDbMText
 10
-33273.65339954103
 20
-14012.98005248112
 30
0.0
 40
250.0
 41
631.9498
 71
     1
 72
     5
  1
9
 73
     1
 44
1.0
  0
SPLINE
  5
6EA3
330
18
100
AcDbEntity
  8
DIM
  6
Continuous
 48
100.0
370
     5
100
AcDbSpline
210
0.0
220
0.0
230
1.0
 70
     8
 71
     3
 72
    11
 73
     7
 74
     5
 42
0.0000000001
 43
0.0000000001
 44
0.0000000001
 40
0.0
 40
0.0
 40
0.0
 40
0.0
 40
111.8037110495731
 40
223.6067977545604
 40
335.409884459541
 40
447.2135955091109
 40
447.2135955091109
 40
447.2135955091109
 40
447.2135955091109
 10
-27384.20597355433
 20
-14356.26404516198
 30
0.0
 10
-27350.8725122464
 20
-14331.26399862595
 30
0.0
 10
-27284.20577577433
 20
-14281.26404516145
 30
0.0
 10
-27184.20597354946
 20
-14356.26404516197
 30
0.0
 10
-27084.20617132459
 20
-14431.2640451625
 30
0.0
 10
-27017.53943485252
 20
-14381.264091698
 30
0.0
 10
-26984.20597354459
 20
-14356.26404516197
 30
0.0
 11
-27384.20597355433
 21
-14356.26404516198
 31
0.0
 11
-27284.20562453266
 21
-14306.26404516198
 31
0.0
 11
-27184.20597354946
 21
-14356.26404516197
 31
0.0
 11
-27084.20632256626
 21
-14406.26404516198
 31
0.0
 11
-26984.20597354459
 21
-14356.26404516197
 31
0.0
  0
MTEXT
  5
6EA4
330
18
100
AcDbEntity
  8
DIM
  6
Continuous
 48
100.0
370
     5
100
AcDbMText
 10
-27273.65339964914
 20
-14013.04421616171
 30
0.0
 40
250.0
 41
631.9498
 71
     1
 72
     5
  1
9
 73
     1
 44
1.0
  0
MTEXT
  5
6EA5
330
18
100
AcDbEntity
  8
DIM
  6
Continuous
 48
100.0
370
     5
100
AcDbMText
 10
-21273.65339965934
 20
-14013.05528014976
 30
0.0
 40
250.0
 41
631.9498
 71
     1
 72
     5
  1
9
 73
     1
 44
1.0
  0
SPLINE
  5
6EA6
330
18
100
AcDbEntity
  8
DIM
  6
Continuous
 48
100.0
370
     5
100
AcDbSpline
210
0.0
220
0.0
230
1.0
 70
     8
 71
     3
 72
    11
 73
     7
 74
     5
 42
0.0000000001
 43
0.0000000001
 44
0.0000000001
 40
0.0
 40
0.0
 40
0.0
 40
0.0
 40
111.8037110495731
 40
223.6067977545604
 40
335.409884459541
 40
447.2135955091109
 40
447.2135955091109
 40
447.2135955091109
 40
447.2135955091109
 10
-21384.20597356453
 20
-14356.27510915003
 30
0.0
 10
-21350.8725122566
 20
-14331.275062614
 30
0.0
 10
-21284.20577578453
 20
-14281.2751091495
 30
0.0
 10
-21184.20597355966
 20
-14356.27510915002
 30
0.0
 10
-21084.20617133479
 20
-14431.27510915054
 30
0.0
 10
-21017.53943486272
 20
-14381.27515568605
 30
0.0
 10
-20984.20597355479
 20
-14356.27510915002
 30
0.0
 11
-21384.20597356453
 21
-14356.27510915003
 31
0.0
 11
-21284.20562454286
 21
-14306.27510915003
 31
0.0
 11
-21184.20597355965
 21
-14356.27510915002
 31
0.0
 11
-21084.20632257646
 21
-14406.27510915003
 31
0.0
 11
-20984.20597355479
 21
-14356.27510915002
 31
0.0
  0
SPLINE
  5
6EA7
330
18
100
AcDbEntity
  8
DIM
  6
Continuous
 48
100.0
370
     5
100
AcDbSpline
210
0.0
220
0.0
230
1.0
 70
     8
 71
     3
 72
    11
 73
     7
 74
     5
 42
0.0000000001
 43
0.0000000001
 44
0.0000000001
 40
0.0
 40
0.0
 40
0.0
 40
0.0
 40
111.8037110495731
 40
223.6067977545604
 40
335.409884459541
 40
447.2135955091109
 40
447.2135955091109
 40
447.2135955091109
 40
447.2135955091109
 10
-15384.20597357473
 20
-14356.28617313807
 30
0.0
 10
-15350.8725122668
 20
-14331.28612660204
 30
0.0
 10
-15284.20577579473
 20
-14281.28617313754
 30
0.0
 10
-15184.20597356985
 20
-14356.28617313806
 30
0.0
 10
-15084.20617134499
 20
-14431.28617313858
 30
0.0
 10
-15017.53943487292
 20
-14381.28621967409
 30
0.0
 10
-14984.20597356499
 20
-14356.28617313806
 30
0.0
 11
-15384.20597357473
 21
-14356.28617313807
 31
0.0
 11
-15284.20562455306
 21
-14306.28617313806
 31
0.0
 11
-15184.20597356986
 21
-14356.28617313806
 31
0.0
 11
-15084.20632258666
 21
-14406.28617313806
 31
0.0
 11
-14984.20597356499
 21
-14356.28617313806
 31
0.0
  0
MTEXT
  5
6EA8
330
18
100
AcDbEntity
  8
DIM
  6
Continuous
 48
100.0
370
     5
100
AcDbMText
 10
-15273.65339966954
 20
-14013.0663441378
 30
0.0
 40
250.0
 41
631.9498
 71
     1
 72
     5
  1
9
 73
     1
 44
1.0
  0
LINE
  5
6EAB
330
18
100
AcDbEntity
  8
OBJECT
  6
CENTER2
 48
0.009
370
     5
100
AcDbLine
 10
-19826.47559884846
 20
-17808.11432600482
 30
0.0
 11
-19826.35809112301
 21
-18574.36716009194
 31
0.0
  0
ARC
  5
6EAC
330
18
100
AcDbEntity
  8
OBJECT
  6
Continuous
 48
100.0
370
     5
100
AcDbCircle
 10
-19889.9959042209
 20
-18089.37462764244
 30
0.0
 40
241.3445650841488
100
AcDbArc
 50
90.00697414035515
 51
270.0102460311569
  0
ARC
  5
6EAD
330
18
100
AcDbEntity
  8
OBJECT
  6
Continuous
 48
100.0
370
     5
100
AcDbCircle
 10
-19773.20236008131
 20
-18089.35671691753
 30
0.0
 40
241.3445650841488
100
AcDbArc
 50
270.0073270109943
 51
90.01059890179602
  0
ARC
  5
6EAE
330
18
100
AcDbEntity
  8
OBJECT
  6
HIDDEN2
 48
0.02
370
     5
100
AcDbCircle
 10
-19889.98469849129
 20
-18089.37240865797
 30
0.0
 40
175.1735091276296
100
AcDbArc
 50
90.00922629807941
 51
270.0092262980795
  0
ARC
  5
6EAF
330
18
100
AcDbEntity
  8
OBJECT
  6
HIDDEN2
 48
0.02
370
     5
100
AcDbCircle
 10
-19773.20236008132
 20
-18089.35671691753
 30
0.0
 40
175.1735091276296
100
AcDbArc
 50
270.0092262980795
 51
90.00922629807948
  0
LINE
  5
6EB0
330
18
100
AcDbEntity
  8
OBJECT
  6
Continuous
 48
100.0
370
     5
100
AcDbLine
 10
-19889.95274530167
 20
-18330.7191888676
 30
0.0
 11
-19773.1714968259
 21
-18330.70128002827
 31
0.0
  0
LINE
  5
6EB1
330
18
100
AcDbEntity
  8
OBJECT
  6
CENTER2
 48
0.009
370
     5
100
AcDbLine
 10
-19266.4384742323
 20
-18089.27524449067
 30
0.0
 11
-20386.42646172865
 21
-18089.45514451698
 31
0.0
  0
LINE
  5
6EB2
330
18
100
AcDbEntity
  8
OBJECT
  6
HIDDEN2
 48
0.02
370
     5
100
AcDbLine
 10
-19773.17415201752
 20
-18264.530223774
 30
0.0
 11
-19889.95649042748
 21
-18264.54591551444
 31
0.0
  0
LINE
  5
6EB5
330
18
100
AcDbEntity
  8
OBJECT
  6
Continuous
 48
100.0
370
     5
100
AcDbLine
 10
-19890.02528109441
 20
-17848.03006434619
 30
0.0
 11
-19773.24700538245
 21
-17848.01215596275
 31
0.0
  0
LINE
  5
6EB6
330
18
100
AcDbEntity
  8
OBJECT
  6
HIDDEN2
 48
0.02
370
     5
100
AcDbLine
 10
-19890.01290655508
 20
-17914.19890180151
 30
0.0
 11
-19773.2305681451
 21
-17914.18321006107
 31
0.0
  0
ARC
  5
6EB9
330
18
100
AcDbEntity
  8
OBJECT
  6
Continuous
 48
100.0
370
     5
100
AcDbCircle
 10
-20884.82897484281
 20
-18089.3676833249
 30
0.0
 40
241.3445650841488
100
AcDbArc
 50
90.00697414035515
 51
270.0102460311569
  0
ARC
  5
6EBA
330
18
100
AcDbEntity
  8
OBJECT
  6
Continuous
 48
100.0
370
     5
100
AcDbCircle
 10
-20768.03543070322
 20
-18089.34977259999
 30
0.0
 40
241.3445650841488
100
AcDbArc
 50
270.0073270109943
 51
90.01059890179602
  0
ARC
  5
6EBB
330
18
100
AcDbEntity
  8
OBJECT
  6
HIDDEN2
 48
0.02
370
     5
100
AcDbCircle
 10
-20884.81776911319
 20
-18089.36546434044
 30
0.0
 40
175.1735091276296
100
AcDbArc
 50
90.00922629807941
 51
270.0092262980795
  0
LINE
  5
6EBC
330
18
100
AcDbEntity
  8
OBJECT
  6
CENTER2
 48
0.009
370
     5
100
AcDbLine
 10
-20261.2715448542
 20
-18089.26830017313
 30
0.0
 11
-21381.25953235055
 21
-18089.44820019945
 31
0.0
  0
ARC
  5
6EBE
330
18
100
AcDbEntity
  8
OBJECT
  6
HIDDEN2
 48
0.02
370
     5
100
AcDbCircle
 10
-20768.03543070322
 20
-18089.3497726
 30
0.0
 40
175.1735091276296
100
AcDbArc
 50
270.0092262980795
 51
90.00922629807948
  0
LINE
  5
6EBF
330
18
100
AcDbEntity
  8
OBJECT
  6
Continuous
 48
100.0
370
     5
100
AcDbLine
 10
-20884.78581592358
 20
-18330.71224455006
 30
0.0
 11
-20768.0045674478
 21
-18330.69433571074
 31
0.0
  0
LINE
  5
6EC0
330
18
100
AcDbEntity
  8
OBJECT
  6
HIDDEN2
 48
0.02
370
     5
100
AcDbLine
 10
-20768.00722263943
 20
-18264.52327945647
 30
0.0
 11
-20884.78956104939
 21
-18264.53897119691
 31
0.0
  0
LINE
  5
6EC1
330
18
100
AcDbEntity
  8
OBJECT
  6
Continuous
 48
100.0
370
     5
100
AcDbLine
 10
-20884.85835171631
 20
-17848.02312002866
 30
0.0
 11
-20768.08007600435
 21
-17848.00521164522
 31
0.0
  0
LINE
  5
6EC2
330
18
100
AcDbEntity
  8
OBJECT
  6
HIDDEN2
 48
0.02
370
     5
100
AcDbLine
 10
-20884.84597717699
 20
-17914.19195748398
 30
0.0
 11
-20768.06363876701
 21
-17914.17626574353
 31
0.0
  0
LINE
  5
6EC3
330
18
100
AcDbEntity
  8
OBJECT
  6
CENTER2
 48
0.009
370
     5
100
AcDbLine
 10
-20821.30866947037
 20
-17808.10738168729
 30
0.0
 11
-20821.19116174492
 21
-18574.36021577441
 31
0.0
  0
LINE
  5
6EC6
330
18
100
AcDbEntity
  8
OBJECT
  6
CENTER2
 48
100.0
370
     5
100
AcDbLine
 10
-20291.56057838485
 20
-17808.1104734172
 30
0.0
 11
-20591.5605783816
 21
-17808.10907734027
 31
0.0
  0
LINE
  5
6EC7
330
18
100
AcDbEntity
  8
OBJECT
  6
Continuous
 48
100.0
370
     5
100
AcDbLine
 10
-20561.56057838192
 20
-17808.10921694796
 30
0.0
 11
-20561.5607892374
 21
-17838.3160732194
 31
0.0
  0
LINE
  5
6EC9
330
18
100
AcDbEntity
  8
OBJECT
  6
Continuous
 48
100.0
370
     5
100
AcDbLine
 10
-20321.56090413582
 20
-17948.11033380913
 30
0.0
 11
-20321.56057838453
 21
-17808.11033380951
 31
0.0
  0
LINE
  5
6ECA
330
18
100
AcDbEntity
  8
OBJECT
  6
Continuous
 48
0.04
370
     5
100
AcDbLine
 10
-20561.5607892374
 20
-17838.3160732194
 30
0.0
 11
-20321.26378623164
 21
-17838.31785102574
 31
0.0
  0
LINE
  5
6ECD
330
18
100
AcDbEntity
  8
OBJECT
  6
Continuous
 48
100.0
370
     5
100
AcDbLine
 10
-20541.5605783805
 20
-17808.10903554096
 30
0.0
 11
-20541.5605783805
 21
-17788.10903554041
 31
0.0
  0
LINE
  5
6ECE
330
18
100
AcDbEntity
  8
OBJECT
  6
Continuous
 48
100.0
370
     5
100
AcDbLine
 10
-20341.56057838323
 20
-17808.10977537873
 30
0.0
 11
-20341.56057838323
 21
-17788.11051521458
 31
0.0
  0
LINE
  5
6ECF
330
18
100
AcDbEntity
  8
OBJECT
  6
Continuous
 48
0.04
370
     5
100
AcDbLine
 10
-20541.5605783805
 20
-17788.10903554041
 30
0.0
 11
-20341.56057838323
 21
-17788.11051521458
 31
0.0
  0
ARC
  5
6ED0
330
18
100
AcDbEntity
  8
OBJECT
  6
Continuous
 48
100.0
370
     5
100
AcDbCircle
 10
-28752.48016259598
 20
-18089.30905969726
 30
0.0
 40
241.3445650841488
100
AcDbArc
 50
269.9889061779933
 51
89.99217806879519
  0
ARC
  5
6ED1
330
18
100
AcDbEntity
  8
OBJECT
  6
Continuous
 48
100.0
370
     5
100
AcDbCircle
 10
-28869.27370645777
 20
-18089.28942080845
 30
0.0
 40
241.3445650841488
100
AcDbArc
 50
89.98855330735432
 51
269.9918251981561
  0
ARC
  5
6ED2
330
18
100
AcDbEntity
  8
OBJECT
  6
HIDDEN2
 48
0.02
370
     5
100
AcDbCircle
 10
-28752.49136829276
 20
-18089.30684054698
 30
0.0
 40
175.1735091276296
100
AcDbArc
 50
269.9899259110709
 51
89.98992591107093
  0
LINE
  5
6ED3
330
18
100
AcDbEntity
  8
OBJECT
  6
CENTER2
 48
0.009
370
     5
100
AcDbLine
 10
-29376.03759104579
 20
-18089.20044992728
 30
0.0
 11
-28256.04960633397
 21
-18089.39692212653
 31
0.0
  0
LINE
  5
6EDE
330
18
100
AcDbEntity
  8
OBJECT
  6
Continuous
 48
0.04
370
     5
100
AcDbLine
 10
-28100.91103075857
 20
-17788.05310866239
 30
0.0
 11
-28300.91103075584
 21
-17788.05162898822
 31
0.0
  0
LINE
  5
6EDF
330
18
100
AcDbEntity
  8
OBJECT
  6
Continuous
 48
100.0
370
     5
100
AcDbLine
 10
-28300.91132667972
 20
-17808.05088915019
 30
0.0
 11
-28300.91103075584
 21
-17788.05162898822
 31
0.0
  0
LINE
  5
6EE0
330
18
100
AcDbEntity
  8
OBJECT
  6
Continuous
 48
100.0
370
     5
100
AcDbLine
 10
-28100.91132669341
 20
-17808.05310866075
 30
0.0
 11
-28100.91103075857
 21
-17788.05310866239
 31
0.0
  0
LINE
  5
6EE1
330
18
100
AcDbEntity
  8
OBJECT
  6
Continuous
 48
0.04
370
     5
100
AcDbLine
 10
-28080.91156280442
 20
-17838.26044227384
 30
0.0
 11
-28321.20856581019
 21
-17838.2586644675
 31
0.0
  0
LINE
  5
6EE2
330
18
100
AcDbEntity
  8
OBJECT
  6
Continuous
 48
100.0
370
     5
100
AcDbLine
 10
-28080.91132669686
 20
-17808.05358600259
 30
0.0
 11
-28080.91156280442
 21
-17838.26044227384
 31
0.0
  0
LINE
  5
6EE3
330
18
100
AcDbEntity
  8
OBJECT
  6
Continuous
 48
100.0
370
     5
100
AcDbLine
 10
-28320.91307247705
 20
-17948.05115163525
 30
0.0
 11
-28320.9113266845
 21
-17808.05115164613
 31
0.0
  0
LINE
  5
6EE4
330
18
100
AcDbEntity
  8
OBJECT
  6
CENTER2
 48
100.0
370
     5
100
AcDbLine
 10
-28350.91132668297
 20
-17808.05084735157
 30
0.0
 11
-28050.91132669839
 21
-17808.05389029715
 31
0.0
  0
MTEXT
  5
6EE7
330
18
100
AcDbEntity
  8
OBJECT
  6
Continuous
 48
100.0
370
     5
100
AcDbMText
 10
-28560.1862616536
 20
-18442.81972957419
 30
0.0
 40
180.0
 41
267.0601
 71
     1
 72
     5
  1
H
210
0.0
220
0.0
230
-1.0
 11
-0.9999999803667989
 21
0.000198157517722
 31
0.0
 73
     1
 44
1.0
  0
ARC
  5
6EE8
330
18
100
AcDbEntity
  8
OBJECT
  6
HIDDEN2
 48
0.02
370
     5
100
AcDbCircle
 10
-28869.27370645776
 20
-18089.28942080845
 30
0.0
 40
175.1735091276296
100
AcDbArc
 50
89.98992591107088
 51
269.9899259110708
  0
LINE
  5
6EE9
330
18
100
AcDbEntity
  8
OBJECT
  6
Continuous
 48
100.0
370
     5
100
AcDbLine
 10
-28752.52689262834
 20
-18330.65362025739
 30
0.0
 11
-28869.30814082634
 21
-18330.6339834361
 31
0.0
  0
LINE
  5
6EEA
330
18
100
AcDbEntity
  8
OBJECT
  6
HIDDEN2
 48
0.02
370
     5
100
AcDbLine
 10
-28869.30450651869
 20
-18264.46292722836
 30
0.0
 11
-28752.5221683537
 21
-18264.48034696689
 31
0.0
  0
LINE
  5
6EEB
330
18
100
AcDbEntity
  8
OBJECT
  6
Continuous
 48
100.0
370
     5
100
AcDbLine
 10
-28752.44721460932
 20
-17847.96449686212
 30
0.0
 11
-28869.22549004351
 21
-17847.9448605407
 31
0.0
  0
LINE
  5
6EEC
330
18
100
AcDbEntity
  8
OBJECT
  6
HIDDEN2
 48
0.02
370
     5
100
AcDbLine
 10
-28752.46056823184
 20
-17914.13333412709
 30
0.0
 11
-28869.24290639685
 21
-17914.11591438855
 31
0.0
  0
LINE
  5
6EED
330
18
100
AcDbEntity
  8
OBJECT
  6
CENTER2
 48
0.009
370
     5
100
AcDbLine
 10
-28815.99630622544
 20
-17808.04781819688
 30
0.0
 11
-28816.12515199613
 21
-18574.30065046139
 31
0.0
  0
MTEXT
  5
6EEE
330
18
100
AcDbEntity
  8
OBJECT
  6
Continuous
 48
100.0
370
     5
100
AcDbMText
 10
-29082.35202543074
 20
-18442.72391133167
 30
0.0
 40
180.0
 41
267.0601
 71
     1
 72
     5
  1
M
 11
0.9999999857455755
 21
-0.0001688456354533
 31
0.0
 73
     1
 44
1.0
  0
MTEXT
  5
6F2B
330
18
100
AcDbEntity
  8
OBJECT
  6
Continuous
 48
100.0
370
     5
100
AcDbMText
 10
-19570.57513234262
 20
-18443.0752558168
 30
0.0
 40
180.0
 41
267.0601
 71
     1
 72
     5
  1
H
210
0.0
220
0.0
230
-1.0
 11
-0.9999999803667989
 21
0.000198157517722
 31
0.0
 73
     1
 44
1.0
  0
MTEXT
  5
6F2C
330
18
100
AcDbEntity
  8
OBJECT
  6
Continuous
 48
100.0
370
     5
100
AcDbMText
 10
-20092.74089611976
 20
-18442.97943757428
 30
0.0
 40
180.0
 41
267.0601
 71
     1
 72
     5
  1
M
 11
0.9999999857455755
 21
-0.0001688456354533
 31
0.0
 73
     1
 44
1.0
  0
MTEXT
  5
6F2D
330
18
100
AcDbEntity
  8
OBJECT
  6
Continuous
 48
100.0
370
     5
100
AcDbMText
 10
-20565.40820295837
 20
-18443.06747984636
 30
0.0
 40
180.0
 41
267.0601
 71
     1
 72
     5
  1
H
210
0.0
220
0.0
230
-1.0
 11
-0.9999999803667989
 21
0.000198157517722
 31
0.0
 73
     1
 44
1.0
  0
MTEXT
  5
6F2E
330
18
100
AcDbEntity
  8
OBJECT
  6
Continuous
 48
100.0
370
     5
100
AcDbMText
 10
-21087.57396673551
 20
-18442.97166160384
 30
0.0
 40
180.0
 41
267.0601
 71
     1
 72
     5
  1
M
 11
0.9999999857455755
 21
-0.0001688456354533
 31
0.0
 73
     1
 44
1.0
  0
ARC
  5
6F2F
330
18
100
AcDbEntity
  8
OBJECT
  6
Continuous
 48
100.0
370
     5
100
AcDbCircle
 10
-28752.5390594673
 20
-26526.79122073499
 30
0.0
 40
241.3445650841488
100
AcDbArc
 50
270.0070220380403
 51
90.0102939288422
  0
ARC
  5
6F30
330
18
100
AcDbEntity
  8
OBJECT
  6
Continuous
 48
100.0
370
     5
100
AcDbCircle
 10
-28869.33260359187
 20
-26526.80922909607
 30
0.0
 40
241.3445650841488
100
AcDbArc
 50
90.00737490867946
 51
270.0106467994812
  0
ARC
  5
6F31
330
18
100
AcDbEntity
  8
OBJECT
  6
HIDDEN2
 48
0.02
370
     5
100
AcDbCircle
 10
-28752.55026519506
 20
-26526.79343972883
 30
0.0
 40
175.1735091276296
100
AcDbArc
 50
270.0092741957647
 51
90.00927419576468
  0
LINE
  5
6F32
330
18
100
AcDbEntity
  8
OBJECT
  6
CENTER2
 48
0.009
370
     5
100
AcDbLine
 10
-29376.09648937261
 20
-26526.89112516351
 30
0.0
 11
-28256.10850202703
 21
-26526.71028885824
 31
0.0
  0
LINE
  5
6F33
330
18
100
AcDbEntity
  8
OBJECT
  6
Continuous
 48
0.04
370
     5
100
AcDbLine
 10
-28100.97413345824
 20
-26828.05626814689
 30
0.0
 11
-28300.97413345667
 21
-26828.05495566718
 31
0.0
  0
LINE
  5
6F34
330
18
100
AcDbEntity
  8
OBJECT
  6
Continuous
 48
100.0
370
     5
100
AcDbLine
 10
-28300.9741501755
 20
-26808.05569550303
 30
0.0
 11
-28300.97413345667
 21
-26828.05495566718
 31
0.0
  0
LINE
  5
6F35
330
18
100
AcDbEntity
  8
OBJECT
  6
Continuous
 48
100.0
370
     5
100
AcDbLine
 10
-28100.97415017769
 20
-26808.05626814635
 30
0.0
 11
-28100.97413345824
 21
-26828.05626814689
 31
0.0
  0
LINE
  5
6F36
330
18
100
AcDbEntity
  8
OBJECT
  6
Continuous
 48
0.04
370
     5
100
AcDbLine
 10
-28080.97396457304
 20
-26777.84921374829
 30
0.0
 11
-28321.2709675802
 21
-26777.84763682359
 31
0.0
  0
LINE
  5
6F37
330
18
100
AcDbEntity
  8
OBJECT
  6
Continuous
 48
100.0
370
     5
100
AcDbLine
 10
-28080.97415017643
 20
-26808.0560700199
 30
0.0
 11
-28080.97396457304
 21
-26777.84921374829
 31
0.0
  0
LINE
  5
6F38
330
18
100
AcDbEntity
  8
OBJECT
  6
Continuous
 48
100.0
370
     5
100
AcDbLine
 10
-28320.9739414595
 20
-26668.05515379186
 30
0.0
 11
-28320.97415017467
 21
-26808.0551537917
 31
0.0
  0
LINE
  5
6F39
330
18
100
AcDbEntity
  8
OBJECT
  6
CENTER2
 48
100.0
370
     5
100
AcDbLine
 10
-28350.97415017445
 20
-26808.05503926318
 30
0.0
 11
-28050.97415017663
 21
-26808.05618454842
 31
0.0
  0
ARC
  5
6F3B
330
18
100
AcDbEntity
  8
OBJECT
  6
HIDDEN2
 48
0.02
370
     5
100
AcDbCircle
 10
-28869.33260359187
 20
-26526.80922909606
 30
0.0
 40
175.1735091276296
100
AcDbArc
 50
90.0092741957647
 51
270.0092741957647
  0
LINE
  5
6F3C
330
18
100
AcDbEntity
  8
OBJECT
  6
Continuous
 48
100.0
370
     5
100
AcDbLine
 10
-28752.5824201439
 20
-26285.44665954599
 30
0.0
 11
-28869.36366860466
 21
-26285.4646660112
 31
0.0
  0
LINE
  5
6F3D
330
18
100
AcDbEntity
  8
OBJECT
  6
HIDDEN2
 48
0.02
370
     5
100
AcDbLine
 10
-28869.36095809587
 20
-26351.63572226324
 30
0.0
 11
-28752.57861969907
 21
-26351.61993289599
 31
0.0
  0
LINE
  5
6F3E
330
18
100
AcDbEntity
  8
OBJECT
  6
Continuous
 48
100.0
370
     5
100
AcDbLine
 10
-28752.50948083642
 20
-26768.13578400659
 30
0.0
 11
-28869.28775653337
 21
-26768.15379001344
 31
0.0
  0
LINE
  5
6F3F
330
18
100
AcDbEntity
  8
OBJECT
  6
HIDDEN2
 48
0.02
370
     5
100
AcDbLine
 10
-28752.52191069106
 20
-26701.96694656164
 30
0.0
 11
-28869.30424908788
 21
-26701.98273592889
 31
0.0
  0
LINE
  5
6F40
330
18
100
AcDbEntity
  8
OBJECT
  6
CENTER2
 48
0.009
370
     5
100
AcDbLine
 10
-28816.05912971389
 20
-26808.05157547372
 30
0.0
 11
-28816.17727800549
 21
-26041.7987414851
 31
0.0
  0
LINE
  5
6F42
330
18
100
AcDbEntity
  8
OBJECT
  6
CENTER2
 48
0.009
370
     5
100
AcDbLine
 10
-19826.53842228446
 20
-26808.11056829125
 30
0.0
 11
-19826.41021707991
 21
-26041.85773591931
 31
0.0
  0
ARC
  5
6F43
330
18
100
AcDbEntity
  8
OBJECT
  6
Continuous
 48
100.0
370
     5
100
AcDbCircle
 10
-19890.0548010405
 20
-26526.84937988872
 30
0.0
 40
241.3445650841488
100
AcDbArc
 50
89.98895407567861
 51
269.9922259664804
  0
ARC
  5
6F44
330
18
100
AcDbEntity
  8
OBJECT
  6
Continuous
 48
100.0
370
     5
100
AcDbCircle
 10
-19773.26125716234
 20
-26526.86892114135
 30
0.0
 40
241.3445650841488
100
AcDbArc
 50
269.9886012050395
 51
89.99187309584135
  0
ARC
  5
6F45
330
18
100
AcDbEntity
  8
OBJECT
  6
HIDDEN2
 48
0.02
370
     5
100
AcDbCircle
 10
-19890.04359534187
 20
-26526.85159902962
 30
0.0
 40
175.1735091276296
100
AcDbArc
 50
89.98997380875612
 51
269.9899738087562
  0
ARC
  5
6F46
330
18
100
AcDbEntity
  8
OBJECT
  6
HIDDEN2
 48
0.02
370
     5
100
AcDbCircle
 10
-19773.26125716235
 20
-26526.86892114135
 30
0.0
 40
175.1735091276296
100
AcDbArc
 50
269.9899738087561
 51
89.98997380875607
  0
LINE
  5
6F47
330
18
100
AcDbEntity
  8
OBJECT
  6
Continuous
 48
100.0
370
     5
100
AcDbLine
 10
-19890.00827276552
 20
-26285.50481928961
 30
0.0
 11
-19773.22702455114
 21
-26285.524358485
 31
0.0
  0
LINE
  5
6F48
330
18
100
AcDbEntity
  8
OBJECT
  6
CENTER2
 48
0.009
370
     5
100
AcDbLine
 10
-19266.49737250013
 20
-26526.95746838195
 30
0.0
 11
-20386.48535737579
 21
-26526.76193246165
 31
0.0
  0
LINE
  5
6F49
330
18
100
AcDbEntity
  8
OBJECT
  6
HIDDEN2
 48
0.02
370
     5
100
AcDbLine
 10
-19773.23060354162
 20
-26351.69541469576
 30
0.0
 11
-19890.01294172113
 21
-26351.67809258402
 31
0.0
  0
LINE
  5
6F4A
330
18
100
AcDbEntity
  8
OBJECT
  6
Continuous
 48
100.0
370
     5
100
AcDbLine
 10
-19890.0875472698
 20
-26768.19394275132
 30
0.0
 11
-19773.30927181922
 21
-26768.21348144933
 31
0.0
  0
LINE
  5
6F4B
330
18
100
AcDbEntity
  8
OBJECT
  6
HIDDEN2
 48
0.02
370
     5
100
AcDbLine
 10
-19890.07424896259
 20
-26702.0251054752
 30
0.0
 11
-19773.29191078306
 21
-26702.04242758694
 31
0.0
  0
ARC
  5
6F4C
330
18
100
AcDbEntity
  8
OBJECT
  6
Continuous
 48
100.0
370
     5
100
AcDbCircle
 10
-20884.8878716624
 20
-26526.84243557117
 30
0.0
 40
241.3445650841488
100
AcDbArc
 50
89.98895407567861
 51
269.9922259664804
  0
ARC
  5
6F4D
330
18
100
AcDbEntity
  8
OBJECT
  6
Continuous
 48
100.0
370
     5
100
AcDbCircle
 10
-20768.09432778425
 20
-26526.86197682382
 30
0.0
 40
241.3445650841488
100
AcDbArc
 50
269.9886012050395
 51
89.99187309584135
  0
ARC
  5
6F4E
330
18
100
AcDbEntity
  8
OBJECT
  6
HIDDEN2
 48
0.02
370
     5
100
AcDbCircle
 10
-20884.87666596377
 20
-26526.84465471208
 30
0.0
 40
175.1735091276296
100
AcDbArc
 50
89.98997380875612
 51
269.9899738087562
  0
LINE
  5
6F4F
330
18
100
AcDbEntity
  8
OBJECT
  6
CENTER2
 48
0.009
370
     5
100
AcDbLine
 10
-20261.33044312203
 20
-26526.95052406441
 30
0.0
 11
-21381.31842799769
 21
-26526.75498814411
 31
0.0
  0
ARC
  5
6F50
330
18
100
AcDbEntity
  8
OBJECT
  6
HIDDEN2
 48
0.02
370
     5
100
AcDbCircle
 10
-20768.09432778425
 20
-26526.86197682381
 30
0.0
 40
175.1735091276296
100
AcDbArc
 50
269.9899738087561
 51
89.98997380875607
  0
LINE
  5
6F51
330
18
100
AcDbEntity
  8
OBJECT
  6
Continuous
 48
100.0
370
     5
100
AcDbLine
 10
-20884.84134338742
 20
-26285.49787497206
 30
0.0
 11
-20768.06009517305
 21
-26285.51741416746
 31
0.0
  0
LINE
  5
6F52
330
18
100
AcDbEntity
  8
OBJECT
  6
HIDDEN2
 48
0.02
370
     5
100
AcDbLine
 10
-20768.06367416352
 20
-26351.68847037822
 30
0.0
 11
-20884.84601234304
 21
-26351.67114826649
 31
0.0
  0
LINE
  5
6F53
330
18
100
AcDbEntity
  8
OBJECT
  6
Continuous
 48
100.0
370
     5
100
AcDbLine
 10
-20884.9206178917
 20
-26768.18699843378
 30
0.0
 11
-20768.14234244113
 21
-26768.20653713179
 31
0.0
  0
LINE
  5
6F54
330
18
100
AcDbEntity
  8
OBJECT
  6
HIDDEN2
 48
0.02
370
     5
100
AcDbLine
 10
-20884.90731958449
 20
-26702.01816115767
 30
0.0
 11
-20768.12498140496
 21
-26702.03548326941
 31
0.0
  0
LINE
  5
6F55
330
18
100
AcDbEntity
  8
OBJECT
  6
CENTER2
 48
0.009
370
     5
100
AcDbLine
 10
-20821.37149290636
 20
-26808.10362397372
 30
0.0
 11
-20821.24328770182
 21
-26041.85079160176
 31
0.0
  0
LINE
  5
6F56
330
18
100
AcDbEntity
  8
OBJECT
  6
CENTER2
 48
100.0
370
     5
100
AcDbLine
 10
-20291.62340182931
 20
-26808.10792793473
 30
0.0
 11
-20591.62340181631
 21
-26808.10513578085
 31
0.0
  0
LINE
  5
6F57
330
18
100
AcDbEntity
  8
OBJECT
  6
Continuous
 48
100.0
370
     5
100
AcDbLine
 10
-20561.62340181761
 20
-26808.10541499624
 30
0.0
 11
-20561.62319096213
 21
-26777.8985587248
 31
0.0
  0
LINE
  5
6F58
330
18
100
AcDbEntity
  8
OBJECT
  6
Continuous
 48
100.0
370
     5
100
AcDbLine
 10
-20321.62177307158
 20
-26668.10764872882
 30
0.0
 11
-20321.62340182801
 21
-26808.10764871934
 31
0.0
  0
LINE
  5
6F59
330
18
100
AcDbEntity
  8
OBJECT
  6
Continuous
 48
0.04
370
     5
100
AcDbLine
 10
-20561.62319096213
 20
-26777.8985587248
 30
0.0
 11
-20321.32618795497
 21
-26777.9001356495
 31
0.0
  0
LINE
  5
6F5A
330
18
100
AcDbEntity
  8
OBJECT
  6
Continuous
 48
100.0
370
     5
100
AcDbLine
 10
-20541.62340182067
 20
-26808.10587561863
 30
0.0
 11
-20541.62368103606
 21
-26828.10587561723
 31
0.0
  0
LINE
  5
6F5B
330
18
100
AcDbEntity
  8
OBJECT
  6
Continuous
 48
100.0
370
     5
100
AcDbLine
 10
-20341.62340183256
 20
-26808.10792793473
 30
0.0
 11
-20341.62368103762
 21
-26828.10718809694
 31
0.0
  0
LINE
  5
6F5C
330
18
100
AcDbEntity
  8
OBJECT
  6
Continuous
 48
0.04
370
     5
100
AcDbLine
 10
-20541.62368103606
 20
-26828.10587561723
 30
0.0
 11
-20341.62368103762
 21
-26828.10718809694
 31
0.0
  0
MTEXT
  5
6F62
330
18
100
AcDbEntity
  8
OBJECT
  6
Continuous
 48
100.0
370
     5
100
AcDbMText
 10
-20092.77288020085
 20
-26041.81260698524
 30
0.0
 40
180.0
 41
267.0601
 71
     1
 72
     5
  1
M
 11
0.9999999857455755
 21
-0.0001688456354533
 31
0.0
 73
     1
 44
1.0
  0
MTEXT
  5
6F63
330
18
100
AcDbEntity
  8
OBJECT
  6
Continuous
 48
100.0
370
     5
100
AcDbMText
 10
-19570.60711642371
 20
-26041.90842522775
 30
0.0
 40
180.0
 41
267.0601
 71
     1
 72
     5
  1
H
210
0.0
220
0.0
230
-1.0
 11
-0.9999999803667989
 21
0.000198157517722
 31
0.0
 73
     1
 44
1.0
  0
MTEXT
  5
6F64
330
18
100
AcDbEntity
  8
OBJECT
  6
Continuous
 48
100.0
370
     5
100
AcDbMText
 10
-20565.44018703946
 20
-26041.90064925731
 30
0.0
 40
180.0
 41
267.0601
 71
     1
 72
     5
  1
H
210
0.0
220
0.0
230
-1.0
 11
-0.9999999803667989
 21
0.000198157517722
 31
0.0
 73
     1
 44
1.0
  0
MTEXT
  5
6F65
330
18
100
AcDbEntity
  8
OBJECT
  6
Continuous
 48
100.0
370
     5
100
AcDbMText
 10
-21087.60595081659
 20
-26041.8048310148
 30
0.0
 40
180.0
 41
267.0601
 71
     1
 72
     5
  1
M
 11
0.9999999857455755
 21
-0.0001688456354533
 31
0.0
 73
     1
 44
1.0
  0
MTEXT
  5
6F66
330
18
100
AcDbEntity
  8
OBJECT
  6
Continuous
 48
100.0
370
     5
100
AcDbMText
 10
-28560.21824573469
 20
-26041.65289898514
 30
0.0
 40
180.0
 41
267.0601
 71
     1
 72
     5
  1
H
210
0.0
220
0.0
230
-1.0
 11
-0.9999999803667989
 21
0.000198157517722
 31
0.0
 73
     1
 44
1.0
  0
MTEXT
  5
6F67
330
18
100
AcDbEntity
  8
OBJECT
  6
Continuous
 48
100.0
370
     5
100
AcDbMText
 10
-29082.38400951183
 20
-26041.55708074262
 30
0.0
 40
180.0
 41
267.0601
 71
     1
 72
     5
  1
M
 11
0.9999999857455755
 21
-0.0001688456354533
 31
0.0
 73
     1
 44
1.0
  0
LINE
  5
72AD
330
18
100
AcDbEntity
  8
OBJECT
  6
Continuous
 48
100.0
370
     5
100
AcDbLine
 10
-24421.46469249562
 20
-7444.103902064488
 30
0.0
 11
-24321.46469249562
 21
-7444.103902064488
 31
0.0
  0
LINE
  5
72C1
330
18
100
AcDbEntity
  8
OBJECT
  6
Continuous
 48
100.0
370
     5
100
AcDbLine
 10
-24359.73303573212
 20
-7351.71594881336
 30
0.0
 11
-24346.46469249562
 21
-7444.103902064488
 31
0.0
  0
LINE
  5
72C2
330
18
100
AcDbEntity
  8
OBJECT
  6
Continuous
 48
100.0
370
     5
100
AcDbLine
 10
-24392.17537061427
 20
-7373.393223945832
 30
0.0
 11
-24371.46469249562
 21
-7444.103902064488
 31
0.0
  0
LINE
  5
72C3
330
18
100
AcDbEntity
  8
OBJECT
  6
Continuous
 48
100.0
370
     5
100
AcDbLine
 10
-24413.85264574674
 20
-7405.835558827978
 30
0.0
 11
-24396.46469249562
 21
-7444.103902064488
 31
0.0
  0
LINE
  5
72C5
330
18
100
AcDbEntity
  8
OBJECT
  6
Continuous
 48
100.0
370
     5
100
AcDbLine
 10
-26571.468543689
 20
-7444.090001470451
 30
0.0
 11
-26571.468543689
 21
-7370.409001470452
 31
0.0
  0
LINE
  5
72C6
330
18
100
AcDbEntity
  8
OBJECT
  6
Continuous
 48
100.0
370
     5
100
AcDbLine
 10
-27696.47676550507
 20
-7486.116060185716
 30
0.0
 11
-27696.47676550507
 21
-7444.082660185717
 31
0.0
  0
SPLINE
  5
72C9
330
18
100
AcDbEntity
  8
OBJECT
  6
Continuous
 48
100.0
370
     5
100
AcDbSpline
210
0.0
220
0.0
230
1.0
 70
     8
 71
     3
 72
    42
 73
    38
 74
     0
 42
0.0000000001
 43
0.0000000001
 40
0.0
 40
0.0
 40
0.0
 40
0.0
 40
495.7386665873253
 40
495.7386665873253
 40
796.5950475149609
 40
796.5950475149609
 40
1061.586568876114
 40
1061.586568876114
 40
1218.306654415004
 40
1218.306654415004
 40
1375.026739953894
 40
1375.026739953894
 40
1688.466911031673
 40
1688.466911031673
 40
2008.236805330291
 40
2008.236805330291
 40
2209.870228150517
 40
2209.870228150517
 40
2369.060551984099
 40
2369.060551984099
 40
2528.250875817682
 40
2528.250875817682
 40
2846.631523484847
 40
2846.631523484847
 40
3078.949071164761
 40
3078.949071164761
 40
3277.578926015992
 40
3277.578926015992
 40
3390.225438450709
 40
3390.225438450709
 40
3502.871950885426
 40
3502.871950885426
 40
3728.16497575486
 40
3728.16497575486
 40
4178.751025493727
 40
4178.751025493727
 40
4501.739935552699
 40
4501.739935552699
 40
4501.739935552699
 40
4501.739935552699
 10
-28809.69894772981
 20
-7743.844988425047
 30
0.0
 10
-28644.57879847007
 20
-7737.359881291239
 30
0.0
 10
-28479.56998754755
 20
-7730.879209109047
 30
0.0
 10
-28214.5885535095
 20
-7720.767746975575
 30
0.0
 10
-28114.54959072065
 20
-7717.018130266326
 30
0.0
 10
-27926.46733672505
 20
-7710.173103498934
 30
0.0
 10
-27838.41568872101
 20
-7707.052989714854
 30
0.0
 10
-27698.33342189474
 20
-7702.268004294603
 30
0.0
 10
-27646.28636802491
 20
-7700.530451766447
 30
0.0
 10
-27542.1769880689
 20
-7697.138301560499
 30
0.0
 10
-27490.11885564001
 20
-7695.483167327461
 30
0.0
 10
-27333.93438232769
 20
-7690.637395461185
 30
0.0
 10
-27229.79796535444
 20
-7687.566388914035
 30
0.0
 10
-27019.39637804791
 20
-7681.667395212805
 30
0.0
 10
-26913.13068700815
 20
-7678.845568088329
 30
0.0
 10
-26739.83783081061
 20
-7674.485915168745
 30
0.0
 10
-26672.81823833777
 20
-7672.858869195526
 30
0.0
 10
-26552.87780893817
 20
-7670.048585676839
 30
0.0
 10
-26499.96005668271
 20
-7668.84346914499
 30
0.0
 10
-26394.13905286946
 20
-7666.507685813418
 30
0.0
 10
-26341.2333444019
 20
-7665.377166135094
 30
0.0
 10
-26182.53073579795
 20
-7662.106599899101
 30
0.0
 10
-26076.74835257375
 20
-7660.087548041713
 30
0.0
 10
-25893.81227025186
 20
-7656.915171966518
 30
0.0
 10
-25816.64935136776
 20
-7655.675360497426
 30
0.0
 10
-25673.53242036287
 20
-7653.575236424228
 30
0.0
 10
-25607.5755463772
 20
-7652.685963237864
 30
0.0
 10
-25504.22568450451
 20
-7651.424687550906
 30
0.0
 10
-25466.82942738819
 20
-7650.995479039645
 30
0.0
 10
-25392.03280795633
 20
-7650.193147144057
 30
0.0
 10
-25354.62672445019
 20
-7649.819600015502
 30
0.0
 10
-25242.38523225184
 20
-7648.773455226119
 30
0.0
 10
-25167.52658168848
 20
-7648.175357540641
 30
0.0
 10
-24942.85830921814
 20
-7646.61206053086
 30
0.0
 10
-24792.95636591666
 20
-7645.877911348221
 30
0.0
 10
-24535.39344083222
 20
-7644.838519182366
 30
0.0
 10
-24427.79145503565
 20
-7644.470672612574
 30
0.0
 10
-24320.12776283885
 20
-7644.102634144338
 30
0.0
  0
SPLINE
  5
72CA
330
18
100
AcDbEntity
  8
OBJECT
  6
Continuous
 48
100.0
370
     5
100
AcDbSpline
210
0.0
220
0.0
230
1.0
 70
     8
 71
     3
 72
    38
 73
    34
 74
     0
 42
0.0000000001
 43
0.0000000001
 40
0.0
 40
0.0
 40
0.0
 40
0.0
 40
495.7070046893664
 40
495.7070046893664
 40
795.5758276042855
 40
795.5758276042855
 40
1059.686684663264
 40
1059.686684663264
 40
1220.864542679698
 40
1220.864542679698
 40
1621.737001368523
 40
1621.737001368523
 40
1941.555898936553
 40
1941.555898936553
 40
2259.359522250093
 40
2259.359522250093
 40
2577.163145563633
 40
2577.163145563633
 40
2894.966768877173
 40
2894.966768877173
 40
3117.286184770688
 40
3117.286184770688
 40
3325.488815297946
 40
3325.488815297946
 40
3464.871124130459
 40
3464.871124130459
 40
3604.253432962972
 40
3604.253432962972
 40
3883.018050627998
 40
3883.018050627998
 40
4440.547285958049
 40
4440.547285958049
 40
4501.739935552699
 40
4501.739935552699
 40
4501.739935552699
 40
4501.739935552699
 10
-28809.34574431523
 20
-7752.838055051507
 30
0.0
 10
-28644.23614322168
 20
-7746.353362197773
 30
0.0
 10
-28479.24119920784
 20
-7739.873236497522
 30
0.0
 10
-28214.60950409568
 20
-7729.775082366227
 30
0.0
 10
-28114.90404508756
 20
-7726.037726629193
 30
0.0
 10
-27927.45449560008
 20
-7719.21434522034
 30
0.0
 10
-27839.7018219269
 20
-7716.103793290187
 30
0.0
 10
-27698.44293782464
 20
-7711.276032107827
 30
0.0
 10
-27644.92060691851
 20
-7709.489382825217
 30
0.0
 10
-27458.25172002318
 20
-7703.412036995129
 30
0.0
 10
-27325.09051652021
 20
-7699.345194862771
 30
0.0
 10
-27085.65367854981
 20
-7692.483092341575
 30
0.0
 10
-26979.38586480777
 20
-7689.596987775285
 30
0.0
 10
-26767.49398342808
 20
-7684.142063917128
 30
0.0
 10
-26661.86730866054
 20
-7681.571295439313
 30
0.0
 10
-26450.60206674007
 20
-7676.7084281961
 30
0.0
 10
-26344.98497920028
 20
-7674.417961674016
 30
0.0
 10
-26133.79551650502
 20
-7670.165556269921
 30
0.0
 10
-26028.22079857987
 20
-7668.203714869385
 30
0.0
 10
-25848.82595071367
 20
-7665.18876656974
 30
0.0
 10
-25774.99541669698
 20
-7664.039724834252
 30
0.0
 10
-25632.04196856527
 20
-7662.008209292881
 30
0.0
 10
-25562.91740965265
 20
-7661.11342579847
 30
0.0
 10
-25447.53437837391
 20
-7659.777110464573
 30
0.0
 10
-25401.26856335509
 20
-7659.284504802626
 30
0.0
 10
-25308.70432398794
 20
-7658.379399716555
 30
0.0
 10
-25262.40998482817
 20
-7657.966298734312
 30
0.0
 10
-25123.49045990507
 20
-7656.829499635644
 30
0.0
 10
-25030.82876895032
 20
-7656.208319123969
 30
0.0
 10
-24752.69889518518
 20
-7654.62776338949
 30
0.0
 10
-24567.08592274264
 20
-7653.951465331232
 30
0.0
 10
-24360.89008908483
 20
-7653.242029690995
 30
0.0
 10
-24340.49468382882
 20
-7653.172309182508
 30
0.0
 10
-24320.09699734313
 20
-7653.102581559977
 30
0.0
  0
SPLINE
  5
72CB
330
18
100
AcDbEntity
  8
OBJECT
  6
Continuous
 48
100.0
370
     5
100
AcDbSpline
210
0.0
220
0.0
230
1.0
 70
     8
 71
     3
 72
    28
 73
    24
 74
     0
 42
0.0000000001
 43
0.0000000001
 40
0.0
 40
0.0
 40
0.0
 40
0.0
 40
495.1512231686283
 40
495.1512231686283
 40
817.4978830545974
 40
817.4978830545974
 40
1093.318075990141
 40
1093.318075990141
 40
1644.958461861228
 40
1644.958461861228
 40
2196.598847732316
 40
2196.598847732316
 40
2868.43486027312
 40
2868.43486027312
 40
3167.740274152593
 40
3167.740274152593
 40
3426.414130959848
 40
3426.414130959848
 40
3685.087987767103
 40
3685.087987767103
 40
4202.435701381613
 40
4202.435701381613
 40
4501.739935552699
 40
4501.739935552699
 40
4501.739935552699
 40
4501.739935552699
 10
-28822.45351547843
 20
-7419.095360247361
 30
0.0
 10
-28657.52903129692
 20
-7412.617937875225
 30
0.0
 10
-28492.59529089616
 20
-7406.140146811377
 30
0.0
 10
-28220.26290819541
 20
-7395.747459040723
 30
0.0
 10
-28112.87323734934
 20
-7391.727102176834
 30
0.0
 10
-27913.57869186613
 20
-7384.504545356117
 30
0.0
 10
-27821.67605141511
 20
-7381.26801195504
 30
0.0
 10
-27545.94653281992
 20
-7371.935119347241
 30
0.0
 10
-27362.10796304494
 20
-7366.231494818155
 30
0.0
 10
-26994.40919114254
 20
-7355.773456575668
 30
0.0
 10
-26810.54756807045
 20
-7351.018013779995
 30
0.0
 10
-26402.74414864969
 20
-7341.41741029362
 30
0.0
 10
-26178.79045903473
 20
-7336.75706775866
 30
0.0
 10
-25855.03247927782
 20
-7331.220387508955
 30
0.0
 10
-25755.24630901937
 20
-7329.679111538474
 30
0.0
 10
-25569.21315834566
 20
-7327.150630940443
 30
0.0
 10
-25482.9658878413
 20
-7326.118016097659
 30
0.0
 10
-25310.47208322154
 20
-7324.348459634885
 30
0.0
 10
-25224.22710347411
 20
-7323.605624942896
 30
0.0
 10
-24965.49892584106
 20
-7321.700486831038
 30
0.0
 10
-24793.02248965082
 20
-7320.861541540698
 30
0.0
 10
-24520.78064932748
 20
-7319.786647593376
 30
0.0
 10
-24421.0074863502
 20
-7319.445583346345
 30
0.0
 10
-24321.23873907304
 20
-7319.104533024027
 30
0.0
  0
SPLINE
  5
72CE
330
18
100
AcDbEntity
  8
OBJECT
  6
Continuous
 48
100.0
370
     5
100
AcDbSpline
210
0.0
220
0.0
230
1.0
 70
     8
 71
     3
 72
    28
 73
    24
 74
     0
 42
0.0000000001
 43
0.0000000001
 40
0.0
 40
0.0
 40
0.0
 40
0.0
 40
495.1512231686283
 40
495.1512231686283
 40
817.4978830545974
 40
817.4978830545974
 40
1093.318075990141
 40
1093.318075990141
 40
1644.958461861228
 40
1644.958461861228
 40
2196.598847732316
 40
2196.598847732316
 40
2868.43486027312
 40
2868.43486027312
 40
3167.740274152593
 40
3167.740274152593
 40
3426.414130959848
 40
3426.414130959848
 40
3685.087987767103
 40
3685.087987767103
 40
4202.435701381613
 40
4202.435701381613
 40
4501.739935552699
 40
4501.739935552699
 40
4501.739935552699
 40
4501.739935552699
 10
-19819.85397018374
 20
-7419.150978588453
 30
0.0
 10
-19984.77837431724
 20
-7412.671518399587
 30
0.0
 10
-20149.71203466541
 20
-7406.191689404636
 30
0.0
 10
-20422.04428893267
 20
-7395.795636678847
 30
0.0
 10
-20529.43391009476
 20
-7391.773952901788
 30
0.0
 10
-20728.7283663204
 20
-7384.548933585771
 30
0.0
 10
-20820.6309667736
 20
-7381.311264630177
 30
0.0
 10
-21096.36037002994
 20
-7371.974965091938
 30
0.0
 10
-21280.19886931654
 20
-7366.26906904244
 30
0.0
 10
-21647.8975119707
 20
-7355.806487491763
 30
0.0
 10
-21831.7590762702
 20
-7351.048772890756
 30
0.0
 10
-22239.56237703418
 20
-7341.443130560597
 30
0.0
 10
-22463.51600904856
 20
-7336.78002084022
 30
0.0
 10
-22787.27392036918
 20
-7331.23934021712
 30
0.0
 10
-22887.06007157592
 20
-7329.696831282605
 30
0.0
 10
-23073.09319099336
 20
-7327.166052047539
 30
0.0
 10
-23159.34044873209
 20
-7326.132371528176
 30
0.0
 10
-23331.83423147393
 20
-7324.360683721313
 30
0.0
 10
-23418.07920203626
 20
-7323.616783381027
 30
0.0
 10
-23676.80735610956
 20
-7321.708448407794
 30
0.0
 10
-23849.28378192057
 20
-7320.867371987901
 30
0.0
 10
-24121.52560894167
 20
-7319.789114203482
 30
0.0
 10
-24221.29876769713
 20
-7319.446817153046
 30
0.0
 10
-24321.06751075263
 20
-7319.104534081882
 30
0.0
  0
SPLINE
  5
72CF
330
18
100
AcDbEntity
  8
OBJECT
  6
Continuous
 48
100.0
370
     5
100
AcDbSpline
210
0.0
220
0.0
230
1.0
 70
     8
 71
     3
 72
    11
 73
     7
 74
     5
 42
0.0000000001
 43
0.0000000001
 44
0.0000000001
 40
0.0
 40
0.0
 40
0.0
 40
0.0
 40
1125.786638342684
 40
2251.233422206715
 40
3376.406908618385
 40
4501.739935552699
 40
4501.739935552699
 40
4501.739935552699
 40
4501.739935552699
 10
-19820.8353994433
 20
-7444.131707092812
 30
0.0
 10
-20195.81112771063
 20
-7429.399864853547
 30
0.0
 10
-20945.64938590353
 20
-7399.940627649832
 30
0.0
 10
-22070.70428012308
 20
-7368.683030251284
 30
0.0
 10
-23195.86593211356
 20
-7347.964982944255
 30
0.0
 10
-23946.03977010342
 20
-7345.391313102282
 30
0.0
 10
-24321.1532793627
 20
-7344.10438695636
 30
0.0
 11
-19820.8353994433
 21
-7444.131707092812
 31
0.0
 11
-20945.83680567269
 21
-7402.09135679899
 31
0.0
 11
-22070.83834022966
 21
-7370.436806504378
 31
0.0
 11
-23195.84002296918
 21
-7350.774956208849
 31
0.0
 11
-24321.1532793627
 21
-7344.10438695636
 31
0.0
  0
LINE
  5
72D0
330
18
100
AcDbEntity
  8
OBJECT
  6
Continuous
 48
100.0
370
     5
100
AcDbLine
 10
-19820.8353994433
 20
-7444.131707092812
 30
0.0
 11
-19819.85397018375
 21
-7419.150978588453
 31
0.0
  0
LINE
  5
72D1
330
18
100
AcDbEntity
  8
OBJECT
  6
Continuous
 48
100.0
370
     5
100
AcDbLine
 10
-19987.13131556388
 20
-7412.586172229236
 30
0.0
 11
-19987.12952871477
 21
-7052.166511167918
 31
0.0
  0
LINE
  5
72D2
330
18
100
AcDbEntity
  8
OBJECT
  6
Continuous
 48
100.0
370
     5
100
AcDbLine
 10
-20254.68205526528
 20
-7402.192314200717
 30
0.0
 11
-20254.52952870166
 21
-7052.163207156819
 31
0.0
  0
LINE
  5
72D3
330
18
100
AcDbEntity
  8
OBJECT
  6
Continuous
 48
100.0
370
     5
100
AcDbLine
 10
-19955.82948409719
 20
-7043.166897912538
 30
0.0
 11
-20285.8294840806
 21
-7043.162820411925
 31
0.0
  0
LINE
  5
72D4
330
18
100
AcDbEntity
  8
OBJECT
  6
Continuous
 48
100.0
370
     5
100
AcDbLine
 10
-19955.82952871639
 20
-7052.166897912669
 30
0.0
 11
-20285.8295286998
 21
-7052.162820412064
 31
0.0
  0
LINE
  5
72D5
330
18
100
AcDbEntity
  8
OBJECT
  6
Continuous
 48
100.0
370
     5
100
AcDbLine
 10
-19955.82952871639
 20
-7052.166897912669
 30
0.0
 11
-19955.82948409719
 21
-7043.166897912538
 31
0.0
  0
LINE
  5
72D6
330
18
100
AcDbEntity
  8
OBJECT
  6
Continuous
 48
100.0
370
     5
100
AcDbLine
 10
-20285.8295286998
 20
-7052.162820412064
 30
0.0
 11
-20285.8294840806
 21
-7043.162820411925
 31
0.0
  0
LINE
  5
72D7
330
18
100
AcDbEntity
  8
OBJECT
  6
Continuous
 48
100.0
370
     5
100
AcDbLine
 10
-20120.83238625616
 20
-7628.551779408025
 30
0.0
 11
-20120.82863799832
 21
-6872.502599271964
 31
0.0
  0
ELLIPSE
  5
737E
330
18
100
AcDbEntity
  8
OBJECT
  6
Continuous
 48
100.0
370
     5
100
AcDbEllipse
 10
-12566.56864583591
 20
-12764.13318785029
 30
0.0
 11
-245.0637999708398
 21
-49.45121079889757
 31
0.0
210
0.0
220
0.0
230
1.0
 40
0.0390392790759561
 41
0.0
 42
3.141655431294152
  0
ELLIPSE
  5
7380
330
18
100
AcDbEntity
  8
OBJECT
  6
Continuous
 48
100.0
370
     5
100
AcDbEllipse
 10
-12566.56918030453
 20
-12814.1117999539
 30
0.0
 11
-245.0637999708398
 21
-49.45121079889757
 31
0.0
210
0.0
220
0.0
230
1.0
 40
0.0390392790759561
 41
0.0
 42
3.141655431294152
  0
LINE
  5
73DC
330
18
100
AcDbEntity
  8
OBJECT
  6
Continuous
 48
100.0
370
     5
100
AcDbLine
 10
-36321.48657034111
 20
-12713.32731835801
 30
0.0
 11
-35389.8719383822
 21
-12713.33729952216
 31
0.0
  0
ELLIPSE
  5
73DD
330
18
100
AcDbEntity
  8
OBJECT
  6
Continuous
 48
100.0
370
     5
100
AcDbEllipse
 10
-12566.56864583591
 20
-13114.1331878703
 30
0.0
 11
-245.0637999708398
 21
-49.45121079889757
 31
0.0
210
0.0
220
0.0
230
1.0
 40
0.0390392790759561
 41
0.0
 42
3.141655431294152
  0
ELLIPSE
  5
73DE
330
18
100
AcDbEntity
  8
OBJECT
  6
Continuous
 48
100.0
370
     5
100
AcDbEllipse
 10
-12566.57185401995
 20
-13414.13318785314
 30
0.0
 11
-245.0637999708398
 21
-49.45121079889757
 31
0.0
210
0.0
220
0.0
230
1.0
 40
0.0390392790759561
 41
0.0
 42
3.141655431294152
  0
ELLIPSE
  5
73DF
330
18
100
AcDbEntity
  8
OBJECT
  6
Continuous
 48
100.0
370
     5
100
AcDbEllipse
 10
-12566.57185401995
 20
-13714.1331878703
 30
0.0
 11
-245.0637999708398
 21
-49.45121079889757
 31
0.0
210
0.0
220
0.0
230
1.0
 40
0.0390392790759561
 41
0.0
 42
3.141655431294152
  0
LINE
  5
73E4
330
18
100
AcDbEntity
  8
OBJECT
  6
Continuous
 48
100.0
370
     5
100
AcDbLine
 10
-12321.50493831036
 20
-12764.81504811749
 30
0.0
 11
-12312.50493831049
 21
-12764.81509668955
 31
0.0
  0
LINE
  5
73E5
330
18
100
AcDbEntity
  8
OBJECT
  6
Continuous
 48
100.0
370
     5
100
AcDbLine
 10
-12321.50655755479
 20
-13064.84756337799
 30
0.0
 11
-12312.50655755492
 21
-13064.84761195006
 31
0.0
  0
LINE
  5
73E6
330
18
100
AcDbEntity
  8
OBJECT
  6
Continuous
 48
100.0
370
     5
100
AcDbLine
 10
-12321.50805360825
 20
-13364.83883641254
 30
0.0
 11
-12312.50817657678
 21
-13364.83888498394
 31
0.0
  0
LINE
  5
73E7
330
18
100
AcDbEntity
  8
OBJECT
  6
Continuous
 48
100.0
370
     5
100
AcDbLine
 10
-12321.50721046207
 20
-13664.83419047782
 30
0.0
 11
-12312.50721046211
 21
-13664.83416518305
 31
0.0
  0
LINE
  5
73E8
330
18
100
AcDbEntity
  8
OBJECT
  6
Continuous
 48
100.0
370
     5
100
AcDbLine
 10
-12312.50817657678
 20
-13364.83888498394
 30
0.0
 11
-12312.50721046211
 21
-13664.83416518305
 31
0.0
  0
LINE
  5
73E9
330
18
100
AcDbEntity
  8
OBJECT
  6
Continuous
 48
100.0
370
     5
100
AcDbLine
 10
-12312.50655755492
 20
-13064.84761195006
 30
0.0
 11
-12312.50493831049
 21
-12764.81509668955
 31
0.0
  0
LINE
  5
73EA
330
18
100
AcDbEntity
  8
OBJECT
  6
Continuous
 48
100.0
370
     5
100
AcDbLine
 10
-12321.50655755479
 20
-13064.84756337799
 30
0.0
 11
-12321.50817572685
 21
-13364.68137655023
 31
0.0
  0
LINE
  5
73EB
330
18
100
AcDbEntity
  8
OBJECT
  6
Continuous
 48
100.0
370
     5
100
AcDbLine
 10
-12321.50817572685
 20
-13664.68137656739
 30
0.0
 11
-12321.50684060697
 21
-13796.43036759909
 31
0.0
  0
LINE
  5
7401
330
18
100
AcDbEntity
  8
OBJECT
  6
Continuous
 48
100.0
370
     5
100
AcDbLine
 10
-35706.55803027937
 20
-12343.39182314937
 30
0.0
 11
-36036.5580302125
 21
-12343.3847651445
 31
0.0
  0
LINE
  5
7402
330
18
100
AcDbEntity
  8
OBJECT
  6
Continuous
 48
100.0
370
     5
100
AcDbLine
 10
-35706.55790437368
 20
-12334.39182315001
 30
0.0
 11
-36036.5579043068
 21
-12334.38476514514
 31
0.0
  0
LINE
  5
7403
330
18
100
AcDbEntity
  8
OBJECT
  6
Continuous
 48
100.0
370
     5
100
AcDbLine
 10
-35706.55803027937
 20
-12343.39182314937
 30
0.0
 11
-35706.55790437368
 21
-12334.39182315001
 31
0.0
  0
LINE
  5
7404
330
18
100
AcDbEntity
  8
OBJECT
  6
Continuous
 48
100.0
370
     5
100
AcDbLine
 10
-35737.86322038547
 20
-12714.39115368217
 30
0.0
 11
-35737.85803027298
 21
-12343.3911537083
 31
0.0
  0
LINE
  5
7405
330
18
100
AcDbEntity
  8
OBJECT
  6
Continuous
 48
100.0
370
     5
100
AcDbLine
 10
-36005.26322033164
 20
-12714.38543455944
 30
0.0
 11
-36005.25803021912
 21
-12343.38543458557
 31
0.0
  0
LINE
  5
7406
330
18
100
AcDbEntity
  8
OBJECT
  6
Continuous
 48
100.0
370
     5
100
AcDbLine
 10
-36036.5580302125
 20
-12343.3847651445
 30
0.0
 11
-36036.5579043068
 21
-12334.38476514514
 31
0.0
  0
LINE
  5
7407
330
18
100
AcDbEntity
  8
OBJECT
  6
Continuous
 48
100.0
370
     5
100
AcDbLine
 10
-35871.5631248824
 20
-12789.1197849308
 30
0.0
 11
-35871.55584643251
 21
-12187.28478385544
 31
0.0
  0
LINE
  5
7422
330
18
100
AcDbEntity
  8
OBJECT
  6
Continuous
 48
100.0
370
     5
100
AcDbLine
 10
-13252.50006115029
 20
-12713.57424138396
 30
0.0
 11
-12321.50484384036
 21
-12713.58397288522
 31
0.0
  0
LINE
  5
7423
330
18
100
AcDbEntity
  8
OBJECT
  6
Continuous
 48
100.0
370
     5
100
AcDbLine
 10
-13882.50006111886
 20
-12713.56765612372
 30
0.0
 11
-13519.90006113692
 21
-12713.57144630684
 31
0.0
  0
LINE
  5
7471
330
18
100
AcDbEntity
  8
OBJECT
  6
Continuous
 48
100.0
370
     5
100
AcDbLine
 10
-35091.1678957347
 20
-12424.36255766047
 30
0.0
 11
-35421.16789566782
 21
-12424.3554996556
 31
0.0
  0
LINE
  5
7472
330
18
100
AcDbEntity
  8
OBJECT
  6
Continuous
 48
100.0
370
     5
100
AcDbLine
 10
-35091.16802164038
 20
-12433.36255765983
 30
0.0
 11
-35421.16802157351
 21
-12433.35549965497
 31
0.0
  0
LINE
  5
7473
330
18
100
AcDbEntity
  8
OBJECT
  6
Continuous
 48
100.0
370
     5
100
AcDbLine
 10
-34406.17321189065
 20
-12804.37720834077
 30
0.0
 11
-35476.1732116753
 21
-12804.35432329469
 31
0.0
  0
LINE
  5
7474
330
18
100
AcDbEntity
  8
OBJECT
  6
Continuous
 48
100.0
370
     5
100
AcDbLine
 10
-34759.87321181944
 20
-12804.36964344283
 30
0.0
 11
-34759.86802170694
 21
-12433.36964346897
 31
0.0
  0
LINE
  5
7475
330
18
100
AcDbEntity
  8
OBJECT
  6
Continuous
 48
100.0
370
     5
100
AcDbLine
 10
-34492.47321187328
 20
-12804.37536256556
 30
0.0
 11
-34492.46802176078
 21
-12433.3753625917
 31
0.0
  0
LINE
  5
7476
330
18
100
AcDbEntity
  8
OBJECT
  6
Continuous
 48
100.0
370
     5
100
AcDbLine
 10
-34626.17641460474
 20
-13033.31230928707
 30
0.0
 11
-34626.16583783841
 21
-12277.26312921569
 31
0.0
  0
LINE
  5
7477
330
18
100
AcDbEntity
  8
OBJECT
  6
Continuous
 48
100.0
370
     5
100
AcDbLine
 10
-34406.17333779634
 20
-12813.37720834013
 30
0.0
 11
-34406.17321189065
 21
-12804.37720834077
 31
0.0
  0
LINE
  5
7478
330
18
100
AcDbEntity
  8
OBJECT
  6
Continuous
 48
100.0
370
     5
100
AcDbLine
 10
-35091.16802164038
 20
-12433.36255765983
 30
0.0
 11
-35091.1678957347
 21
-12424.36255766047
 31
0.0
  0
LINE
  5
7479
330
18
100
AcDbEntity
  8
OBJECT
  6
Continuous
 48
100.0
370
     5
100
AcDbLine
 10
-34461.16802176709
 20
-12433.37603203277
 30
0.0
 11
-34461.16789586139
 21
-12424.37603203341
 31
0.0
  0
LINE
  5
747A
330
18
100
AcDbEntity
  8
OBJECT
  6
Continuous
 48
100.0
370
     5
100
AcDbLine
 10
-34461.16789586139
 20
-12424.37603203341
 30
0.0
 11
-34791.16596859566
 21
-12424.36897406975
 31
0.0
  0
LINE
  5
747B
330
18
100
AcDbEntity
  8
OBJECT
  6
Continuous
 48
100.0
370
     5
100
AcDbLine
 10
-34791.16614014554
 20
-12433.36897406814
 30
0.0
 11
-34791.16596859566
 21
-12424.36897406975
 31
0.0
  0
LINE
  5
747C
330
18
100
AcDbEntity
  8
OBJECT
  6
Continuous
 48
100.0
370
     5
100
AcDbLine
 10
-34461.16802176709
 20
-12433.37603203277
 30
0.0
 11
-34791.16614014554
 21
-12433.36897406814
 31
0.0
  0
LINE
  5
747D
330
18
100
AcDbEntity
  8
OBJECT
  6
Continuous
 48
100.0
370
     5
100
AcDbLine
 10
-35122.47321174649
 20
-12804.36188819263
 30
0.0
 11
-35122.468021634
 21
-12433.36188821877
 31
0.0
  0
LINE
  5
747E
330
18
100
AcDbEntity
  8
OBJECT
  6
Continuous
 48
100.0
370
     5
100
AcDbLine
 10
-35389.87321169264
 20
-12804.3561690699
 30
0.0
 11
-35389.86802158015
 21
-12433.35616909604
 31
0.0
  0
LINE
  5
747F
330
18
100
AcDbEntity
  8
OBJECT
  6
Continuous
 48
100.0
370
     5
100
AcDbLine
 10
-35256.17641455995
 20
-13033.30469843727
 30
0.0
 11
-35256.16583779361
 21
-12277.2555183659
 31
0.0
  0
LINE
  5
7480
330
18
100
AcDbEntity
  8
OBJECT
  6
Continuous
 48
100.0
370
     5
100
AcDbLine
 10
-35476.1732116753
 20
-12804.35432329469
 30
0.0
 11
-35476.17340416635
 21
-12813.35432329262
 31
0.0
  0
LINE
  5
7481
330
18
100
AcDbEntity
  8
OBJECT
  6
Continuous
 48
100.0
370
     5
100
AcDbLine
 10
-35421.16802157351
 20
-12433.35549965497
 30
0.0
 11
-35421.16789566782
 21
-12424.3554996556
 31
0.0
  0
LINE
  5
7482
330
18
100
AcDbEntity
  8
OBJECT
  6
Continuous
 48
100.0
370
     5
100
AcDbLine
 10
-34759.87193841976
 20
-12713.3443946201
 30
0.0
 11
-35122.47193839983
 21
-12713.34042955302
 31
0.0
  0
LINE
  5
7483
330
18
100
AcDbEntity
  8
OBJECT
  6
Continuous
 48
100.0
370
     5
100
AcDbLine
 10
-36320.89893377402
 20
-13939.75065618433
 30
0.0
 11
-36320.89609318039
 21
-13794.406366304
 31
0.0
  0
ARC
  5
7484
330
18
100
AcDbEntity
  8
OBJECT
  6
Continuous
 48
0.008
370
     5
100
AcDbCircle
 10
-36120.89609321858
 20
-13794.41027508311
 30
0.0
 40
200.0
100
AcDbArc
 50
179.9988802172676
 51
243.4339304536732
  0
ARC
  5
7485
330
18
100
AcDbEntity
  8
OBJECT
  6
Continuous
 48
100.0
370
     5
100
AcDbCircle
 10
-36120.89893381222
 20
-13939.75456496345
 30
0.0
 40
200.0
100
AcDbArc
 50
179.9988802172689
 51
243.4339304536735
  0
LINE
  5
7486
330
18
100
AcDbEntity
  8
OBJECT
  6
Continuous
 48
0.008
370
     5
100
AcDbLine
 10
-36320.88828664253
 20
-13794.53205628089
 30
0.0
 11
-36320.89025950614
 21
-13895.47731548803
 31
0.0
  0
LINE
  5
7487
330
18
100
AcDbEntity
  8
OBJECT
  6
Continuous
 48
0.008
370
     5
100
AcDbLine
 10
-36320.86715569022
 20
-12713.32732498208
 30
0.0
 11
-36320.868156945
 21
-12764.55840020464
 31
0.0
  0
ELLIPSE
  5
7488
330
18
100
AcDbEntity
  8
OBJECT
  6
Continuous
 48
100.0
370
     5
100
AcDbEllipse
 10
-36075.80443489194
 20
-12763.88178133409
 30
0.0
 11
245.0627422575563
 21
-49.45645218605212
 31
0.0
210
0.0
220
0.0
230
-1.0
 40
0.0390392790759561
 41
0.0
 42
3.141655431294152
  0
ELLIPSE
  5
7489
330
18
100
AcDbEntity
  8
OBJECT
  6
Continuous
 48
100.0
370
     5
100
AcDbEllipse
 10
-36075.80496936056
 20
-12813.86039343769
 30
0.0
 11
245.0627422575563
 21
-49.45645218605212
 31
0.0
210
0.0
220
0.0
230
-1.0
 40
0.0390392790759561
 41
0.0
 42
3.141655431294152
  0
ELLIPSE
  5
748A
330
18
100
AcDbEntity
  8
OBJECT
  6
Continuous
 48
100.0
370
     5
100
AcDbEllipse
 10
-36075.81192065469
 20
-13113.88178127405
 30
0.0
 11
245.0627422575563
 21
-49.45645218605212
 31
0.0
210
0.0
220
0.0
230
-1.0
 40
0.0390392790759561
 41
0.0
 42
3.141655431294152
  0
ELLIPSE
  5
748B
330
18
100
AcDbEntity
  8
OBJECT
  6
Continuous
 48
100.0
370
     5
100
AcDbEllipse
 10
-36075.81512883872
 20
-13413.88178125689
 30
0.0
 11
245.0627422575563
 21
-49.45645218605212
 31
0.0
210
0.0
220
0.0
230
-1.0
 40
0.0390392790759561
 41
0.0
 42
3.141655431294152
  0
ELLIPSE
  5
748C
330
18
100
AcDbEntity
  8
OBJECT
  6
Continuous
 48
100.0
370
     5
100
AcDbEllipse
 10
-36075.82154520678
 20
-13713.88178120543
 30
0.0
 11
245.0627422575563
 21
-49.45645218605212
 31
0.0
210
0.0
220
0.0
230
-1.0
 40
0.0390392790759561
 41
0.0
 42
3.141655431294152
  0
LINE
  5
748D
330
18
100
AcDbEntity
  8
OBJECT
  6
Continuous
 48
100.0
370
     5
100
AcDbLine
 10
-36320.868156945
 20
-12764.55840020464
 30
0.0
 11
-36329.86815694385
 21
-12764.55825628567
 31
0.0
  0
LINE
  5
748E
330
18
100
AcDbEntity
  8
OBJECT
  6
Continuous
 48
100.0
370
     5
100
AcDbLine
 10
-36320.87295476406
 20
-13064.59091543115
 30
0.0
 11
-36329.87295476291
 21
-13064.59077151218
 31
0.0
  0
LINE
  5
748F
330
18
100
AcDbEntity
  8
OBJECT
  6
Continuous
 48
100.0
370
     5
100
AcDbLine
 10
-36320.87787489203
 20
-13364.58218842909
 30
0.0
 11
-36329.87775192247
 21
-13364.58204451208
 31
0.0
  0
LINE
  5
7490
330
18
100
AcDbEntity
  8
OBJECT
  6
Continuous
 48
100.0
370
     5
100
AcDbLine
 10
-36320.88513430689
 20
-13664.57754240772
 30
0.0
 11
-36329.88513430426
 21
-13664.57732462191
 31
0.0
  0
LINE
  5
7491
330
18
100
AcDbEntity
  8
OBJECT
  6
Continuous
 48
100.0
370
     5
100
AcDbLine
 10
-36329.87775192247
 20
-13364.58204451208
 30
0.0
 11
-36329.88513430426
 21
-13664.57732462191
 31
0.0
  0
LINE
  5
7492
330
18
100
AcDbEntity
  8
OBJECT
  6
Continuous
 48
100.0
370
     5
100
AcDbLine
 10
-36329.87295476291
 20
-13064.59077151218
 30
0.0
 11
-36329.86815694385
 21
-12764.55825628567
 31
0.0
  0
LINE
  5
7493
330
18
100
AcDbEntity
  8
OBJECT
  6
Continuous
 48
100.0
370
     5
100
AcDbLine
 10
-36320.87295476406
 20
-13064.59091543115
 30
0.0
 11
-36320.87774940568
 21
-13364.42472856943
 31
0.0
  0
LINE
  5
7494
330
18
100
AcDbEntity
  8
OBJECT
  6
Continuous
 48
100.0
370
     5
100
AcDbLine
 10
-36320.88416577374
 20
-13664.42472851797
 30
0.0
 11
-36320.88831872703
 21
-13796.17371949098
 31
0.0
  0
LINE
  5
74D7
330
18
100
AcDbEntity
  8
LONG
  6
HIDDEN2
 48
0.01
370
     5
100
AcDbLine
 10
-36321.27142787015
 20
-18932.99229141896
 30
0.0
 11
-12321.27142847617
 21
-18933.16985231937
 31
0.0
  0
LINE
  5
74D8
330
18
100
AcDbEntity
  8
LONG
  6
HIDDEN2
 48
0.01
370
     5
100
AcDbLine
 10
-36321.27535433653
 20
-19495.49229140531
 30
0.0
 11
-12321.27535494256
 21
-19495.66985230572
 31
0.0
  0
LINE
  5
74D9
330
18
100
AcDbEntity
  8
LONG
  6
HIDDEN2
 48
0.01
370
     5
100
AcDbLine
 10
-36321.29106034214
 20
-21745.51235468644
 30
0.0
 11
-12321.29106080811
 21
-21745.66985225109
 31
0.0
  0
LINE
  5
74DA
330
18
100
AcDbEntity
  8
LONG
  6
HIDDEN2
 48
0.01
370
     5
100
AcDbLine
 10
-36321.28713387575
 20
-21183.01235470009
 30
0.0
 11
-12321.28713434172
 21
-21183.16985226475
 31
0.0
  0
LINE
  5
74DB
330
18
100
AcDbEntity
  8
LONG
  6
HIDDEN2
 48
0.01
370
     5
100
AcDbLine
 10
-36321.28320740937
 20
-20620.51235471375
 30
0.0
 11
-12321.28320787533
 21
-20620.6698522784
 31
0.0
  0
LINE
  5
74DC
330
18
100
AcDbEntity
  8
LONG
  6
HIDDEN2
 48
0.01
370
     5
100
AcDbLine
 10
-36321.29938321248
 20
-22870.47222798411
 30
0.0
 11
-12321.29938397531
 21
-22870.66985222033
 31
0.0
  0
LINE
  5
74DD
330
18
100
AcDbEntity
  8
LONG
  6
HIDDEN2
 48
0.01
370
     5
100
AcDbLine
 10
-36321.30377991329
 20
-23432.97222796698
 30
0.0
 11
-12321.30378067613
 21
-23433.1698522032
 31
0.0
  0
LINE
  5
74DE
330
18
100
AcDbEntity
  8
LONG
  6
HIDDEN2
 48
0.01
370
     5
100
AcDbLine
 10
-36321.30817661412
 20
-23995.47222794984
 30
0.0
 11
-12321.30817737695
 21
-23995.66985218607
 31
0.0
  0
LINE
  5
74E0
330
18
100
AcDbEntity
  8
LONG
  6
HIDDEN2
 48
0.01
370
     5
100
AcDbLine
 10
-36321.31697017258
 20
-25120.49229125132
 30
0.0
 11
-12321.3169707786
 21
-25120.66985215179
 31
0.0
  0
LINE
  5
74E1
330
18
100
AcDbEntity
  8
LONG
  6
HIDDEN2
 48
0.01
370
     5
100
AcDbLine
 10
-36321.3213668734
 20
-25682.99229123419
 30
0.0
 11
-12321.32136747942
 21
-25683.16985213466
 31
0.0
  0
LINE
  5
74E2
330
18
100
AcDbEntity
  8
LONG
  6
HIDDEN2
 48
0.01
370
     5
100
AcDbLine
 10
-36321.32576357422
 20
-26245.49229121706
 30
0.0
 11
-12321.32576418024
 21
-26245.66985211752
 31
0.0
  0
LINE
  5
74E3
330
18
100
AcDbEntity
  8
LONG
  6
HIDDEN2
 48
0.01
370
     5
100
AcDbLine
 10
-36321.27928094298
 20
-20058.0123547274
 30
0.0
 11
-12321.27928140895
 21
-20058.16985229206
 31
0.0
  0
LINE
  5
74E4
330
18
100
AcDbEntity
  8
LONG
  6
HIDDEN2
 48
0.01
370
     5
100
AcDbLine
 10
-36321.31280858897
 20
-24557.99229126671
 30
0.0
 11
-12321.31280919499
 21
-24558.16985216718
 31
0.0
  0
LINE
  5
7550
330
18
100
AcDbEntity
  8
OBJECT
  6
Continuous
 48
100.0
370
     5
100
AcDbLine
 10
-35122.47193839612
 20
-12713.34016440126
 30
0.0
 11
-34759.87193841493
 21
-12713.34404923733
 31
0.0
  0
LINE
  5
7551
330
18
100
AcDbEntity
  8
OBJECT
  6
Continuous
 48
100.0
370
     5
100
AcDbLine
 10
-34492.47193842883
 20
-12713.34691411643
 30
0.0
 11
-28321.49750693131
 21
-12713.41302890966
 31
0.0
  0
LINE
  5
7552
330
18
100
AcDbEntity
  8
OBJECT
  6
Continuous
 48
100.0
370
     5
100
AcDbLine
 10
-24502.95990241035
 20
-12713.45394008616
 30
0.0
 11
-24140.35990242912
 21
-12713.45782492222
 31
0.0
  0
LINE
  5
7553
330
18
100
AcDbEntity
  8
OBJECT
  6
Continuous
 48
100.0
370
     5
100
AcDbLine
 10
-23872.95990244301
 20
-12713.46068980133
 30
0.0
 11
-20561.49717252953
 21
-12713.49616826201
 31
0.0
  0
LINE
  5
75AD
330
18
100
AcDbEntity
  8
OBJECT
  6
Continuous
 48
100.0
370
     5
100
AcDbLine
 10
-20321.49698642359
 20
-12713.49873958406
 30
0.0
 11
-14149.90006110551
 21
-12713.56486104659
 31
0.0
  0
LINE
  5
75AE
330
18
100
AcDbEntity
  8
OBJECT
  6
Continuous
 48
100.0
370
     5
100
AcDbLine
 10
-28081.49732103451
 20
-12713.41560023172
 30
0.0
 11
-24770.35990239649
 21
-12713.45107520706
 31
0.0
  0
LINE
  5
76BB
330
18
100
AcDbEntity
  8
OBJECT
  6
Continuous
 48
100.0
370
     5
100
AcDbLine
 10
-8040.274400032663
 20
-14063.58446302505
 30
0.0
 11
-38343.66160344758
 21
-14063.46919799944
 31
0.0
  0
DIMENSION
  5
76BC
330
18
100
AcDbEntity
  8
0
  6
Continuous
 48
100.0
370
     5
100
AcDbDimension
  2
*D22
 10
-11642.72297177231
 20
-14813.56801597343
 30
0.0
 11
-11642.72297177231
 21
-14438.56801597614
 31
0.0
 70
   160
 71
     5
 42
-1.0
  3
STANDARD_WS
100
AcDbAlignedDimension
 13
-12364.23309072558
 23
-14063.56801597885
 33
0.0
 14
-12364.23594350137
 24
-14813.56801597343
 34
0.0
 50
90.0
100
AcDbRotatedDimension
1001
ACAD
1000
DSTYLE
1002
{
1070
    40
1040
150.0
1070
    41
1040
1.5
1070
    42
1040
2.0
1070
   140
1040
1.5
1070
   271
1070
     0
1070
   272
1070
     0
1002
}
  0
DIMENSION
  5
76CA
330
18
100
AcDbEntity
  8
0
  6
Continuous
 48
100.0
370
     5
100
AcDbDimension
  2
*D23
 10
-13821.5009072892
 20
-15485.5524655366
 30
0.0
 11
-13071.5001018287
 21
-15279.3024655366
 31
0.0
 70
    32
 71
     5
 42
-1.0
  3
STANDARD_WS
100
AcDbAlignedDimension
 13
-12321.49929636821
 23
-13940.00730448664
 33
0.0
 14
-13821.5009072892
 24
-14813.60826210065
 34
0.0
100
AcDbRotatedDimension
1001
ACAD
1000
DSTYLE
1002
{
1070
    40
1040
150.0
1070
    41
1040
1.5
1070
    42
1040
2.0
1070
   140
1040
1.5
1070
   271
1070
     0
1070
   272
1070
     0
1002
}
  0
DIMENSION
  5
76E2
330
18
100
AcDbEntity
  8
0
  6
Continuous
 48
100.0
370
     5
100
AcDbDimension
  2
*D24
 10
-36766.85426521348
 20
-14813.47705500796
 30
0.0
 11
-36766.85426521348
 21
-14438.47705501067
 31
0.0
 70
   160
 71
     5
 42
-1.0
  3
STANDARD_WS
100
AcDbAlignedDimension
 13
-36278.03818879277
 23
-14063.47705501339
 33
0.0
 14
-36278.04104156856
 24
-14813.47705500796
 34
0.0
 50
90.0
100
AcDbRotatedDimension
1001
ACAD
1000
DSTYLE
1002
{
1070
    40
1040
150.0
1070
    41
1040
1.5
1070
    42
1040
2.0
1070
   140
1040
1.5
1070
   271
1070
     0
1070
   272
1070
     0
1002
}
  0
DIMENSION
  5
76F0
330
18
100
AcDbEntity
  8
0
  6
Continuous
 48
100.0
370
     5
100
AcDbDimension
  2
*D25
 10
-34821.50090707057
 20
-15509.39513752484
 30
0.0
 11
-35571.19558328836
 21
-15303.14513752484
 31
0.0
 70
    32
  1
1500
 71
     5
 42
-1.0
  3
STANDARD_WS
100
AcDbAlignedDimension
 13
-36320.89025950614
 23
-13895.47731548803
 33
0.0
 14
-34821.50090707057
 24
-14813.46850060443
 34
0.0
100
AcDbRotatedDimension
1001
ACAD
1000
DSTYLE
1002
{
1070
    40
1040
150.0
1070
    41
1040
1.5
1070
    42
1040
2.0
1070
   140
1040
1.5
1070
   271
1070
     0
1070
   272
1070
     0
1002
}
  0
VIEWPORT
  5
36
330
15
100
AcDbEntity
 67
     1
  8
0
370
     5
100
AcDbViewport
 10
388.7323054002168
 20
210.2518762489012
 30
0.0
 40
883.6196948114798
 41
465.6552545731813
 68
     1
 69
     1
 12
388.7323054002168
 22
210.2518762489012
 13
0.0
 23
0.0
 14
10.0
 24
10.0
 15
10.0
 25
10.0
 16
0.0
 26
0.0
 36
1.0
 17
0.0
 27
0.0
 37
0.0
 42
50.0
 43
0.0
 44
0.0
 45
465.6552545731813
 50
0.0
 51
0.0
 72
   100
 90
    32800
  1

281
     0
 71
     1
 74
     0
110
0.0
120
0.0
130
0.0
111
1.0
121
0.0
131
0.0
112
0.0
122
1.0
132
0.0
 79
     0
146
0.0
170
     0
  0
VIEWPORT
  5
E4
330
15
100
AcDbEntity
 67
     1
  8
ZUWAKU
370
     5
100
AcDbViewport
 10
297.0043951214808
 20
210.2518772484058
 30
0.0
 40
592.0087902429616
 41
415.5037544968115
 68
     2
 69
     2
 12
-21407.63747737097
 22
-16352.16273962255
 13
0.0
 23
0.0
 14
10.0
 24
10.0
 15
10.0
 25
10.0
 16
0.0
 26
0.0
 36
1.0
 17
0.0
 27
0.0
 37
0.0
 42
50.0
 43
0.0
 44
0.0
 45
29466.36737798288
 50
0.0
 51
0.0
 72
   100
 90
    32800
  1

281
     0
 71
     1
 74
     0
110
0.0
120
0.0
130
0.0
111
1.0
121
0.0
131
0.0
112
0.0
122
1.0
132
0.0
 79
     0
146
0.0
170
     0
  0
LINE
  5
EC
330
15
100
AcDbEntity
 67
     1
  8
ZUWAKU
370
     5
100
AcDbLine
 10
25.0
 20
10.0
 30
0.0
 11
25.0
 21
410.0
 31
0.0
  0
LINE
  5
ED
330
15
100
AcDbEntity
 67
     1
  8
ZUWAKU
370
     5
100
AcDbLine
 10
584.0
 20
10.0
 30
0.0
 11
25.0
 21
10.0
 31
0.0
  0
LINE
  5
EE
330
15
100
AcDbEntity
 67
     1
  8
ZUWAKU
370
     5
100
AcDbLine
 10
584.0
 20
410.0
 30
0.0
 11
584.0
 21
10.0
 31
0.0
  0
LINE
  5
EF
330
15
100
AcDbEntity
 67
     1
  8
ZUWAKU
370
     5
100
AcDbLine
 10
25.0
 20
410.0
 30
0.0
 11
584.0
 21
410.0
 31
0.0
  0
LINE
  5
163
330
15
100
AcDbEntity
 67
     1
  8
ZUWAKU
 62
     0
370
     5
100
AcDbLine
 10
522.7517730496447
 20
49.00000000000034
 30
0.0
 11
584.0
 21
49.00000000000036
 31
0.0
  0
LINE
  5
164
330
15
100
AcDbEntity
 67
     1
  8
ZUWAKU
 62
     0
370
     5
100
AcDbLine
 10
522.7517730496447
 20
13.00000000000004
 30
0.0
 11
584.0
 21
13.00000000000004
 31
0.0
  0
LINE
  5
165
330
15
100
AcDbEntity
 67
     1
  8
ZUWAKU
 62
     0
370
     5
100
AcDbLine
 10
522.7517730496447
 20
37.00000000000024
 30
0.0
 11
584.0
 21
37.00000000000024
 31
0.0
  0
LINE
  5
166
330
15
100
AcDbEntity
 67
     1
  8
ZUWAKU
 62
     0
370
     5
100
AcDbLine
 10
522.7517730496447
 20
22.00000000000012
 30
0.0
 11
584.0
 21
22.00000000000012
 31
0.0
  0
LINE
  5
167
330
15
100
AcDbEntity
 67
     1
  8
ZUWAKU
 62
     0
370
     5
100
AcDbLine
 10
454.2978723404242
 20
10.0
 30
0.0
 11
584.0
 21
10.0
 31
0.0
  0
LINE
  5
168
330
15
100
AcDbEntity
 67
     1
  8
ZUWAKU
 62
     0
370
     5
100
AcDbLine
 10
584.0
 20
49.00000000000036
 30
0.0
 11
522.7517730496447
 21
49.00000000000034
 31
0.0
  0
LINE
  5
16E
330
15
100
AcDbEntity
 67
     1
  8
ZUWAKU
 62
     0
370
     5
100
AcDbLine
 10
522.7517730496447
 20
49.00000000000036
 30
0.0
 11
522.7517730496447
 21
10.0
 31
0.0
  0
LINE
  5
16F
330
15
100
AcDbEntity
 67
     1
  8
ZUWAKU
 62
     0
370
     5
100
AcDbLine
 10
564.014184397163
 20
22.00000000000008
 30
0.0
 11
564.014184397163
 21
10.0
 31
0.0
  0
LINE
  5
170
330
15
100
AcDbEntity
 67
     1
  8
ZUWAKU
 62
     0
370
     5
100
AcDbLine
 10
574.6524822695037
 20
22.00000000000008
 30
0.0
 11
574.6524822695037
 21
10.0
 31
0.0
  0
TEXT
  5
173
330
15
100
AcDbEntity
 67
     1
  8
ZUWAKU
 62
     0
370
     5
100
AcDbText
 10
556.9657204784495
 20
10.48329012996929
 30
0.0
 40
1.791674070777747
  1
製図
  7
ADESK1
 72
     1
 11
558.8171170182532
 21
10.48329012996929
 31
0.0
100
AcDbText
  0
TEXT
  5
174
330
15
100
AcDbEntity
 67
     1
  8
ZUWAKU
 62
     0
370
     5
100
AcDbText
 10
567.5442958817639
 20
10.48329012996929
 30
0.0
 40
1.791674070777747
  1
設計
  7
ADESK1
 72
     1
 11
569.4554148905935
 21
10.48329012996929
 31
0.0
100
AcDbText
  0
TEXT
  5
175
330
15
100
AcDbEntity
 67
     1
  8
ZUWAKU
 62
     0
370
     5
100
AcDbText
 10
577.4929433347957
 20
10.55220101068186
 30
0.0
 40
1.791674070777747
  1
照査
  7
ADESK1
 72
     1
 11
579.4040623436253
 21
10.55220101068186
 31
0.0
100
AcDbText
  0
LINE
  5
17F
330
15
100
AcDbEntity
 67
     1
  8
ZUWAKU
 62
     0
370
     5
100
AcDbLine
 10
536.7003315772742
 20
49.00000000000036
 30
0.0
 11
536.7003315772742
 21
22.00000000000012
 31
0.0
  0
LINE
  5
181
330
15
100
AcDbEntity
 67
     1
  8
ZUWAKU
 62
     0
370
     5
100
AcDbLine
 10
584.0
 20
49.00000000000036
 30
0.0
 11
584.0
 21
10.0
 31
0.0
  0
LINE
  5
182
330
15
100
AcDbEntity
 67
     1
  8
ZUWAKU
 62
     0
370
     5
100
AcDbLine
 10
584.0
 20
10.0
 30
0.0
 11
584.0
 21
49.00000000000036
 31
0.0
  0
LINE
  5
184
330
15
100
AcDbEntity
 67
     1
  8
ZUWAKU
370
     5
100
AcDbLine
 10
522.7517730496447
 20
49.00000000000035
 30
0.0
 11
522.7517730496447
 21
207.9063163388383
 31
0.0
  0
LINE
  5
185
330
15
100
AcDbEntity
 67
     1
  8
ZUWAKU
370
     5
100
AcDbLine
 10
522.7517730496447
 20
207.9063163388383
 30
0.0
 11
584.0
 21
207.9063163388383
 31
0.0
  0
LINE
  5
187
330
15
100
AcDbEntity
 67
     1
  8
ZUWAKU
 62
     0
370
     5
100
AcDbLine
 10
553.3758865248223
 20
22.00000000000008
 30
0.0
 11
553.3758865248223
 21
10.0
 31
0.0
  0
LINE
  5
188
330
15
100
AcDbEntity
 67
     1
  8
ZUWAKU
370
     5
100
AcDbLine
 10
522.7517730496447
 20
191.1445336339673
 30
0.0
 11
584.0
 21
191.1445336339674
 31
0.0
  0
MTEXT
  5
1E31
330
15
100
AcDbEntity
 67
     1
  8
ZUWAKU
  6
Continuous
 48
100.0
370
     5
100
AcDbMText
 10
529.8372516711006
 20
203.7228089578061
 30
0.0
 40
6.0
 41
61.24819999999999
 71
     1
 72
     5
  1
\fＭＳ Ｐゴシック|b0|i0|c128|p2;高砂建設（株）
 73
     1
 44
1.0
  0
LINE
  5
1E33
330
15
100
AcDbEntity
 67
     1
  8
ZUWAKU
370
     5
100
AcDbLine
 10
522.7517730496447
 20
178.5504516688046
 30
0.0
 11
584.0
 21
178.5504516688048
 31
0.0
  0
MTEXT
  5
1E34
330
15
100
AcDbEntity
 67
     1
  8
ZUWAKU
  6
Continuous
 48
100.0
370
     5
100
AcDbMText
 10
530.476802284062
 20
187.3946682204404
 30
0.0
 40
4.0
 41
61.24819999999999
 71
     1
 72
     5
  1
{\fＭＳ Ｐゴシック|b0|i0|c128|p2;　３００ｔ 積　台船}
 73
     1
 44
1.0
  0
MTEXT
  5
1E3D
330
15
100
AcDbEntity
 67
     1
  8
ZUWAKU
  6
Continuous
 48
100.0
370
     5
100
AcDbMText
 10
565.0178760791187
 20
171.2867873107553
 30
0.0
 40
8.0
 41
61.24819999999999
 71
     1
 72
     1
  1
\fＭＳ Ｐゴシック|b0|i0|c128|p2;一\P般\P配\P置\P図
 73
     1
 44
1.0
  0
MTEXT
  5
1E3E
330
15
100
AcDbEntity
 67
     1
  8
ZUWAKU
  6
Continuous
 48
100.0
370
     5
100
AcDbMText
 10
523.7968692979843
 20
31.92791581718154
 30
0.0
 40
4.0
 41
13.9486
 71
     1
 72
     5
  1
\fＭＳ Ｐゴシック|b0|i0|c128|p2;尺度
 73
     1
 44
1.0
  0
MTEXT
  5
1E40
330
15
100
AcDbEntity
 67
     1
  8
ZUWAKU
  6
Continuous
 48
100.0
370
     5
100
AcDbMText
 10
551.0330806322738
 20
31.33690910072676
 30
0.0
 40
4.0
 41
11.6454
 71
     1
 72
     5
  1
1
 73
     1
 44
1.0
  0
MTEXT
  5
1E41
330
15
100
AcDbEntity
 67
     1
  8
ZUWAKU
  6
Continuous
 48
100.0
370
     5
100
AcDbMText
 10
559.9910492346992
 20
27.57960453124645
 30
0.0
 40
4.0
 41
11.6454
 71
     1
 72
     5
  1
xxx
 73
     1
 44
1.0
  0
MTEXT
  5
1E42
330
15
100
AcDbEntity
 67
     1
  8
ZUWAKU
  6
Continuous
 48
100.0
370
     5
100
AcDbMText
 10
555.2134656256323
 20
28.95004510316039
 30
0.0
 40
4.0
 41
11.6454
 71
     1
 72
     5
  1
/
 73
     1
 44
1.0
  0
MTEXT
  5
1E43
330
15
100
AcDbEntity
 67
     1
  8
ZUWAKU
  6
Continuous
 48
100.0
370
     5
100
AcDbMText
 10
555.512069363993
 20
18.95505932528029
 30
0.0
 40
3.0
 41
10.6383
 71
     1
 72
     5
  1
H,M
 73
     1
 44
1.0
  0
MTEXT
  5
1F3F
330
15
100
AcDbEntity
 67
     1
  8
ZUWAKU
  6
Continuous
 48
100.0
370
     5
100
AcDbMText
 10
492.2847935734875
 20
379.8610045542156
 30
0.0
 40
3.5
 41
82.7834
 71
     1
 72
     5
  1
PRINCIPAL DIMENSIONS\P\PLENGTH  (O,A)   24.00\PBREADTH (MLD)    9.00\PDEPTH   (MLD)   \PDRAFT           
 73
     1
 44
1.0
  0
MTEXT
  5
2855
330
15
100
AcDbEntity
 67
     1
  8
ZUWAKU
  6
Continuous
 48
100.0
370
     5
100
AcDbMText
 10
547.5609977454509
 20
126.0015819568076
 30
0.0
 40
10.0
 41
61.24819999999999
 71
     1
 72
     1
  1
{\fＭＳ Ｐゴシック|b0|i0|c128|p2;３\P９\P８}
 73
     1
 44
1.0
  0
MTEXT
  5
2899
330
15
100
AcDbEntity
 67
     1
  8
OBJECT
  6
Continuous
 48
100.0
370
     5
100
AcDbMText
 10
540.6305443698404
 20
350.7235533530293
 30
0.0
 40
3.5
 41
17.411
 71
     1
 72
     5
  1
0.30
 73
     1
 44
1.0
  0
MTEXT
  5
289A
330
15
100
AcDbEntity
 67
     1
  8
OBJECT
  6
Continuous
 48
100.0
370
     5
100
AcDbMText
 10
540.598197366499
 20
356.4528715984626
 30
0.0
 40
3.5
 41
17.411
 71
     1
 72
     5
  1
2.00
 73
     1
 44
1.0
  0
LINE
  5
289C
330
15
100
AcDbEntity
 67
     1
  8
OBJECT
  6
Continuous
 48
100.0
370
     5
100
AcDbLine
 10
491.2479410949941
 20
375.0426651825646
 30
0.0
 11
557.8717542876488
 21
375.0426651825646
 31
0.0
  0
ENDSEC
  0
SECTION
  2
OBJECTS
  0
DICTIONARY
  5
C
330
0
100
AcDbDictionary
281
     1
  3
ACAD_COLOR
350
7740
  3
ACAD_GROUP
350
D
  3
ACAD_LAYOUT
350
544F
  3
ACAD_MATERIAL
350
773F
  3
ACAD_MLINESTYLE
350
1B
  3
ACAD_PLOTSETTINGS
350
5450
  3
ACAD_PLOTSTYLENAME
350
544D
  3
ACAD_TABLESTYLE
350
7741
  3
ACDBVARIABLEDICTIONARY
350
E5
  3
CONTENTDICTIONARY
350
23
  3
DRAWINGVARIABLESDICT
350
282
  0
DICTIONARY
  5
7755
330
2
100
AcDbDictionary
280
     1
281
     1
  3
ACAD_LAYERSTATES
360
7756
  0
DICTIONARY
  5
5D73
330
18
100
AcDbDictionary
280
     1
281
     1
  3
ACAD_LAYOUTSELFREF
360
7735
  0
DICTIONARY
  5
5D71
330
15
100
AcDbDictionary
280
     1
281
     1
  3
ACAD_LAYOUTSELFREF
360
7734
  0
DICTIONARY
  5
7740
102
{ACAD_REACTORS
330
C
102
}
330
C
100
AcDbDictionary
281
     1
  0
DICTIONARY
  5
D
102
{ACAD_REACTORS
330
C
102
}
330
C
100
AcDbDictionary
281
     1
  0
DICTIONARY
  5
544F
102
{ACAD_REACTORS
330
C
102
}
330
C
100
AcDbDictionary
281
     1
  3
Model
350
5451
  3
ﾚｲｱｳﾄ1
350
5452
  0
DICTIONARY
  5
773F
102
{ACAD_REACTORS
330
C
102
}
330
C
100
AcDbDictionary
281
     1
  0
DICTIONARY
  5
1B
102
{ACAD_REACTORS
330
C
102
}
330
C
100
AcDbDictionary
281
     1
  3
STANDARD
350
1C
  0
DICTIONARY
  5
5450
102
{ACAD_REACTORS
330
C
102
}
330
C
100
AcDbDictionary
281
     1
  0
ACDBDICTIONARYWDFLT
  5
544D
102
{ACAD_REACTORS
330
C
102
}
330
C
100
AcDbDictionary
281
     1
  3
Normal
350
544E
100
AcDbDictionaryWithDefault
340
544E
  0
DICTIONARY
  5
7741
102
{ACAD_REACTORS
330
C
102
}
330
C
100
AcDbDictionary
281
     1
  3
Standard
350
7742
  0
DICTIONARY
  5
E5
102
{ACAD_REACTORS
330
C
102
}
330
C
100
AcDbDictionary
281
     1
  3
CTABLESTYLE
350
775B
  3
DIMADEC
350
E6
  3
SORTENTS
350
B67
  0
DICTIONARY
  5
23
102
{ACAD_REACTORS
330
C
102
}
330
C
100
AcDbDictionary
281
     1
  0
DICTIONARY
  5
282
102
{ACAD_REACTORS
330
C
102
}
330
C
100
AcDbDictionary
281
     1
1001
DRAWINGVARIABLESXDATA
1000
POLARANG
1000
0.261799
1000
POLARMODE
1000
1
  0
DICTIONARY
  5
7756
102
{ACAD_REACTORS
330
7755
102
}
330
7755
100
AcDbDictionary
281
     1
  0
XRECORD
  5
7735
102
{ACAD_REACTORS
330
5D73
102
}
330
5D73
100
AcDbXrecord
280
     1
340
18
  0
XRECORD
  5
7734
102
{ACAD_REACTORS
330
5D71
102
}
330
5D71
100
AcDbXrecord
280
     1
340
15
  0
LAYOUT
  5
5451
102
{ACAD_REACTORS
330
544F
102
}
330
544F
100
AcDbPlotSettings
  1

  2
C:\Program Files\AutoCAD LT 2000i\plotters\DWF Classic.pc3
  4
ANSI_A_(8.50_x_11.00_Inches)
  6

 40
5.793749809265136
 41
17.79375076293945
 42
5.793746948242187
 43
17.79376220703125
 44
215.8999938964844
 45
279.3999938964844
 46
0.0
 47
0.0
 48
0.0
 49
0.0
140
0.0
141
0.0
142
1.0
143
1.0
 70
 11952
 72
     1
 73
     1
 74
     0
  7

 75
     0
147
1.0
 76
     0
 77
     2
 78
   300
148
-8812.469973174705
149
26308.08045293822
100
AcDbLayout
  1
Model
 70
     1
 71
     0
 10
0.0
 20
0.0
 11
12.0
 21
9.0
 12
0.0
 22
0.0
 32
0.0
 14
0.0
 24
0.0
 34
0.0
 15
0.0
 25
0.0
 35
0.0
146
0.0
 13
0.0
 23
0.0
 33
0.0
 16
1.0
 26
0.0
 36
0.0
 17
0.0
 27
1.0
 37
0.0
 76
     0
330
18
  0
LAYOUT
  5
5452
102
{ACAD_XDICTIONARY
360
7758
102
}
102
{ACAD_REACTORS
330
544F
102
}
330
544F
100
AcDbPlotSettings
  1

  2
\\Kizaibu-server\Canon LBP-740
  4
A4
  6

 40
5.873749732971191
 41
5.873747825622558
 42
5.873748779296875
 43
5.873748779296875
 44
209.9733276367187
 45
296.9259948730469
 46
0.0
 47
0.0
 48
0.0
 49
0.0
140
0.0
141
0.0
142
1.0
143
2.096113086433094
 70
   688
 72
     1
 73
     1
 74
     1
  7
1.ctb
 75
     0
147
0.47707349687973
 76
     0
 77
     2
 78
   300
148
-1.0
149
-2.5
100
AcDbLayout
  1
ﾚｲｱｳﾄ1
 70
     1
 71
     1
 10
-11.31204168270459
 20
-9.812043681713809
 11
611.0784218728549
 21
430.3157961795161
 12
0.0
 22
0.0
 32
0.0
 14
1.0
 24
2.5
 34
0.0
 15
593.0087902429615
 25
418.0037544968115
 35
0.0
146
0.0
 13
0.0
 23
0.0
 33
0.0
 16
1.0
 26
0.0
 36
0.0
 17
0.0
 27
1.0
 37
0.0
 76
     0
330
15
331
36
  0
MLINESTYLE
  5
1C
102
{ACAD_REACTORS
330
1B
102
}
330
1B
100
AcDbMlineStyle
  2
STANDARD
 70
     0
  3

 62
   256
 51
90.0
 52
90.0
 71
     2
 49
0.5
 62
   256
  6
BYLAYER
 49
-0.5
 62
   256
  6
BYLAYER
  0
ACDBPLACEHOLDER
  5
544E
102
{ACAD_REACTORS
330
544D
102
}
330
544D
  0
TABLESTYLE
  5
7742
102
{ACAD_REACTORS
330
7741
102
}
330
7741
100
AcDbTableStyle
  3
Standard
 70
     0
 71
     8
 40
1.5
 41
1.5
280
     0
281
     0
  7
STANDARD
140
4.5
170
     2
 62
     0
 63
     7
283
     0
274
    -2
284
     1
 64
     0
275
    -2
285
     1
 65
     0
276
    -2
286
     1
 66
     0
277
    -2
287
     1
 67
     0
278
    -2
288
     1
 68
     0
279
    -2
289
     1
 69
     0
  7
STANDARD
140
6.0
170
     5
 62
     0
 63
     7
283
     0
274
    -2
284
     1
 64
     0
275
    -2
285
     1
 65
     0
276
    -2
286
     1
 66
     0
277
    -2
287
     1
 67
     0
278
    -2
288
     1
 68
     0
279
    -2
289
     1
 69
     0
  7
STANDARD
140
4.5
170
     5
 62
     0
 63
     7
283
     0
274
    -2
284
     1
 64
     0
275
    -2
285
     1
 65
     0
276
    -2
286
     1
 66
     0
277
    -2
287
     1
 67
     0
278
    -2
288
     1
 68
     0
279
    -2
289
     1
 69
     0
  0
DICTIONARYVAR
  5
775B
102
{ACAD_REACTORS
330
E5
102
}
330
E5
100
DictionaryVariables
280
     0
  1
STANDARD
  0
DICTIONARYVAR
  5
E6
102
{ACAD_REACTORS
330
E5
102
}
330
E5
100
DictionaryVariables
280
     0
  1
0
  0
DICTIONARYVAR
  5
B67
102
{ACAD_REACTORS
330
E5
102
}
330
E5
100
DictionaryVariables
280
     0
  1
96
  0
DICTIONARY
  5
7758
330
5452
100
AcDbDictionary
280
     1
281
     1
  3
ADSK_XREC_LAYOUTTHUMBNAIL
360
7759
  0
XRECORD
  5
7759
102
{ACAD_REACTORS
330
7758
102
}
330
7758
100
AcDbXrecord
280
     1
310
28000000B40000007F00000001000800000000004C59000000000000000000000001000000000000FFFFFF0000000000FFFFFF000000000000000000000000000000000000000000000000000000000000000000330000006600000099000000CC000000FF00000000330000333300006633000099330000CC330000FF3300
310
0000660000336600006666000099660000CC660000FF66000000990000339900006699000099990000CC990000FF99000000CC000033CC000066CC000099CC0000CCCC0000FFCC000000FF000033FF000066FF000099FF0000CCFF0000FFFF000000003300330033006600330099003300CC003300FF003300003333003333
310
33006633330099333300CC333300FF33330000663300336633006666330099663300CC663300FF66330000993300339933006699330099993300CC993300FF99330000CC330033CC330066CC330099CC3300CCCC3300FFCC330000FF330033FF330066FF330099FF3300CCFF3300FFFF330000006600330066006600660099
310
006600CC006600FF00660000336600333366006633660099336600CC336600FF33660000666600336666006666660099666600CC666600FF66660000996600339966006699660099996600CC996600FF99660000CC660033CC660066CC660099CC6600CCCC6600FFCC660000FF660033FF660066FF660099FF6600CCFF6600
310
FFFF660000009900330099006600990099009900CC009900FF00990000339900333399006633990099339900CC339900FF33990000669900336699006666990099669900CC669900FF66990000999900339999006699990099999900CC999900FF99990000CC990033CC990066CC990099CC9900CCCC9900FFCC990000FF99
310
0033FF990066FF990099FF9900CCFF9900FFFF99000000CC003300CC006600CC009900CC00CC00CC00FF00CC000033CC003333CC006633CC009933CC00CC33CC00FF33CC000066CC003366CC006666CC009966CC00CC66CC00FF66CC000099CC003399CC006699CC009999CC00CC99CC00FF99CC0000CCCC0033CCCC0066CC
310
CC0099CCCC00CCCCCC00FFCCCC0000FFCC0033FFCC0066FFCC0099FFCC00CCFFCC00FFFFCC000000FF003300FF006600FF009900FF00CC00FF00FF00FF000033FF003333FF006633FF009933FF00CC33FF00FF33FF000066FF003366FF006666FF009966FF00CC66FF00FF66FF000099FF003399FF006699FF009999FF00CC
310
99FF00FF99FF0000CCFF0033CCFF0066CCFF0099CCFF00CCCCFF00FFCCFF0000FFFF0033FFFF0066FFFF0099FFFF00CCFFFF00FFFFFF00000000000D0D0D001A1A1A00282828003535350043434300505050005D5D5D006B6B6B00787878008686860093939300A1A1A100AEAEAE00BBBBBB00C9C9C900D6D6D600E4E4E400
310
F1F1F100FFFFFF0000000000000000000000000000000000000000000000000000000000000000000000000000000000E2E2E2E2E2E2E2E2E2E2E2E2E2E2E2E2E2E2E2E2E2E2E2E2E2E2E2E2E2E2E2E2E2E2E2E2E2E2E2E2E2E2E2E2E2E2E2E2E2E2E2E2E2E2E2E2E2E2E2E2E2E2E2E2E2E2E2E2E2E2E2E2E2E2E2E2E2E2E2
310
E2E2E2E2E2E2E2E2E2E2E2E2E2E2E2E2E2E2E2E2E2E2E2E2E2E2E2E2E2E2E2E2E2E2E2E2E2E2E2E2E2E2E2E2E2E2E2E2E2E2E2E2E2E2E2E2E2E2E2E2E2E2E2E2E2E2E2E2E2E2E2E2E2E2E2E2E2E2E2E2E2E2E2E2E2E2E2E2E2E2E2E2E2E2E2E2E2E2E2E2E2E2F5F5F5F5F5F5F5F5F5F5F5F5F5F5F5F5F5F5F5F5F5F5F5F5F5
310
F5F5F5F5F5F5F5F5F5F5F5F5F5F5F5F5F5F5F5F5F5F5F5F5F5F5F5F5F5F5F5F5F5F5F5F5F5F5F5F5F5F5F5F5F5F5F5F5F5F5F5F5F5F5F5F5F5F5F5F5F5F5F5F5F5F5F5F5F5F5F5F5F5F5F5F5F5F5F5F5F5F5F5F5F5F5F5F5F5F5F5F5F5F5F5F5F5F5F5F5F5F5F5F5F5F5F5F5F5F5F5F5F5F5F5F5F5F5F5F5F5F5F5F5F5F5F5
310
F5F5F5F5F5F5F5F5F5F5F5F5F5F5F5F5F5F5F5F5F5F5F5F5F5F5E2E2F5F5F5F5F5F5F5F5F5F5F5F5F5F5F5F5F5F5F5F5F5F5F5F5F5F5F5F5F5F5F5F5F5F5F5F5F5F5F5F5F5F5F5F5F5F5F5F5F5F5F5F5F5F5F5F5F5F5F5F5F5F5F5F5F5F5F5F5F5F5F5F5F5F5F5F5F5F5F5F5F5F5F5F5F5F5F5F5F5F5F5F5F5F5F5F5F5F5F5
310
F5F5F5F5F5F5F5F5F5F5F5F5F5F5F5F5F5F5F5F5F5F5F5F5F5F5F5F5F5F5F5F5F5F5F5F5F5F5F5F5F5F5F5F5F5F5F5F5F5F5F5F5F5F5F5F5F5F5F5F5F5F5F5F5F5F5F5F5F5F5F5F5F5F5F5F5F5F5F5E2E2F5F5F5F5F5F5F5F5F5F5F5F5F5F5F5F5F5F5F5F5F5F5F5F5F5F5F5F5F5F5F5F5F5F5F5F5F5F5F5F5F5F5F5F5F5F5
310
F5F5F5F5F5F5F5F5F5F5F5F5F5F5F5F5F5F5F5F5F5F5F5F5F5F5F5F5F5F5F5F5F5F5F5F5F5F5F5F5F5F5F5F5F5F5F5F5F5F5F5F5F5F5F5F5F5F5F5F5F5F5F5F5F5F5F5F5F5F5F5F5F5F5F5F5F5F5F5F5F5F5F5F5F5F5F5F5F5F5F5F5F5F5F5F5F5F5F5F5F5F5F5F5F5F5F5F5F5F5F5F5F5F5F5F5F5F5F5F5F5F5F5F5F5F5F5
310
F5F5F5F5F5E2E2F5F5F5E2E2E2E2E2E2E2E2E2E2E2E2E2E2E2E2E2E2E2E2E2E2E2E2E2E2E2E2E2E2E2E2E2E2E2E2E2E2E2E2E2E2E2E2E2E2E2E2E2E2E2E2E2E2E2E2E2E2E2E2E2E2E2E2E2E2E2E2E2E2E2E2E2E2E2E2E2E2E2E2E2E2E2E2E2E2E2E2E2E2E2E2E2E2E2E2E2E2E2E2E2E2E2E2E2E2E2E2E2E2E2E2E2E2E2E2E2
310
E2E2E2E2E2E2E2E2E2E2E2E2E2E2E2E2E2E2E2E2E2E2E2E2E2E2E2E2E2E2E2E2E2E2E2E2E2E2E2E2E2E2E2E2E2E2E2E2E2E2E2E2E2E2E2F5F5F5E2E2F5F5F5E2F5F5F5F5F5F5F5F5F5F5F5F5F5F5F5F5F5F5F5F5F5F5F5F5F5F5F5F5F5F5F5F5F5F5F5F5F5F5F5F5F5F5F5F5F5F5F5F5F5F5F5F5F5F5F5F5F5F5F5F5F5F5F5
310
F5F5F5F5F5F5F5F5F5F5F5F5F5F5F5F5F5F5F5F5F5F5F5F5F5F5F5F5F5F5F5F5F5F5F5F5F5F5F5F5F5F5F5F5F5F5F5F5F5F5F5F5F5F5F5F5F5F5F5F5F5F5F5F5F5F5F5F5F5F5F5F5F5F5F5F5F5F5F5F5F5F5F5F5F5F5F5F5F5F5F5F5F5F5F5F5F5F5F5F5F5F5F5F5F5E2F5E2F5F5F5E2E2F5F5F5E2F5F5F5F5F5F5E2E2E2E2
310
E2E2E2E2E2E2E2E2E2E2E2E2E2E2E2E2E2E2E2E2E2E2E2E2E2E2E2E2E2E2E2E2E2E2E2E2E2E2E2E2E2E2E2E2E2E2E2E2E2E2E2E2E2E2E2E2E2E2E2E2E2E2E2E2E2E2E2E2E2E2E2E2E2E2E2E2E2E2E2E2E2E2E2E2E2E2E2E2E2E2E2E2E2E2E2E2E2E2E2E2E2E2E2E2E2E2E2E2E2E2E2E2E2E2E2E2E2E2E2E2E2E2E2E2E2E2E2
310
E2E2E2E2E2E2E2E2E2E2E2E2E2E2E2E2E2E2E2E2E2E2E2E2E2E2E2E2E2E2F5E2F5E2F5F5F5E2E2F5F5F5E2F5F5F5F5F5F5E2F5F5F5F5F5F5F5F5F5F5F5F5F5F5F5F5F5F5F5F5F5F5F5F5F5F5F5F5F5F5F5F5F5F5F5F5F5F5F5F5F5F5F5F5F5F5F5F5F5F5F5F5F5F5F5F5F5F5F5F5F5F5F5F5F5F5F5F5F5F5F5F5F5F5F5F5F5
310
F5F5F5F5F5F5F5F5F5F5F5F5F5F5F5F5F5F5F5F5F5F5F5F5F5F5F5F5F5F5F5F5F5F5F5F5F5F5F5F5F5F5F5F5F5F5F5F5F5F5F5F5F5F5F5F5F5F5F5F5F5F5F5F5E2E2E2E2E2E2E2E2E2E2E2E2E2E2E2E2E2E2E2F5E2F5E2F5F5F5E2E2F5F5F5E2F5F5F5F5F5F5E2F5F5F5F5F5F5F5F5F5F5F5F5F5F5F5F5F5F5F5F5F5F5F5F5
310
F5F5F5F5F5F5F5F5F5F5F5F5F5F5F5F5F5F5F5F5F5F5F5F5F5F5F5F5F5F5F5F5F5F5F5F5F5F5F5F5F5F5F5F5F5F5F5F5F5F5F5F5F5F5F5F5F5F5F5F5F5F5F5F5F5F5F5F5F5F5F5F5F5F5F5F5F5F5F5F5F5F5F5F5F5F5F5F5F5F5F5F5F5F5F5F5F5F5F5F5F5F5F5F5F5F5F5F5F5F5F5F5F5F5F5F5F5E2F5F5F5F5F5F5F5F5E2
310
E2E2E2F5F5E2F5F5E2F5E2F5E2F5F5F5E2E2F5F5F5E2F5F5F5F5F5F5E2F5F5F5F5F5F5F5F5F5F5F5F5F5F5F5F5F5F5F5F5F5F5F5F5F5F5F5F5F5F5F5F5F5F5F5F5F5F5F5F5F5F5F5F5F5F5F5F5F5F5F5F5F5F5F5F5F5F5F5F5F5F5F5F5F5F5F5F5F5F5F5F5F5F5F5F5F5F5F5F5F5F5F5F5F5F5F5F5F5F5F5F5F5F5F5F5F5F5
310
F5F5F5F5F5F5F5F5F5F5F5F5F5F5F5F5F5F5F5F5F5F5F5F5F5F5F5F5F5F5F5F5F5F5F5F5F5F5F5F5F5F5F5E2E2E2E2E2E2E2E2E2E2E2E2E2E2E2E2E2E2E2F5E2F5E2F5F5F5E2E2F5F5F5E2F5F5F5F5F5F5E2F5F5F5F5F5F5F5F5F5F5F5F5F5F5F5F5F5F5F5F5F5F5F5F5F5F5F5F5F5F5F5F5F5F5F5F5F5F5F5F5F5F5F5F5F5
310
F5F5F5F5F5F5F5F5F5F5F5F5F5F5F5F5F5F5F5F5F5F5F5F5F5F5F5F5F5F5F5F5F5F5F5F5F5F5F5F5F5F5F5F5F5F5F5F5F5F5F5F5F5F5F5F5F5F5F5F5F5F5F5F5F5F5F5F5F5F5F5F5F5F5F5F5F5F5F5F5F5F5F5F5F5F5F5F5F5F5F5F5F5F5F5F5E2E2E2E2E2F5F5F5F5F5E2E2E2E2E2F5F5F5E2F5E2F5E2F5F5F5E2E2F5F5F5
310
E2F5F5F5F5F5F5E2F5F5F5F5F5F5F5F5F5F5F5F5F5F5F5F5F5F5F5F5F5F5F5F5F5F5F5F5F5F5F5F5F5F5F5F5F5F5F5F5F5F5F5F5F5F5F5F5F5F5F5F5F5F5F5F5F5F5F5F5F5F5F5F5F5E2F5F5F5F5F5F5F5F5F5F5F5F5F5F5F5F5F5F5F5F5F5F5F5F5F5F5F5F5F5F5F5F5F5F5F5F5F5F5F5F5F5F5F5F5F5F5F5F5F5F5F5F5F5
310
F5F5F5F5F5F5F5F5F5F5F5F5F5F5F5F5F5F5F5F5F5F5E2E2E2E2E2F5F5F5E2E2E2F5F5F5F5F5F5F5E2F5E2F5E2F5F5F5E2E2F5F5F5E2F5F5F5F5F5F5E2F5F5F5F5F5F5F5F5F5F5F5F5F5F5F5F5F5F5F5F5F5F5F5F5F5F5F5F5F5F5F5F5F5F5F5F5F5F5F5F5F5F5F5F5F5F5F5F5F5F5F5F5F5F5F5F5F5F5F5F5F5F5F5F5F5E2
310
F5F5F5F5F5F5F5F5F5F5F5F5F5F5F5F5F5F5F5F5F5F5F5F5F5F5F5F5F5F5F5F5F5F5F5F5F5F5F5F5F5F5F5F5F5F5F5F5F5F5F5F5F5F5F5F5F5F5F5F5F5F5F5F5F5F5F5F5F5F5F5F5F5F5F5E2F5F5F5E2F5F5F5E2E2F5F5F5F5F5F5F5F5E2F5E2F5F5F5F5F5E2E2F5F5F5E2F5F5F5F5F5F5E2F5F5F5F5F5F5F5F5F5F5F5F5F5
310
F5F5F5F5F5F5F5F5F5F5F5F5F5F5F5F5F5F5F5F5F5F5F5F5F5F5F5F5F5F5F5F5F5F5F5F5F5F5F5F5F5F5F5F5F5F5F5F5F5F5F5F5E2F5F5F5F5F5F5F5F5F5F5F5F5F5F5F5F5F5F5F5F5F5F5F5F5F5F5F5F5F5F5F5F5F5F5F5F5F5F5F5F5F5F5F5F5F5F5F5F5F5F5F5F5F5F5F5F5F5F5F5F5F5F5F5F5F5F5F5F5F5F5F5F5F5F5
310
F5E2F5F5F5E2F5F5F5F5F5F5F5F5F5F5F5F5F5E2F5E2F5F5F5F5F5E2E2F5F5F5E2F5F5F5F5F5F5E2F5F5F5F5F5F5F5F5F5F5F5F5F5F5F5F5F5F5F5F5F5F5F5F5F5F5F5F5F5F5F5F5F5F5F5F5F5F5F5F5F5F5F5F5F5F5F5F5F5F5F5F5F5F5F5F5F5F5F5F5F5F5F5F5F5E2F5F5F5F5F5F5F5F5F5F5F5F5F5F5F5F5F5F5F5F5F5
310
F5F5F5F5F5F5F5F5F5F5F5F5F5F5F5F5F5F5F5F5F5F5F5F5F5F5F5F5F5F5F5F5F5F5F5F5F5F5F5F5F5F5F5F5F5F5F5F5F5F5F5F5F5F5E2E2E2E2E2E2E2E2E2E2E2E2E2E2E2E2E2E2E2F5E2F5F5F5F5F5E2E2F5F5F5E2F5F5F5F5F5F5E2F5F5F5F5F5F5F5F5F5F5F5F5F5F5F5F5E2F5E2F5F5F5F5F5F5F5F5F5F5F5F5F5F5F5
310
F5F5F5F5F5F5F5F5F5F5F5F5F5F5F5F5F5F5F5F5F5F5F5F5F5F5F5F5F5F5F5E2F5F5F5F5F5F5F5F5F5F5F5F5F5F5F5F5F5F5F5F5F5F5F5F5F5F5F5F5F5F5F5F5F5F5F5F5F5F5F5F5F5F5F5F5F5F5E2E2F5F5F5F5F5F5F5F5F5F5F5F5F5F5F5F5F5F5F5F5F5F5F5F5F5F5F5E2F5F5F5E2F5F5F5F5F5F5F5F5F5F5F5F5F5E2F5
310
E2F5F5F5F5F5E2E2F5F5F5E2F5F5F5F5F5F5E2F5F5F5F5F5F5F5F5F5F5F5F5F5F5F5F5E2E2E2E2E2E2E2E2E2E2E2E2E2E2E2E2E2E2E2E2E2E2E2E2E2E2E2E2E2E2E2E2E2E2E2E2E2E2E2E2E2E2E2E2E2E2E2E2E2E2E2E2E2E2E2E2E2E2E2E2E2E2E2E2E2E2E2E2E2E2E2E2E2E2E2E2E2E2E2E2E2E2E2E2E2E2E2E2E2E2E2E2
310
E2E2E2E2E2E2F5F5F5F5F5F5F5F5F5F5F5F5F5F5F5F5F5F5F5F5F5F5F5F5F5F5F5E2F5F5F5E2F5F5F5F5F5F5F5F5F5F5F5F5F5E2F5E2F5F5F5F5F5E2E2F5F5F5E2F5F5F5F5F5F5E2F5F5F5F5F5F5F5F5F5F5F5F5F5F5F5F5E2F5F5F5F5F5F5F5F5F5F5F5F5F5F5F5F5F5F5F5F5F5F5F5F5F5F5F5F5F5F5F5F5F5F5F5F5F5F5
310
F5F5F5F5F5F5F5F5E2E2E2E2E2F5F5F5F5F5F5F5F5F5F5F5F5F5F5F5F5F5F5F5F5F5F5F5F5F5F5F5F5F5F5F5F5F5F5F5F5F5F5F5F5F5F5F5F5F5E2F5F5F5F5F5F5F5F5F5F5F5F5F5F5F5F5F5F5F5F5F5F5F5F5F5F5F5E2E2E2E2E2E2E2E2E2E2E2E2E2E2E2E2E2E2E2F5E2F5F5F5F5F5E2E2F5F5F5E2F5F5F5F5F5F5E2F5F5
310
F5F5F5F5F5F5F5F5F5F5F5F5F5F5E2F5F5F5F5F5F5F5F5F5F5F5F5F5F5F5F5F5F5F5F5F5F5F5F5F5F5F5F5F5F5F5F5F5F5F5F5F5F5F5F5F5F5F5F5F5F5F5F5E2F5F5F5F5F5F5F5F5F5F5F5F5F5F5F5F5F5F5F5F5F5F5F5F5F5F5F5F5F5F5F5F5F5F5F5F5F5F5F5F5F5F5F5F5F5F5F5E2F5F5F5F5F5F5F5F5F5F5F5F5F5F5F5
310
F5F5F5F5F5F5F5F5F5F5F5F5E2F5F5F5F5F5F5F5F5F5F5F5F5F5F5F5F5F5E2F5E2F5F5F5F5F5E2E2F5F5F5E2F5F5F5F5F5F5E2F5F5F5F5F5F5F5F5F5F5F5F5F5F5F5F5E2F5F5F5F5F5F5F5F5F5F5F5F5F5F5F5F5F5F5F5F5F5F5F5F5F5F5F5F5F5F5F5F5F5F5F5F5F5F5F5F5F5F5F5F5F5F5F5F5E2F5F5F5F5F5F5F5F5F5F5
310
F5F5F5F5F5F5F5F5F5F5F5F5F5F5F5F5F5F5F5F5F5F5F5F5F5F5F5F5F5F5F5F5F5F5F5F5F5E2F5F5F5F5F5F5F5F5F5F5F5F5F5F5F5F5F5F5F5F5F5F5F5F5F5F5F5E2F5F5F5F5F5F5F5F5F5F5F5F5F5F5F5F5F5E2F5E2F5F5F5F5F5E2E2F5F5F5E2F5F5F5F5F5F5E2F5F5F5F5F5F5F5F5F5F5F5F5F5F5F5F5E2F5F5F5F5F5F5
310
F5F5F5F5F5F5F5F5F5F5F5F5F5F5F5F5F5F5F5F5F5F5F5F5F5F5F5F5F5F5F5F5F5F5F5F5F5F5F5F5F5F5E2F5F5F5F5F5F5F5F5F5F5F5F5F5F5F5F5F5F5F5F5F5F5F5F5F5F5F5F5F5F5F5F5F5F5F5F5F5F5F5F5F5F5F5F5F5F5F5E2F5F5F5F5F5F5F5F5F5F5F5F5F5F5F5F5F5F5F5F5F5F5F5F5F5F5F5E2F5F5F5F5F5F5F5F5
310
F5F5F5F5F5F5F5F5F5E2F5E2F5F5F5F5F5E2E2F5F5F5E2F5F5F5F5F5F5E2F5F5F5F5F5F5F5F5F5F5F5F5F5F5F5F5E2E2E2E2E2E2E2E2E2E2E2E2E2E2E2E2E2E2E2E2E2E2E2E2E2E2E2E2E2E2E2E2E2E2E2E2E2E2E2E2E2E2E2E2E2E2E2E2E2E2E2E2E2E2E2E2E2E2E2E2E2E2E2E2E2E2E2E2E2E2E2E2E2E2E2E2E2E2E2E2E2
310
E2E2E2E2E2E2E2E2E2E2E2E2E2E2E2E2E2E2E2E2E2E2E2F5F5F5F5F5F5F5F5F5F5F5F5F5F5F5F5F5F5F5F5F5E2F5F5F5F5F5F5F5F5F5F5F5F5F5F5F5F5F5E2F5E2F5E2F5F5F5E2E2F5F5F5E2F5F5F5F5F5F5E2F5F5F5F5F5F5F5F5F5F5F5F5F5F5F5F5E2E2F5F5E2E2E2E2E2F5F5F5F5F5F5F5E2F5F5F5F5F5F5F5F5E2F5F5
310
E2E2E2E2E2E2E2E2F5F5F5F5F5E2F5F5F5F5E2E2E2E2E2E2F5F5F5F5F5E2F5F5F5E2E2E2E2E2E2E2E2E2F5F5F5E2F5F5F5F5F5F5F5E2F5F5F5F5F5F5F5E2E2E2E2E2E2F5F5E2F5F5F5F5E2F5F5F5F5F5F5F5F5F5F5F5F5F5F5F5F5F5F5F5F5F5F5E2F5F5F5F5F5F5F5F5F5F5F5F5F5F5F5F5F5E2F5E2F5E2F5F5F5E2E2F5F5
310
F5E2F5F5F5F5F5F5E2F5F5F5F5F5F5F5F5F5F5F5F5F5F5F5F5E2E2E2E2E2E2E2E2E2E2E2E2E2E2E2E2E2E2E2E2E2E2E2E2E2E2E2E2E2E2E2E2E2E2E2E2E2E2E2E2E2E2E2E2E2E2E2E2E2E2E2E2E2E2E2E2E2E2E2E2E2E2E2E2E2E2E2E2E2E2E2E2E2E2E2E2E2E2E2E2E2E2E2E2E2E2E2E2E2E2E2E2E2E2E2E2E2E2F5F5F5F5
310
E2F5F5F5F5F5F5F5F5F5F5F5F5F5F5F5F5F5F5F5F5F5F5E2F5F5F5F5F5F5F5F5F5F5F5F5F5F5F5F5F5E2F5E2F5E2F5F5F5E2E2F5F5F5E2F5F5F5F5F5F5E2F5F5F5F5F5F5F5F5F5F5F5F5F5F5F5F5E2F5F5F5E2E2F5F5E2F5F5F5F5F5F5F5E2F5F5F5F5F5F5F5F5E2E2E2F5F5E2E2E2E2F5F5F5F5E2E2F5E2F5F5F5F5F5F5F5
310
E2F5F5F5F5F5F5F5E2F5E2E2F5E2E2E2E2E2E2E2F5E2E2F5E2F5F5F5F5F5F5F5E2F5F5F5F5F5F5F5E2F5F5F5E2E2F5F5E2F5F5F5F5E2F5F5F5F5F5F5F5F5F5F5F5F5F5F5F5F5F5F5F5F5F5F5E2F5F5F5F5F5F5F5F5F5F5F5F5F5F5F5F5F5E2F5E2F5E2F5F5F5E2E2F5F5F5E2F5F5F5F5F5F5E2F5F5F5F5F5F5F5F5F5F5F5F5
310
F5F5F5F5E2F5F5F5F5F5E2E2E2F5F5F5F5F5F5F5E2F5F5F5F5F5F5F5F5E2E2F5F5F5F5F5F5E2F5F5F5F5F5F5E2E2F5F5F5F5F5F5F5E2F5F5F5F5F5F5F5E2E2F5F5F5F5F5F5E2F5F5F5F5F5F5E2E2F5F5F5F5F5F5F5E2F5F5F5F5F5F5F5E2E2E2E2F5F5F5F5E2F5F5F5F5E2F5F5F5F5F5F5F5F5F5F5F5F5F5F5F5F5F5F5F5F5
310
F5F5E2F5F5F5F5F5F5E2E2E2E2F5F5F5F5F5F5F5E2F5E2F5E2F5F5F5E2E2F5F5F5E2F5F5F5F5F5F5E2F5F5F5F5F5F5F5F5F5F5F5F5F5F5F5F5E2E2E2E2E2E2E2E2E2E2E2E2E2E2E2E2E2E2E2E2E2E2E2E2E2E2E2E2E2E2E2E2E2E2E2E2E2E2E2E2E2E2E2E2E2E2E2E2E2E2E2E2E2E2E2E2E2E2E2E2E2E2E2E2E2E2E2E2E2E2
310
E2E2E2E2E2E2E2E2E2E2E2E2E2E2E2E2E2E2E2E2E2E2E2E2E2E2E2E2F5F5F5F5E2F5F5F5F5F5F5F5F5F5F5F5F5F5F5F5F5F5F5F5F5F5F5E2F5F5F5F5F5F5E2E2E2E2F5F5F5F5F5F5F5E2F5E2F5E2F5F5F5E2E2F5F5F5E2F5F5F5F5F5F5E2F5F5F5F5F5F5F5F5F5F5F5F5F5F5F5F5E2F5F5F5F5F5F5F5E2F5F5E2F5F5F5F5E2
310
F5F5F5F5F5E2E2F5E2F5F5F5F5F5F5F5E2F5F5F5F5F5F5F5E2F5E2E2F5F5F5F5E2F5F5F5F5E2E2F5E2E2E2E2E2E2E2E2E2E2E2E2E2F5F5F5E2F5E2E2F5F5F5F5E2F5F5F5F5E2E2F5E2F5F5F5F5F5F5F5E2F5F5F5F5E2F5F5F5F5F5F5F5F5F5F5F5F5F5F5F5F5F5F5F5F5F5F5E2F5F5F5F5F5F5E2E2E2E2F5F5F5F5F5F5F5E2
310
F5E2F5E2F5F5F5E2E2F5F5F5E2F5F5F5F5F5F5E2F5F5F5F5F5F5F5F5F5F5F5F5F5F5F5F5E2E2E2E2E2E2E2E2E2E2E2E2E2E2E2E2E2E2E2E2E2E2E2E2E2E2E2E2E2E2E2E2E2E2E2E2E2E2E2E2E2E2E2E2E2E2E2E2E2E2E2E2E2E2E2E2E2E2E2E2E2E2E2E2E2E2E2E2E2E2E2E2E2E2E2E2E2E2E2E2E2E2E2E2E2E2E2E2E2E2E2
310
E2E2E2E2E2E2E2F5F5F5F5E2F5F5F5F5F5F5F5F5F5F5F5F5F5F5F5F5F5F5F5F5F5F5E2F5F5F5F5F5F5E2E2E2E2F5F5F5F5F5F5F5E2F5E2F5E2F5F5F5E2E2F5F5F5E2F5F5F5F5F5F5E2F5F5F5F5F5F5F5F5F5F5F5F5F5F5F5F5E2F5F5F5F5F5F5F5E2F5F5F5F5F5E2F5E2F5E2E2F5F5F5F5F5E2F5F5F5F5F5F5F5E2F5F5F5F5
310
F5F5F5E2F5F5F5F5F5E2F5E2E2E2F5F5F5F5F5E2F5F5F5F5F5F5F5E2F5F5F5F5F5F5F5E2F5F5F5F5F5E2E2E2F5E2E2F5F5F5F5E2F5F5F5F5F5F5F5E2F5F5F5F5E2F5F5F5F5F5F5F5F5F5F5F5F5F5F5F5F5F5F5F5F5F5F5E2F5F5F5F5F5F5E2E2E2E2F5F5F5F5F5F5F5E2F5E2F5E2F5F5F5E2E2F5F5F5E2F5F5F5F5F5F5E2F5
310
F5F5F5F5F5F5F5F5F5F5F5F5F5F5F5E2E2E2E2E2E2E2E2E2E2E2E2E2E2E2E2E2E2E2E2E2E2E2E2E2E2E2E2E2E2E2E2E2E2E2E2E2E2E2E2E2E2E2E2E2E2E2E2E2E2E2E2E2E2E2E2E2E2E2E2E2E2E2E2E2E2E2E2E2E2E2E2E2E2E2E2E2E2E2E2E2E2E2E2E2E2E2E2E2E2E2E2E2E2E2E2E2E2F5F5F5F5E2F5F5F5F5F5F5F5F5F5
310
F5F5F5F5F5F5F5F5F5F5F5F5F5E2F5F5F5F5F5F5E2E2E2E2F5F5F5F5F5F5F5E2F5E2F5E2F5F5F5E2E2F5F5F5E2F5F5F5F5F5F5E2F5F5F5F5F5F5F5F5F5F5F5F5F5F5F5F5E2F5F5F5F5F5F5F5E2F5F5F5F5F5F5E2E2E2E2F5F5F5F5F5F5E2F5F5F5F5F5F5F5E2F5F5F5F5F5F5F5E2F5F5F5F5F5E2F5E2E2F5F5F5F5F5F5E2F5
310
F5F5F5F5F5F5E2F5F5F5F5F5F5F5E2F5F5F5F5F5E2E2E2E2F5F5F5F5F5F5E2F5F5F5F5F5F5F5E2F5F5F5F5E2F5F5F5F5F5F5F5F5F5F5F5F5F5F5F5F5F5F5F5F5F5F5E2F5F5F5F5F5F5E2E2E2E2F5F5F5F5F5F5F5E2F5E2F5E2F5F5F5E2E2F5F5F5E2F5F5F5F5F5F5E2F5F5F5F5F5F5F5F5F5F5F5F5F5F5F5F5E2E2E2E2E2E2
310
E2E2E2E2E2E2E2E2E2E2E2E2E2E2E2E2E2E2E2E2E2E2E2E2E2E2E2E2E2E2E2E2E2E2E2E2E2E2E2E2E2E2E2E2E2E2E2E2E2E2E2E2E2E2E2E2E2E2E2E2E2E2E2E2E2E2E2E2E2E2E2E2E2E2E2E2E2E2E2E2E2E2E2E2E2E2E2E2E2E2E2E2F5F5F5F5E2F5F5F5F5F5F5F5F5F5F5F5F5F5F5F5F5F5F5F5F5F5F5E2F5F5F5F5F5F5E2
310
E2E2E2F5E2E2E2E2F5F5E2F5E2F5E2F5F5F5E2E2F5F5F5E2F5F5F5F5F5F5E2F5F5F5F5F5F5F5F5F5F5F5F5F5F5F5F5E2F5F5F5F5F5F5F5E2F5F5E2E2F5F5F5E2F5F5F5F5E2E2F5F5E2F5F5F5F5F5F5F5E2F5F5F5F5F5F5F5E2F5E2E2F5F5F5F5E2F5F5F5E2E2F5F5E2F5F5F5F5F5F5F5E2F5F5F5F5F5F5F5E2F5E2E2F5F5F5
310
F5E2F5F5F5E2E2F5F5E2F5F5F5F5F5F5F5E2F5E2F5F5E2F5F5F5F5F5F5F5F5F5F5F5F5F5F5F5F5F5F5F5F5F5F5E2F5F5F5F5F5F5E2E2E2E2F5E2E2E2E2F5F5E2F5E2F5E2F5F5F5E2E2F5F5F5E2F5F5F5F5F5F5E2F5F5F5F5F5F5F5F5F5F5F5F5F5F5F5F5E2F5F5F5F5F5F5F5E2E2E2F5F5F5F5F5E2F5F5F5F5F5F5E2E2E2F5
310
F5F5F5F5F5F5E2F5F5F5F5F5F5F5E2E2F5F5F5F5F5F5E2F5F5F5F5F5E2E2E2F5F5F5F5F5F5F5E2F5F5F5F5F5F5F5E2E2F5F5F5F5F5F5E2F5F5F5F5F5E2E2E2F5F5F5F5F5F5F5E2F5E2E2F5E2F5F5F5F5F5F5F5F5F5F5F5F5F5F5F5F5F5F5F5F5F5F5E2F5F5F5F5F5F5E2E2E2E2F5E2E2E2E2F5F5E2F5E2F5E2F5F5F5E2E2F5
310
F5F5E2F5F5F5F5F5F5E2F5F5F5F5F5F5F5F5F5F5F5F5F5F5F5F5E2E2E2E2E2E2E2E2E2E2E2E2E2E2E2E2E2E2E2E2E2E2E2E2E2E2E2E2E2E2E2E2E2E2E2E2E2E2E2E2E2E2E2E2E2E2E2E2E2E2E2E2E2E2E2E2E2E2E2E2E2E2E2E2E2E2E2E2E2E2E2E2E2E2E2E2E2E2E2E2E2E2E2E2E2E2E2E2E2E2E2E2E2E2E2E2E2E2F5E2F5
310
F5E2F5F5F5F5F5F5F5F5F5F5F5F5F5F5F5F5F5F5F5F5F5F5E2F5F5F5F5F5F5E2E2E2E2F5E2E2E2E2F5F5E2F5E2F5E2F5F5F5E2E2F5F5F5E2F5F5F5F5F5F5E2F5F5F5F5F5F5F5F5F5F5F5F5F5F5F5F5E2E2F5F5F5F5E2E2E2F5F5F5F5F5F5F5E2F5F5F5F5F5F5F5F5E2F5E2F5F5F5F5F5E2F5F5F5F5F5E2F5E2F5F5F5F5F5F5
310
F5E2F5F5F5F5F5F5F5E2F5E2F5F5F5F5F5E2F5F5F5F5F5E2F5E2F5F5F5F5F5F5F5E2F5F5F5F5F5F5F5E2F5E2F5F5F5F5F5E2F5E2F5F5E2F5F5F5F5F5F5F5F5F5F5F5F5F5F5F5F5F5F5F5F5F5F5E2F5F5F5F5F5F5E2E2E2E2F5E2E2E2E2F5F5E2F5E2F5F5F5F5F5E2E2F5F5F5E2F5F5F5F5F5F5E2F5F5F5F5F5F5F5F5F5F5F5
310
F5F5F5F5F5E2E2E2E2E2E2E2E2E2E2E2E2E2E2E2E2E2E2E2E2E2E2E2E2E2E2E2E2E2E2E2E2E2E2E2E2E2E2E2E2E2E2E2E2E2E2E2E2E2E2E2E2E2E2E2E2E2E2E2E2E2E2E2E2E2E2E2E2E2E2E2E2E2E2E2E2E2E2E2E2E2E2E2E2E2E2E2E2E2E2E2E2E2E2E2E2E2E2E2E2F5F5E2F5F5F5F5F5F5F5F5F5F5F5F5F5F5F5F5F5F5F5
310
F5F5F5E2F5F5F5F5F5F5E2E2E2E2F5E2E2E2E2F5F5E2F5E2F5F5F5F5F5E2E2F5F5F5E2F5F5F5F5F5F5E2F5F5F5F5F5F5F5F5F5F5F5F5F5F5F5E2E2E2E2E2E2F5F5E2E2F5F5F5F5F5F5E2E2F5F5F5F5F5F5E2E2E2F5F5F5F5E2E2E2E2F5E2E2F5F5E2E2E2F5F5F5F5F5E2E2E2F5F5F5F5F5F5E2E2F5F5F5F5E2E2E2E2F5E2E2
310
F5F5F5E2E2F5F5F5F5F5E2E2E2F5F5F5F5F5F5E2E2F5F5F5F5E2E2E2E2F5E2F5E2E2F5E2E2E2F5F5F5F5F5F5F5F5F5F5F5F5F5F5F5F5F5F5E2F5F5F5F5F5F5E2E2E2E2F5E2E2E2E2F5F5E2F5E2F5F5F5F5F5E2E2F5F5F5E2F5F5F5F5F5F5E2F5F5F5F5F5F5F5F5E2E2E2E2E2E2E2E2E2E2E2E2E2E2E2E2E2E2E2E2E2E2E2E2
310
E2E2E2E2E2E2E2E2E2E2E2E2E2E2E2E2E2E2E2E2E2E2E2E2E2E2E2E2E2E2E2E2E2E2E2E2E2E2E2E2E2E2E2E2E2E2E2E2E2E2E2E2E2E2E2E2E2E2E2E2E2E2E2E2E2E2E2E2E2E2E2E2E2E2E2E2E2E2E2E2E2E2E2E2E2E2E2E2E2E2E2E2E2E2E2E2E2E2E2F5F5F5F5F5F5F5F5F5F5E2F5F5F5F5F5F5F5F5F5F5F5E2E2E2E2F5F5
310
E2F5E2F5F5F5F5F5E2E2F5F5F5E2F5F5F5F5F5F5E2F5F5F5F5F5F5F5F5F5F5F5F5F5F5F5F5E2E2E2E2E2F5F5F5E2F5E2E2E2E2E2F5E2F5F5F5F5F5F5F5F5E2F5F5F5F5F5E2E2E2E2E2E2E2E2F5F5E2F5F5F5F5F5F5F5E2F5F5F5F5F5F5F5E2F5E2E2E2E2E2E2E2E2E2F5F5F5F5F5E2F5F5F5F5F5F5F5E2F5E2E2E2E2E2F5E2
310
F5F5F5F5E2E2E2E2F5E2F5E2E2F5E2E2E2F5F5F5F5F5F5F5F5F5F5F5F5F5F5F5F5F5F5E2F5F5F5F5F5F5F5F5F5F5F5E2E2E2E2F5F5E2F5E2F5F5F5F5F5E2E2F5F5F5E2F5F5F5F5F5F5E2F5F5F5F5F5F5F5F5F5F5F5F5F5F5F5F5E2E2E2E2E2E2E2E2E2E2E2E2E2E2E2E2E2E2E2E2E2E2E2E2E2E2E2E2E2E2E2E2E2E2E2E2E2
310
E2E2E2E2E2E2E2E2E2E2E2E2E2E2E2E2E2E2E2E2E2E2E2E2E2E2E2E2E2E2E2E2E2E2E2E2E2E2E2E2E2E2E2E2E2E2E2E2E2E2E2E2E2E2E2E2E2E2E2E2E2F5E2F5E2E2F5F5E2F5F5F5F5F5F5F5F5F5F5F5F5F5F5F5F5F5F5F5E2F5F5F5F5F5F5F5F5F5F5F5E2E2E2E2F5F5E2F5E2F5F5F5F5F5E2E2F5F5F5E2F5F5F5F5F5F5E2
310
F5F5F5F5F5F5F5F5F5F5F5F5F5F5F5F5E2E2F5F5F5E2E2F5E2F5F5F5F5F5F5F5E2F5F5F5F5F5F5F5F5E2F5E2E2F5F5E2E2E2F5F5F5E2E2F5F5E2F5F5F5F5F5F5F5E2F5F5F5F5F5F5F5E2F5F5E2E2F5E2E2E2F5F5F5F5E2E2F5E2F5F5F5F5F5F5F5E2F5F5F5F5F5F5F5E2F5F5E2E2F5F5F5E2F5E2F5F5E2F5F5F5F5F5F5F5F5
310
F5F5F5F5F5F5F5F5F5F5F5F5F5F5E2F5F5F5F5F5F5F5F5F5F5F5E2E2E2E2F5F5E2F5E2F5F5F5F5F5E2E2F5F5F5E2F5F5F5F5F5F5E2F5F5F5F5F5F5F5F5F5F5F5F5F5F5F5F5E2F5F5F5F5F5F5E2E2F5F5F5F5F5F5F5E2F5F5F5F5F5F5F5F5E2E2F5F5F5F5E2E2E2F5F5F5F5F5E2E2E2F5F5F5F5F5F5F5E2F5F5F5F5F5F5F5E2
310
E2E2F5F5F5E2E2E2F5F5F5F5F5F5E2E2F5F5F5F5F5F5F5E2F5F5F5F5F5F5F5E2E2E2F5F5F5F5F5E2F5E2F5F5E2F5F5F5F5F5F5F5F5F5F5F5F5F5F5F5F5F5F5F5F5F5F5E2F5F5F5F5F5F5F5F5F5F5F5E2E2E2E2F5F5E2F5E2F5F5F5F5F5E2E2F5F5F5E2F5F5F5F5F5F5E2F5F5F5F5F5F5F5F5F5F5F5F5F5F5F5F5E2E2E2E2E2
310
E2E2E2E2E2E2E2E2E2E2E2E2E2E2E2E2E2E2E2E2E2E2E2E2E2E2E2E2E2E2E2E2E2E2E2E2E2E2E2E2E2E2E2E2E2E2E2E2E2E2E2E2E2E2E2E2E2E2E2E2E2E2E2E2E2E2E2E2E2E2E2E2E2E2E2E2E2E2E2E2E2E2E2E2E2E2E2E2E2E2E2E2E2F5E2E2F5E2F5F5F5F5F5F5F5F5F5F5F5F5F5F5F5F5F5F5F5F5F5F5E2F5F5F5F5F5F5
310
F5F5F5F5F5E2E2E2E2F5F5E2F5E2F5E2F5F5F5E2E2F5F5F5E2F5F5F5F5F5F5E2F5F5F5F5F5F5F5F5F5F5F5F5F5F5F5F5E2F5F5F5F5F5F5F5E2F5E2E2F5F5F5F5E2F5F5F5F5F5E2E2F5E2F5F5F5F5F5E2E2E2F5F5F5F5F5F5F5E2F5E2E2F5F5F5F5E2F5F5F5F5E2E2F5E2F5F5F5F5F5E2E2E2F5F5F5F5F5F5F5E2F5E2E2F5F5
310
F5F5E2F5F5F5F5E2E2F5E2F5F5F5F5F5F5F5E2F5E2F5F5E2F5F5F5F5F5F5F5F5F5F5F5F5F5F5F5F5F5F5F5F5F5F5E2F5F5F5F5F5F5F5F5F5F5F5E2E2E2E2F5F5E2F5E2F5E2F5F5F5E2E2F5F5F5E2F5F5F5F5F5F5E2F5F5F5F5F5F5F5F5F5F5F5F5F5F5F5F5E2E2E2E2E2E2E2E2E2E2E2E2E2E2E2E2E2E2E2E2E2E2E2E2E2E2
310
E2E2E2E2E2E2E2E2E2E2E2E2E2E2E2E2E2E2E2E2E2E2E2E2E2E2E2E2E2E2E2E2E2E2E2E2E2E2E2E2E2E2E2E2E2E2E2E2E2E2E2E2E2E2E2E2E2E2E2E2E2E2E2E2E2E2E2E2E2E2E2E2F5F5F5F5E2F5F5F5F5F5F5F5F5F5F5F5F5F5F5F5F5F5F5F5F5F5F5E2F5F5F5F5F5F5F5F5F5F5F5E2E2E2E2F5F5E2F5E2F5E2F5F5F5E2E2
310
F5F5F5E2F5F5F5F5F5F5E2F5F5F5F5F5F5F5F5F5F5F5F5F5F5F5F5E2F5F5F5F5F5F5F5E2F5F5F5F5F5E2E2E2F5E2E2F5F5F5F5F5E2F5F5F5F5F5F5F5E2F5F5F5F5F5F5F5E2F5F5F5F5F5E2F5E2E2E2F5F5F5F5F5E2F5F5F5F5F5F5F5E2F5F5F5F5F5F5F5E2F5F5F5F5F5E2F5E2E2E2F5F5F5F5F5E2F5F5F5F5F5F5F5E2F5F5
310
F5F5E2F5F5F5F5F5F5F5F5F5F5F5F5F5F5F5F5F5F5F5F5F5F5E2F5F5F5F5F5F5F5F5F5F5F5E2E2E2E2F5F5E2F5E2F5E2F5F5F5E2E2F5F5F5E2F5F5F5F5F5F5E2F5F5F5F5F5F5F5F5F5F5F5F5F5F5F5F5E2E2E2E2E2E2E2E2E2E2E2E2E2E2E2E2E2E2E2E2E2E2E2E2E2E2E2E2E2E2E2E2E2E2E2E2E2E2E2E2E2E2E2E2E2E2E2
310
E2E2E2E2E2E2E2E2E2E2E2E2E2E2E2E2E2E2E2E2E2E2E2E2E2E2E2E2E2E2E2E2E2E2E2E2E2E2E2E2E2E2E2E2E2E2E2E2E2E2E2F5F5F5F5E2F5F5F5F5F5F5F5F5F5F5F5F5F5F5F5F5F5F5F5F5F5F5E2F5F5F5F5F5F5F5F5F5F5F5F5F5F5F5F5F5E2F5E2F5E2F5F5F5E2E2F5F5F5E2F5F5F5F5F5F5E2F5F5F5F5F5F5F5F5F5F5
310
F5F5F5F5F5F5E2F5F5F5F5F5F5F5E2F5F5F5F5F5F5E2E2F5E2F5F5F5F5F5F5E2F5F5F5F5F5F5F5E2F5F5F5F5F5F5F5E2F5F5F5F5F5E2F5E2E2F5F5F5F5F5F5E2F5F5F5F5F5F5F5E2F5F5F5F5F5F5F5E2F5F5F5F5F5F5E2E2E2F5F5F5F5F5F5E2F5F5F5F5F5F5F5E2F5F5F5F5E2F5F5F5F5F5F5F5F5F5F5F5F5F5F5F5F5F5F5
310
F5F5F5F5E2F5F5F5F5F5F5F5F5F5F5F5E2E2E2E2F5F5E2F5E2F5E2F5F5F5E2E2F5F5F5E2F5F5F5F5F5F5E2F5F5F5F5F5F5F5F5F5F5F5F5F5F5F5F5E2E2E2E2E2E2E2E2E2E2E2E2E2E2E2E2E2E2E2E2E2E2E2E2E2E2E2E2E2E2E2E2E2E2E2E2E2E2E2E2E2E2E2E2E2E2E2E2E2E2E2E2E2E2E2E2E2E2E2E2E2E2E2E2E2E2E2E2
310
E2E2E2E2E2E2E2E2E2E2E2E2E2E2E2E2E2E2E2E2E2E2E2E2E2E2E2E2E2E2F5F5F5F5E2F5F5F5F5F5F5F5F5F5F5F5F5F5F5F5F5F5F5F5F5F5F5E2F5F5F5F5F5F5F5F5F5F5F5E2E2E2E2F5F5E2F5E2F5E2F5F5F5E2E2F5F5F5E2F5F5F5F5F5F5E2F5F5F5F5F5F5F5F5F5F5F5F5F5F5F5F5E2F5F5F5F5F5F5F5E2F5F5E2E2F5F5
310
F5E2F5F5F5F5E2E2F5F5E2F5F5F5F5F5F5F5E2F5F5F5F5F5F5F5E2F5E2E2F5F5F5F5E2F5F5F5E2E2F5F5E2F5F5F5F5F5F5F5E2F5F5F5F5F5F5F5E2F5F5E2E2F5F5F5E2F5F5F5E2E2F5F5E2F5F5F5F5F5F5F5E2F5F5F5F5E2F5F5F5F5F5F5F5F5F5F5F5F5F5F5F5F5F5F5F5F5F5F5E2F5F5F5F5F5F5F5F5F5F5F5E2E2E2E2F5
310
F5E2F5E2F5E2F5F5F5E2E2F5F5F5E2F5F5F5F5F5F5E2F5F5F5F5F5F5F5F5F5F5F5F5F5F5F5F5E2F5F5F5F5F5F5F5E2E2E2F5F5F5F5F5E2F5F5F5F5F5F5E2E2E2F5F5F5F5F5F5F5E2F5F5F5F5F5F5F5E2E2F5F5F5F5F5F5E2F5F5F5F5F5E2E2E2F5F5F5F5F5F5F5E2F5F5F5F5F5F5F5E2E2E2F5F5F5F5F5E2F5F5F5F5F5E2E2
310
E2F5F5F5F5F5F5F5E2F5F5F5F5E2F5F5F5F5F5F5F5F5F5F5F5F5F5F5F5F5F5F5F5F5F5F5E2F5F5F5F5F5F5F5F5F5F5F5F5F5F5F5F5F5E2F5E2F5E2F5F5F5E2E2F5F5F5E2F5F5F5F5F5F5E2F5F5F5F5F5F5F5F5F5F5F5F5F5F5F5F5E2E2E2E2E2E2E2E2E2E2E2E2E2E2E2E2E2E2E2E2E2E2E2E2E2E2E2E2E2E2E2E2E2E2E2E2
310
E2E2E2E2E2E2E2E2E2E2E2E2E2E2E2E2E2E2E2E2E2E2E2E2E2E2E2E2E2E2E2E2E2E2E2E2E2E2E2E2E2E2E2E2E2E2E2E2E2E2E2E2E2E2E2E2E2E2E2E2E2E2F5F5F5F5E2F5F5F5F5F5F5F5F5F5F5F5F5F5F5F5F5F5F5F5F5F5F5E2F5F5F5F5F5F5F5F5F5F5F5F5F5F5F5F5F5E2F5E2F5E2F5F5F5E2E2F5F5F5E2F5F5F5F5F5F5
310
E2F5F5F5F5F5F5F5F5F5F5F5F5F5F5F5F5E2F5F5F5F5E2E2F5E2F5F5F5F5F5F5F5E2F5F5F5F5F5F5F5F5E2E2E2F5F5E2E2E2E2F5F5F5F5F5E2F5E2F5F5F5F5F5F5F5E2F5F5F5F5F5F5F5E2F5E2F5F5E2E2E2E2E2E2E2F5F5E2F5E2F5F5F5F5F5F5F5E2F5F5F5F5F5F5F5E2F5F5E2E2F5F5F5E2F5F5F5F5E2F5F5F5F5F5F5F5
310
F5F5F5F5F5F5F5F5F5F5F5F5F5F5F5E2E2E2E2E2E2E2E2E2E2E2E2E2E2E2E2E2E2E2F5E2F5E2F5F5F5E2E2F5F5F5E2F5F5F5F5F5F5E2F5F5F5F5F5F5F5F5F5F5F5F5F5F5F5F5E2E2E2E2E2E2E2E2E2E2E2E2E2E2E2E2E2E2E2E2E2E2E2E2E2E2E2E2E2E2E2E2E2E2E2E2E2E2E2E2E2E2E2E2E2E2E2E2E2E2E2E2E2E2E2E2E2
310
E2E2E2E2E2E2E2E2E2E2E2E2E2E2E2E2E2E2E2E2E2E2E2E2E2E2E2E2E2E2E2E2E2E2E2E2E2E2E2E2E2F5F5F5F5E2F5F5F5F5F5F5F5F5F5F5F5F5F5F5F5F5F5F5F5F5F5F5E2F5E2E2E2E2E2E2E2E2E2E2E2E2F5F5F5F5E2F5E2F5E2F5F5F5E2E2F5F5F5E2F5F5F5F5F5F5E2F5F5F5F5F5F5F5F5F5F5F5F5F5F5F5F5F5E2E2E2
310
E2E2E2E2E2F5F5F5F5F5F5F5E2F5F5F5F5F5F5F5F5E2F5F5E2E2E2E2E2E2F5E2E2F5F5F5F5E2F5F5F5F5E2E2E2E2E2E2F5F5F5F5F5E2F5F5F5E2E2E2E2E2E2E2E2E2F5F5F5E2F5F5F5F5F5F5F5E2F5F5F5F5F5F5F5E2E2E2E2E2E2E2E2E2F5F5F5F5E2F5F5F5F5F5F5F5F5F5F5F5F5F5F5F5F5F5F5F5F5F5F5E2F5E2E2E2E2
310
E2E2E2E2E2E2E2E2F5F5F5F5E2F5E2F5E2F5F5F5E2E2F5F5F5E2F5F5F5F5F5F5E2F5F5F5F5F5F5F5F5F5F5F5F5F5F5F5F5F5E2E2E2E2E2E2E2E2E2E2E2E2E2E2E2E2E2E2E2E2E2E2E2E2E2E2E2E2E2E2E2E2E2E2E2E2E2E2E2E2E2E2E2E2E2E2E2E2E2E2E2E2E2E2E2E2E2E2E2E2E2E2E2E2E2E2E2E2E2E2E2E2E2E2E2E2E2
310
E2E2E2E2E2E2E2E2E2E2E2E2E2E2E2E2E2E2E2E2E2E2E2E2E2E2F5F5F5F5F5F5F5F5F5F5F5F5F5F5F5F5F5F5F5F5F5E2F5F5F5F5F5F5F5F5F5F5F5F5F5F5F5F5F5E2F5E2F5E2F5F5F5E2E2F5F5F5E2F5F5F5F5F5F5E2F5F5F5F5F5F5F5F5F5F5F5F5F5F5F5F5F5F5F5F5F5F5F5F5F5F5F5F5F5F5F5F5F5F5F5F5F5F5F5F5F5
310
F5F5F5F5F5F5F5F5F5F5F5F5F5F5F5F5F5F5F5F5F5F5F5F5E2F5F5F5F5F5F5F5F5F5F5F5F5F5F5F5F5F5F5F5F5F5F5F5F5F5F5F5F5F5F5F5F5F5F5F5F5F5F5F5F5F5F5F5F5F5F5F5F5F5F5F5F5F5F5F5F5F5F5F5F5F5F5F5F5F5F5F5F5F5F5F5F5F5F5F5E2E2E2E2E2E2E2E2E2E2E2E2E2E2E2E2E2E2E2F5E2F5E2F5F5F5E2
310
E2F5F5F5E2F5F5F5F5F5F5E2F5F5F5F5F5F5F5F5F5F5F5F5F5F5F5F5F5F5F5F5F5F5F5F5F5F5F5F5F5F5F5F5F5F5F5F5F5F5F5F5F5F5F5F5F5F5F5F5F5F5F5F5F5F5F5F5F5F5F5F5F5F5F5F5F5E2F5F5F5F5F5F5F5F5F5F5F5F5F5F5F5F5F5F5F5F5F5F5F5F5F5F5F5F5F5F5F5F5F5F5F5F5F5F5F5F5F5F5F5F5F5F5F5F5F5
310
F5F5F5F5F5F5F5F5F5F5F5F5F5F5F5F5F5F5F5F5F5F5F5F5F5F5E2F5E2E2E2E2E2E2E2E2E2E2E2E2E2E2E2F5E2F5E2F5F5F5F5F5E2E2F5F5F5E2F5F5F5F5F5F5E2F5F5F5F5F5F5F5F5F5F5F5F5F5F5F5F5F5F5F5F5F5F5F5F5F5F5F5F5F5F5F5F5F5F5F5F5F5F5F5F5F5F5F5F5F5F5F5F5F5F5F5F5F5F5F5F5F5F5F5F5F5F5
310
F5F5F5E2F5F5F5F5F5F5F5F5F5F5F5F5F5F5F5F5F5F5F5F5F5F5F5F5F5F5F5F5F5F5F5F5F5F5F5F5F5F5F5F5F5F5F5F5F5F5F5F5F5F5F5F5F5F5F5F5F5F5F5F5F5F5F5F5F5F5F5F5F5F5F5F5F5F5F5E2F5E2E2E2E2E2E2E2E2E2E2E2E2E2E2E2F5E2F5E2F5F5F5F5F5E2E2F5F5F5E2F5F5F5F5F5F5E2F5F5F5F5F5F5F5F5F5
310
F5F5F5F5F5F5F5F5F5F5F5F5F5F5F5F5F5F5F5F5F5F5F5F5F5F5F5F5F5F5F5F5F5F5F5F5F5F5F5F5F5F5F5F5F5F5F5F5F5F5F5F5F5F5E2E2E2E2F5F5F5F5F5F5F5F5F5F5F5F5F5F5F5F5F5F5F5F5F5F5F5F5F5F5F5F5F5F5F5F5F5F5F5F5F5F5F5F5F5F5F5F5F5F5F5F5F5F5F5F5F5F5F5F5F5F5F5F5F5F5F5F5F5F5F5F5F5
310
F5F5F5F5F5E2F5F5F5F5F5F5F5F5F5F5F5F5F5F5F5F5F5E2F5E2F5F5F5F5F5E2E2F5F5F5E2F5F5F5F5F5F5E2F5F5F5F5F5F5F5F5F5F5F5F5F5F5F5F5F5F5F5F5F5F5F5F5F5F5F5F5F5F5F5F5F5F5F5F5F5F5F5F5F5F5F5F5F5F5F5F5F5F5F5F5F5F5F5F5F5F5F5F5F5F5F5E2E2E2E2F5F5F5F5F5F5F5F5F5F5F5F5F5F5F5F5
310
F5F5F5F5F5F5F5F5F5F5F5F5F5F5F5F5F5F5F5F5F5F5F5F5F5F5F5F5F5F5F5F5F5F5F5F5F5F5F5F5F5F5F5F5F5F5F5F5F5F5F5F5F5F5F5F5F5F5E2E2E2E2E2E2E2E2E2E2E2E2E2E2E2E2E2E2E2F5E2F5F5F5F5F5E2E2F5F5F5E2F5F5F5F5F5F5E2F5F5F5F5F5F5F5F5F5F5F5F5F5F5F5F5F5F5F5F5F5F5F5F5F5F5F5F5F5F5
310
F5F5F5F5F5F5F5F5F5F5F5F5F5F5F5F5F5F5F5F5F5F5F5F5F5F5F5F5F5F5F5F5F5F5E2E2E2F5F5F5F5F5F5F5F5F5F5F5F5F5F5F5F5F5F5F5F5F5F5F5F5F5F5F5F5F5F5F5F5F5F5F5F5F5F5F5F5F5F5F5F5F5F5F5F5F5F5F5F5F5F5F5F5F5F5F5F5F5F5F5F5F5F5F5F5F5F5F5F5F5F5F5F5F5F5F5F5F5F5F5F5F5F5F5F5F5F5
310
F5F5E2F5E2F5F5F5F5F5E2E2F5F5F5E2F5F5F5F5F5F5E2F5F5F5F5F5F5F5F5F5F5F5F5F5F5F5F5F5F5F5F5F5F5F5F5F5F5F5F5F5F5F5F5F5F5F5F5F5F5F5F5F5F5F5F5F5F5F5F5F5F5F5F5F5F5F5F5F5F5F5F5F5F5F5E2E2E2E2F5F5F5F5F5F5F5F5F5F5F5F5F5F5F5F5F5F5F5F5F5F5F5F5F5F5F5F5F5F5F5F5F5F5F5F5F5
310
F5F5F5F5F5F5F5F5F5F5F5F5F5F5F5F5F5F5F5F5F5F5F5F5F5F5F5F5F5F5F5F5F5F5F5F5F5F5F5F5F5F5F5F5F5F5F5F5F5F5F5F5F5F5F5E2F5E2F5F5F5F5F5E2E2F5F5F5E2F5F5F5F5F5F5E2F5F5F5F5F5F5F5F5F5F5F5F5F5F5F5F5F5F5F5F5F5F5F5F5F5F5F5F5F5F5F5F5F5F5F5F5F5F5F5F5F5F5F5F5F5F5F5F5F5F5F5
310
F5F5E2E2E2E2E2E2E2E2E2E2E2E2E2E2E2E2E2E2E2E2E2E2E2E2F5F5F5F5F5F5F5F5F5F5F5F5F5F5F5F5F5F5F5F5F5F5F5F5F5F5F5F5F5F5F5F5F5F5F5F5F5F5F5F5F5F5F5F5F5F5F5F5F5F5F5F5F5F5F5F5F5F5F5F5F5F5F5F5F5F5F5F5F5F5F5F5F5F5F5F5F5F5F5F5F5F5E2F5E2F5F5F5F5F5E2E2F5F5F5E2F5F5F5F5F5
310
F5E2F5F5F5F5F5F5F5F5F5F5F5F5F5F5F5F5E2E2E2E2E2E2E2F5F5F5F5F5F5F5F5F5F5F5F5F5F5F5F5F5F5F5F5F5F5F5F5F5F5F5F5F5F5F5F5F5E2E2E2E2E2E2F5E2E2E2E2E2E2F5E2E2E2E2E2F5F5F5F5F5F5F5F5F5F5F5F5F5F5F5F5F5F5F5F5F5F5F5F5F5F5F5F5F5F5F5F5E2E2E2E2E2E2E2F5F5F5F5F5F5F5F5F5F5F5
310
F5F5F5F5F5F5F5F5F5F5F5F5F5F5F5F5F5F5F5F5F5F5F5F5F5F5F5F5F5F5F5F5F5F5E2F5E2F5F5F5F5F5E2E2F5F5F5E2F5F5F5F5F5F5E2F5F5F5F5F5F5F5F5F5F5F5F5F5F5F5E2E2E2E2E2E2E2E2F5F5F5F5F5F5F5F5F5F5F5F5F5F5F5F5F5F5F5F5F5F5F5F5F5F5F5F5F5F5F5F5F5E2E2E2E2E2E2E2E2E2E2E2E2E2E2E2E2
310
E2E2E2F5F5F5F5F5F5F5F5F5F5F5F5F5F5F5F5F5F5F5F5F5F5F5F5F5F5F5F5F5F5F5F5E2E2E2E2E2E2E2F5F5E2F5F5F5F5F5F5F5F5F5F5F5F5F5F5F5F5F5F5F5F5F5F5F5F5F5F5F5F5F5F5F5F5F5F5F5F5F5F5F5F5F5F5E2F5E2F5F5F5F5F5E2E2F5F5F5E2F5F5F5F5F5F5E2F5F5F5F5F5F5F5F5F5F5F5F5F5F5E2E2E2E2E2
310
E2E2E2E2F5E2E2F5F5F5F5F5F5E2E2F5F5F5F5F5F5E2E2F5F5F5F5F5F5E2E2F5F5F5F5F5F5E2E2F5F5F5F5F5F5E2E2F5F5F5F5F5F5F5E2F5F5F5F5F5F5F5E2F5F5F5F5F5F5F5E2F5F5F5F5F5F5F5E2E2F5F5F5F5F5F5E2E2E2F5E2E2E2F5E2E2F5E2F5F5F5F5F5F5F5F5F5F5F5F5F5F5F5F5F5F5F5F5F5F5F5F5F5F5F5F5F5
310
F5F5F5F5F5F5F5F5F5F5F5F5F5E2F5E2F5E2F5F5F5E2E2F5F5F5E2F5F5F5F5F5F5E2F5F5F5F5F5F5F5F5E2E2E2E2E2E2E2E2E2E2E2E2E2E2E2E2E2E2E2E2E2E2E2E2E2E2E2E2E2E2E2E2E2E2E2E2E2E2E2E2E2E2E2E2E2E2E2E2E2E2E2E2E2E2E2E2E2E2E2E2E2E2E2E2E2E2E2E2E2E2E2E2E2E2E2E2E2E2E2E2E2E2E2E2E2
310
E2E2E2E2E2E2E2E2E2E2E2E2E2E2E2E2E2E2E2E2E2E2E2E2E2E2E2E2E2E2E2E2E2E2E2E2E2E2F5F5F5F5F5F5F5F5F5F5F5F5F5F5F5F5F5F5F5F5F5F5F5F5F5F5F5F5E2F5E2F5E2F5F5F5E2E2F5F5F5E2F5F5F5F5F5F5E2F5F5F5F5F5F5F5F5F5F5F5F5F5E2E2E2E2F5F5F5E2E2F5E2E2E2E2E2E2E2E2E2E2E2E2E2E2E2E2E2
310
E2E2E2E2E2E2E2E2E2E2E2E2E2E2E2E2E2E2E2E2E2E2E2E2E2E2E2E2E2E2E2E2E2E2E2E2E2E2E2E2E2E2E2E2E2E2E2E2E2E2E2E2E2E2E2E2E2E2E2E2E2E2E2E2E2E2E2E2E2E2F5F5F5E2F5E2E2F5E2F5F5F5F5F5F5F5E2E2E2F5F5F5F5F5F5F5F5F5F5F5F5F5F5F5F5F5F5F5F5F5F5F5F5F5F5F5F5F5F5E2F5E2F5E2F5F5F5
310
E2E2F5F5F5E2F5F5F5F5F5F5E2F5F5F5F5F5F5F5F5F5F5F5F5F5E2E2E2E2F5E2E2E2E2E2E2E2F5F5F5E2E2E2F5E2F5F5F5F5F5F5E2E2E2E2E2E2E2F5F5F5E2F5F5E2E2E2E2E2E2E2F5F5F5F5F5F5E2F5F5F5F5F5F5E2E2E2E2E2E2E2F5F5E2F5F5F5E2E2E2E2E2E2F5F5F5F5F5F5E2F5F5F5E2E2F5F5E2F5E2E2E2E2E2F5E2
310
F5E2E2F5E2F5F5F5F5F5F5F5E2E2E2F5F5F5F5F5F5F5F5F5F5F5F5F5F5F5F5F5F5F5F5F5F5F5F5F5F5F5F5F5F5E2F5E2F5E2F5F5F5E2E2F5F5F5E2F5F5F5F5F5F5E2F5F5F5F5F5F5F5F5E2E2E2E2E2E2E2E2E2E2E2E2E2E2E2E2E2E2E2E2E2E2E2E2E2E2E2E2E2E2E2E2E2E2E2E2E2E2E2E2E2E2E2E2E2E2E2E2E2E2E2E2E2
310
E2E2E2E2E2E2E2E2E2E2E2E2E2E2E2E2E2E2E2E2E2E2E2E2E2E2E2E2E2E2E2E2E2E2E2E2E2E2E2E2E2E2E2E2E2E2E2E2E2E2E2E2E2E2E2E2E2E2E2E2E2E2E2E2E2E2E2E2E2E2F5F5F5F5F5F5F5F5F5F5F5F5F5F5F5F5F5F5F5F5F5F5F5F5F5F5F5F5E2F5E2F5E2F5F5F5E2E2F5F5F5E2F5F5F5F5F5F5E2F5F5F5F5F5F5F5F5
310
F5F5F5F5F5F5E2E2E2E2E2E2E2E2E2E2E2E2E2E2E2E2E2E2E2E2E2E2E2E2E2E2E2E2E2E2E2E2E2E2E2E2E2E2E2E2E2E2E2E2E2E2E2E2E2E2E2E2E2E2E2E2E2E2E2E2E2E2E2E2E2E2E2E2E2E2E2E2E2E2E2E2E2E2E2E2E2E2E2E2E2E2E2E2E2E2E2E2E2E2E2E2E2E2E2E2F5F5E2E2E2F5F5F5F5F5F5F5F5F5F5F5F5F5F5F5F5
310
F5F5F5F5F5F5F5F5F5F5F5F5F5F5F5F5F5F5F5F5F5F5F5F5E2F5E2F5E2F5F5F5E2E2F5F5F5E2F5F5F5F5F5F5E2F5F5F5F5F5F5F5F5F5F5F5F5F5F5F5E2E2E2E2F5F5F5F5F5E2F5F5F5F5E2E2E2E2E2E2E2E2E2F5F5F5E2F5F5F5F5F5F5F5E2F5F5F5F5F5F5F5E2F5F5F5E2E2E2E2E2E2E2E2E2F5F5F5E2F5F5F5F5F5F5F5E2
310
F5F5F5F5F5F5F5E2F5F5F5E2E2E2E2E2E2E2E2E2F5F5F5E2F5F5F5F5F5F5E2E2F5F5E2E2E2F5F5F5F5F5F5F5F5F5F5F5F5F5F5F5F5F5F5F5F5F5F5F5F5F5F5F5F5F5F5F5F5F5F5F5F5F5F5F5F5E2F5E2F5E2F5F5F5E2E2F5F5F5E2F5F5F5F5F5F5E2F5F5F5F5F5F5F5F5F5F5F5F5F5F5F5F5E2E2E2E2E2E2E2E2E2E2E2E2E2
310
E2E2E2E2E2E2E2E2E2E2E2E2E2E2E2E2E2E2E2E2E2E2E2E2E2E2E2E2E2E2E2E2E2E2E2E2E2E2E2E2E2E2E2E2E2E2E2E2E2E2E2E2E2E2E2E2E2E2E2E2E2E2E2E2E2E2E2E2E2E2E2E2E2E2E2E2E2E2E2E2E2E2E2E2E2F5F5F5E2E2F5F5F5F5F5F5F5F5F5F5F5F5F5F5F5F5F5F5F5F5F5F5F5F5F5F5F5F5F5F5F5F5F5F5F5F5F5
310
F5F5F5E2F5E2F5E2F5F5F5E2E2F5F5F5E2F5F5F5F5F5F5E2F5F5F5F5F5F5F5F5F5F5F5F5F5F5F5F5E2E2E2E2E2E2E2E2E2E2E2E2E2E2E2E2E2E2E2E2E2E2E2E2E2E2E2E2E2E2E2E2E2E2E2E2E2E2E2E2E2E2E2E2E2E2E2E2E2E2E2E2E2E2E2E2E2E2E2E2E2E2E2E2E2E2E2E2E2E2E2E2E2E2E2E2E2E2E2E2E2E2E2E2E2E2E2
310
E2E2E2E2E2E2E2E2E2E2E2F5F5F5F5E2F5F5F5F5F5F5F5F5F5F5F5F5F5F5F5F5F5F5F5F5F5F5F5F5F5F5F5F5F5F5F5F5F5F5F5F5F5F5F5F5E2F5E2F5E2F5F5F5E2E2F5F5F5E2F5F5F5F5F5F5E2F5F5F5F5F5F5F5F5F5F5F5F5F5F5F5F5E2E2E2E2E2E2E2E2E2E2E2E2E2E2E2E2E2E2E2E2E2E2E2E2E2E2E2E2E2E2E2E2E2E2
310
E2E2E2E2E2E2E2E2E2E2E2E2E2E2E2E2E2E2E2E2E2E2E2E2E2E2E2E2E2E2E2E2E2E2E2E2E2E2E2E2E2E2E2E2E2E2E2E2E2E2E2E2E2E2E2E2E2E2E2E2E2E2E2E2E2E2E2E2E2E2F5F5F5F5F5F5F5F5F5F5F5F5F5F5F5F5F5F5F5F5F5F5F5F5F5F5F5F5F5F5F5F5F5F5F5F5F5F5F5E2F5E2F5E2F5F5F5E2E2F5F5F5E2F5F5F5F5
310
F5F5E2F5F5F5F5F5F5F5F5F5F5F5F5F5F5F5F5E2E2E2E2E2E2E2E2E2E2E2E2E2E2E2E2E2E2E2E2E2E2E2E2E2E2E2E2E2E2E2E2E2E2E2E2E2E2E2E2E2E2E2E2E2E2E2E2E2E2E2E2E2E2E2E2E2E2E2E2E2E2E2E2E2E2E2E2E2E2E2E2E2E2E2E2E2E2E2E2E2E2E2E2E2E2E2E2E2E2E2E2E2E2E2E2E2E2E2E2E2E2E2E2F5F5F5F5
310
F5F5F5F5F5F5F5F5F5F5F5F5F5F5F5F5F5F5F5F5F5F5F5F5F5F5F5F5F5F5F5F5F5F5F5E2F5E2F5E2F5F5F5E2E2F5F5F5E2F5F5F5F5F5F5E2F5F5F5F5F5F5F5F5F5F5F5F5F5F5F5F5F5F5E2E2E2E2F5E2E2F5F5F5F5F5F5F5F5F5F5F5F5F5F5F5F5F5F5F5F5F5F5F5F5F5E2F5F5F5F5F5F5F5F5F5F5F5F5E2E2E2E2E2F5F5F5
310
F5F5F5F5F5F5F5F5F5F5E2E2F5F5F5F5F5F5F5F5F5F5F5F5F5F5F5F5F5F5F5F5F5F5F5E2E2E2E2E2E2E2F5F5F5E2E2E2F5F5F5F5F5F5F5F5F5F5F5F5F5F5F5F5F5F5F5F5F5F5F5F5F5F5F5F5F5F5F5F5F5F5F5F5F5F5F5F5E2F5E2F5E2F5F5F5E2E2F5F5F5E2F5F5F5F5F5F5E2F5F5F5F5F5F5F5F5F5F5F5F5F5F5F5F5F5F5
310
E2F5F5F5F5F5F5F5F5F5F5F5F5F5F5F5F5F5F5F5F5F5F5F5F5F5F5F5F5F5F5F5F5E2E2F5F5F5F5F5F5F5F5F5F5F5F5E2F5F5F5F5F5F5F5F5F5F5F5F5F5F5F5F5E2F5F5F5F5F5F5F5F5F5F5F5F5F5F5F5F5F5F5F5F5F5F5F5F5F5F5F5F5E2F5F5F5F5E2E2E2F5F5F5F5F5F5F5F5F5F5F5F5F5F5F5F5F5F5F5F5F5F5F5F5F5F5
310
F5F5F5F5F5F5F5F5F5F5F5F5F5F5E2F5E2F5E2F5F5F5E2E2F5F5F5E2F5F5F5F5F5F5E2F5F5F5F5F5F5F5F5F5F5F5F5F5F5F5F5F5F5F5F5F5F5F5F5F5F5F5F5F5F5F5F5F5F5F5F5F5F5F5F5F5F5F5F5F5F5F5F5F5F5F5F5F5E2E2E2E2E2E2E2E2F5F5F5F5E2F5F5F5F5F5F5F5F5F5F5F5F5F5F5F5F5F5E2F5F5F5F5F5F5F5F5
310
F5F5F5F5F5F5F5F5F5F5F5F5F5F5F5F5F5F5F5F5F5F5F5F5E2E2E2F5F5F5F5F5F5F5F5F5F5F5F5F5F5F5F5F5F5F5F5F5F5F5F5F5F5F5F5F5F5F5F5F5F5F5F5F5F5F5F5E2F5E2F5E2F5F5F5E2E2F5F5F5E2F5F5F5F5F5F5E2F5F5F5F5F5F5F5F5F5F5F5F5F5F5F5F5F5F5F5F5F5F5F5F5F5F5F5F5F5F5F5F5F5F5F5F5F5F5F5
310
F5F5F5F5F5F5F5F5F5F5F5F5F5F5E2E2E2E2E2E2E2E2F5F5F5F5E2F5F5F5F5F5F5F5F5F5F5F5F5F5F5F5F5F5F5E2E2E2E2E2E2E2E2E2F5F5F5F5F5F5F5F5F5F5F5F5F5F5F5F5F5F5F5F5F5F5F5E2E2E2F5F5F5F5F5F5F5F5F5F5F5F5F5F5F5F5F5F5F5F5F5F5F5F5F5F5F5F5F5F5F5F5F5F5F5F5F5F5F5F5E2F5E2F5E2F5F5
310
F5E2E2F5F5F5E2F5F5F5F5F5F5E2F5F5F5F5F5F5F5F5F5F5F5F5F5F5F5F5F5F5F5F5F5F5F5F5F5F5F5F5F5F5F5F5F5F5F5F5F5F5F5F5F5F5F5F5F5F5F5F5F5F5F5F5F5F5F5F5F5F5F5F5F5F5F5F5F5E2F5F5F5F5F5F5F5F5F5F5F5F5F5F5F5F5F5F5F5F5F5F5F5F5F5F5F5F5F5F5F5F5F5F5F5F5F5F5F5F5F5F5F5F5F5F5F5
310
F5F5F5E2E2F5F5F5F5F5F5F5F5F5F5F5F5F5F5F5F5F5F5F5F5F5F5F5F5F5F5F5F5F5F5F5F5F5F5F5F5F5F5F5F5F5E2F5E2F5F5F5F5F5E2E2F5F5F5E2F5F5F5F5F5F5E2F5F5F5F5F5F5F5F5F5F5F5F5F5F5F5F5F5F5F5F5F5F5F5F5F5F5F5F5F5F5F5F5F5F5F5F5F5F5F5F5F5F5F5F5F5F5F5F5F5F5F5F5F5F5F5F5F5F5F5F5
310
F5F5F5F5F5E2F5F5F5F5F5F5F5F5F5F5F5F5F5F5F5F5F5F5F5F5F5F5F5F5F5F5F5F5F5F5F5F5F5F5F5F5F5F5F5F5F5F5F5F5F5F5F5F5F5F5E2E2F5F5F5F5F5F5F5F5F5F5F5F5F5F5F5F5F5F5F5F5F5F5F5F5F5F5F5F5F5F5F5F5F5F5F5F5F5F5F5F5F5E2F5E2F5F5F5F5F5E2E2F5F5F5E2F5F5F5F5F5F5E2F5F5F5F5F5F5F5
310
F5F5F5F5F5F5F5F5F5F5F5F5F5F5F5F5F5F5F5F5F5F5F5F5F5F5F5F5F5F5F5F5F5F5F5F5F5F5F5F5F5F5F5F5F5F5F5F5F5F5F5F5F5F5F5F5F5F5E2F5F5F5F5F5F5F5F5F5F5F5F5F5F5F5F5F5F5F5F5F5F5F5F5F5F5F5F5F5F5F5F5F5F5F5F5F5F5F5F5F5F5F5F5F5F5F5F5F5F5F5F5F5F5F5F5F5F5F5F5F5F5F5F5F5F5F5F5
310
F5F5F5F5F5F5F5F5F5F5F5F5F5F5F5F5F5F5F5F5F5F5F5F5F5E2F5E2F5F5F5F5F5E2E2F5F5F5E2F5F5F5F5F5F5E2F5F5F5F5F5F5F5F5F5F5F5F5F5F5F5F5F5F5F5F5F5F5F5F5F5F5F5F5F5F5F5F5F5F5F5F5F5F5F5F5F5F5F5F5F5F5F5F5F5F5F5F5F5F5F5F5F5F5F5F5F5F5F5F5F5F5F5F5F5F5F5F5F5F5F5F5F5F5F5F5F5
310
F5F5F5F5F5F5F5F5F5F5F5F5F5F5F5F5F5F5F5F5F5F5F5F5F5F5F5F5F5F5F5F5F5F5F5F5F5F5F5F5F5F5F5F5F5F5F5F5F5F5F5F5F5F5F5F5F5F5F5F5F5F5F5F5F5F5F5F5F5F5F5F5F5F5F5F5F5F5E2F5E2F5F5F5F5F5E2E2F5F5F5E2F5F5F5F5F5F5E2F5F5F5F5F5F5F5F5F5F5F5F5F5F5F5F5F5F5F5F5F5F5F5F5F5F5F5F5
310
F5F5F5F5F5F5F5F5F5F5F5F5F5F5F5F5F5F5F5E2F5F5F5F5F5F5F5F5F5F5F5F5F5F5F5F5F5E2F5F5F5F5F5F5F5F5F5F5F5F5F5F5F5F5F5E2F5F5F5F5F5F5F5F5F5F5F5F5F5F5F5F5F5F5F5F5F5F5F5F5F5F5F5F5F5F5F5F5F5F5F5F5F5F5F5F5F5F5F5F5F5F5F5F5F5F5F5F5F5F5F5F5F5F5F5F5F5F5F5F5F5F5F5F5F5F5F5
310
F5F5F5F5E2F5E2F5F5F5F5F5E2E2F5F5F5E2F5F5F5F5F5F5E2F5F5F5F5F5F5F5F5F5F5F5F5F5F5F5F5F5F5F5F5F5F5F5F5F5F5F5F5F5F5F5F5F5F5F5F5F5F5F5F5F5F5F5F5F5F5F5E2E2E2E2E2E2E2E2E2E2E2E2E2E2E2E2E2E2E2E2E2E2E2E2E2E2E2E2E2E2E2E2E2E2E2E2E2F5F5F5F5F5F5F5F5F5F5F5F5F5F5F5F5F5F5
310
F5F5F5F5F5F5F5F5F5F5F5F5F5F5F5F5F5F5F5F5F5F5F5F5F5F5F5F5F5F5F5F5F5F5F5F5F5F5F5F5F5F5F5F5F5F5F5F5F5F5F5F5F5F5F5F5F5E2F5E2F5F5F5F5F5E2E2F5F5F5E2F5F5F5F5F5F5E2F5F5F5F5F5F5F5F5F5F5F5F5F5F5F5F5F5F5F5F5F5F5F5F5F5F5F5F5F5F5F5F5F5F5F5F5F5F5F5F5F5F5F5F5F5F5F5E2F5
310
F5F5F5F5F5F5F5F5F5F5F5F5F5F5E2E2E2E2F5F5F5F5F5F5F5F5F5F5F5F5F5F5F5F5E2F5F5F5F5F5F5F5F5F5F5F5F5F5F5F5F5F5F5F5F5F5F5F5F5F5F5F5F5F5F5F5F5F5F5F5F5F5F5F5F5F5F5F5F5F5F5F5F5F5F5F5F5F5F5F5F5F5F5F5F5F5F5F5F5F5F5F5F5F5F5F5F5F5F5F5E2F5E2F5F5F5F5F5E2E2F5F5F5E2F5F5F5
310
F5F5F5E2F5F5F5F5F5F5F5F5F5F5F5F5F5F5F5F5F5F5F5F5F5F5F5F5F5F5F5F5F5F5F5F5F5F5F5F5F5F5F5F5F5F5F5F5F5F5F5E2F5F5F5F5E2E2E2E2E2E2E2E2F5F5F5F5F5E2F5F5F5F5F5F5F5F5F5F5F5F5F5F5F5F5F5E2F5F5F5F5F5F5F5F5F5F5F5F5F5F5F5F5F5F5F5F5F5F5F5F5F5F5F5F5F5F5F5F5F5F5F5F5F5F5F5
310
F5F5F5F5F5F5F5F5F5F5F5F5F5F5F5F5F5F5F5F5F5F5F5F5F5F5F5F5F5F5F5F5F5F5F5F5E2F5E2F5F5F5F5F5E2E2F5F5F5E2F5F5F5F5F5F5E2F5F5F5F5F5F5F5F5F5F5F5F5F5F5F5F5F5F5F5F5F5F5F5F5F5F5F5F5F5F5F5F5F5F5F5F5F5F5F5F5F5F5F5F5F5F5F5E2E2E2E2E2E2E2E2E2E2E2E2E2E2E2E2E2E2E2E2E2E2E2
310
E2E2E2E2E2E2E2E2E2E2E2E2E2E2F5F5F5F5F5F5F5F5F5F5F5F5F5F5F5F5F5F5F5F5F5F5F5F5F5F5F5F5F5F5F5F5F5F5F5F5F5F5F5F5F5F5F5F5F5F5F5F5F5F5F5F5F5F5F5F5F5F5F5F5F5F5F5F5F5F5F5F5F5F5F5F5F5F5F5E2F5E2F5E2F5F5F5E2E2F5F5F5E2F5F5F5F5F5F5E2F5F5F5F5F5F5F5F5F5F5F5F5F5F5F5F5F5
310
F5F5F5F5F5F5F5F5F5F5F5F5F5F5F5F5F5F5F5F5F5F5F5F5F5F5F5F5F5F5E2E2E2E2E2E2E2E2E2E2E2E2E2E2E2E2E2E2E2F5E2F5E2F5F5E2F5E2F5E2F5E2F5F5E2F5E2F5F5F5F5F5F5F5F5F5F5F5F5F5F5F5F5F5F5F5F5F5F5F5F5F5F5F5F5F5F5F5F5F5F5F5F5F5F5F5F5F5F5F5F5F5F5F5F5F5F5F5F5F5F5F5F5F5F5F5F5
310
F5F5F5F5F5F5F5F5F5F5F5F5F5F5F5E2F5E2F5E2F5F5F5E2E2F5F5F5E2F5F5F5F5F5F5E2F5F5F5F5F5F5F5F5F5F5F5F5F5F5F5F5F5F5F5F5F5F5F5F5F5F5F5F5F5F5F5F5F5F5F5F5F5F5F5F5F5F5F5F5F5F5F5E2E2F5F5F5F5F5F5E2E2F5F5F5F5F5F5E2E2E2E2E2F5E2F5F5E2F5E2F5E2F5E2F5F5E2E2E2F5F5F5F5F5F5F5
310
F5F5F5F5F5F5F5F5F5F5F5F5F5F5F5F5F5F5F5F5F5F5F5F5F5F5F5F5F5F5F5F5F5F5F5F5F5F5F5F5F5F5F5F5F5F5F5F5F5F5F5F5F5F5F5F5F5F5F5F5F5F5F5F5F5F5F5F5E2F5E2F5E2F5F5F5E2E2F5F5F5E2F5F5F5F5F5F5E2F5F5F5F5F5F5F5F5F5F5F5F5F5F5F5F5F5F5F5F5F5F5F5F5F5F5F5F5F5F5F5F5F5F5F5F5F5F5
310
F5F5F5F5F5F5F5F5F5E2E2F5F5F5F5F5F5E2E2F5F5F5F5F5F5E2E2E2F5E2F5E2F5F5E2F5E2F5E2F5E2F5F5E2F5E2F5F5F5F5F5F5F5F5F5F5F5F5F5F5F5F5F5F5F5F5F5F5F5F5F5F5F5F5F5F5F5F5F5F5F5F5F5F5F5F5F5F5F5F5F5F5F5F5F5F5F5F5F5F5F5F5F5F5F5F5F5F5F5F5F5F5F5F5F5F5F5F5F5F5F5E2F5E2F5E2F5
310
F5F5E2E2F5F5F5E2F5F5F5F5F5F5E2F5F5F5F5F5F5F5F5F5F5F5F5F5F5F5F5F5F5F5F5F5F5F5F5F5F5F5F5F5F5F5F5F5F5F5F5F5F5F5F5F5F5F5F5F5F5F5E2E2F5F5F5F5F5F5E2E2F5F5F5F5F5F5E2E2E2E2E2F5E2F5F5E2F5E2E2E2F5E2F5F5E2E2E2F5F5F5F5F5F5F5F5F5F5F5F5F5F5F5F5F5F5F5F5F5F5F5F5F5F5F5F5
310
F5F5F5F5F5F5F5F5F5F5F5F5F5F5F5F5F5F5F5F5F5F5F5F5F5F5F5F5F5F5F5F5F5F5F5F5F5F5F5F5F5F5F5F5F5F5F5E2F5E2F5E2F5F5F5E2E2F5F5F5E2F5F5F5F5F5F5E2F5F5F5F5F5F5F5F5F5F5F5F5F5F5F5F5F5F5F5F5F5F5F5F5F5F5F5F5F5F5F5F5F5F5F5F5F5F5F5F5F5F5F5F5F5F5F5E2E2F5F5F5F5F5F5E2E2F5F5
310
F5F5F5F5E2E2E2F5E2E2E2F5F5E2F5E2E2E2F5E2F5F5E2F5E2F5F5F5F5F5F5F5F5F5F5F5F5F5F5F5F5F5F5F5F5F5F5F5F5F5F5F5F5F5F5F5F5F5F5F5F5F5F5F5F5F5F5F5F5F5F5F5F5F5F5F5F5F5F5F5F5F5F5F5F5F5F5F5F5F5F5F5F5F5F5F5F5F5F5F5E2F5E2F5E2F5F5F5E2E2F5F5F5E2F5F5F5F5F5F5E2F5F5F5F5F5F5
310
F5F5F5F5F5F5F5F5F5F5F5F5F5F5F5F5F5F5F5F5F5F5F5F5F5F5F5F5F5F5F5F5F5F5F5F5F5F5F5F5F5E2E2F5F5F5F5F5F5E2E2F5F5F5F5F5F5E2E2E2E2E2E2E2F5F5E2F5E2F5E2F5E2F5F5E2E2E2F5F5F5F5F5F5F5F5F5F5F5F5F5F5F5F5F5F5F5F5F5F5F5F5F5F5F5F5F5F5F5F5F5F5F5F5F5F5F5F5F5F5F5F5F5F5F5F5F5
310
F5F5F5F5F5F5F5F5F5F5F5F5F5F5F5F5F5F5F5F5F5F5F5F5F5F5E2F5E2F5E2F5F5F5E2E2F5F5F5E2F5F5F5F5F5F5E2F5F5F5F5F5F5F5F5F5F5F5F5F5F5F5F5F5F5F5F5F5F5F5F5F5F5F5F5F5F5F5F5F5F5F5F5F5F5F5F5F5F5F5F5F5F5F5E2E2E2E2E2E2E2E2E2E2E2E2E2E2E2E2E2E2E2E2E2F5E2F5F5E2F5E2F5E2F5E2F5
310
F5E2E2E2F5F5F5F5F5F5F5F5F5F5F5F5F5F5F5F5F5F5F5F5F5F5F5F5F5F5F5F5F5F5F5F5F5F5F5F5F5F5F5F5F5F5F5F5F5F5F5F5F5F5F5F5F5F5F5F5F5F5F5F5F5F5F5F5F5F5F5F5F5F5F5F5F5F5F5E2F5E2F5E2F5F5F5E2E2F5F5F5E2F5F5F5F5F5F5E2F5F5F5F5F5F5F5F5F5F5F5F5F5F5F5F5F5F5F5F5F5F5F5F5F5F5F5
310
F5F5F5F5F5F5F5F5F5F5F5F5F5F5F5F5F5F5F5F5E2E2E2E2E2E2E2E2E2E2E2E2E2E2E2E2E2E2E2E2E2E2E2E2E2E2E2E2E2E2E2E2E2E2E2E2E2F5F5F5F5F5F5F5F5F5F5F5F5F5F5F5F5F5F5F5F5F5F5F5F5F5F5F5F5F5F5F5F5F5F5F5F5F5F5F5F5F5F5F5F5F5F5F5F5F5F5F5F5F5F5F5F5F5F5F5F5F5F5F5F5F5F5F5F5F5F5
310
F5F5F5F5F5E2F5E2F5E2F5F5F5E2E2F5F5F5E2F5F5F5F5F5F5E2F5F5F5F5F5F5F5F5F5F5F5F5F5F5F5F5F5F5F5F5F5F5F5F5F5F5F5F5F5F5F5F5F5F5F5F5F5F5F5F5F5F5F5F5F5F5F5E2E2F5F5F5E2E2E2E2E2E2E2E2F5F5F5F5F5E2F5F5F5F5F5F5F5F5F5F5F5F5F5F5F5E2E2F5F5F5F5F5F5F5F5F5F5F5F5F5F5F5F5F5F5
310
F5F5F5F5F5F5F5F5F5F5F5F5F5F5F5F5F5F5F5F5F5F5F5F5F5F5F5F5F5F5F5F5F5F5F5F5F5F5F5F5F5F5F5F5F5F5F5F5F5F5F5F5F5F5F5F5F5F5E2F5E2F5E2F5F5F5E2E2F5F5F5E2F5F5F5F5F5F5E2F5F5F5F5F5F5F5F5F5F5F5F5F5F5F5F5F5F5F5F5F5F5F5F5F5F5F5F5F5F5F5F5F5F5F5F5F5F5F5F5F5F5F5F5F5F5F5F5
310
E2F5F5F5E2E2E2E2E2E2E2E2F5F5F5F5F5E2F5F5F5F5F5F5F5F5F5F5F5F5F5F5F5E2E2F5F5F5F5F5F5F5F5F5F5F5F5F5F5F5F5F5F5F5F5F5F5F5F5F5F5F5F5F5F5F5F5F5F5F5F5F5F5F5F5F5F5F5F5F5F5F5F5F5F5F5F5F5F5F5F5F5F5F5F5F5F5F5F5F5F5F5F5F5F5F5F5F5F5F5F5E2F5E2F5E2F5F5F5E2E2F5F5F5E2F5F5
310
F5F5F5F5E2F5F5F5F5F5F5F5F5F5F5F5F5F5F5F5F5F5F5F5F5F5F5F5F5F5F5F5F5F5F5F5F5F5F5F5F5F5F5F5F5F5F5F5F5F5F5F5F5E2E2E2E2E2E2E2E2E2E2E2E2E2E2E2E2E2E2E2E2E2E2E2E2E2E2E2E2E2E2E2E2E2E2F5F5F5F5F5F5F5F5F5F5F5F5F5F5F5F5F5F5F5F5F5F5F5F5F5F5F5F5F5F5F5F5F5F5F5F5F5F5F5F5
310
F5F5F5F5F5F5F5F5F5F5F5E2E2E2E2E2F5F5F5F5F5F5F5F5E2E2E2E2F5F5F5F5F5F5F5F5F5E2F5E2F5E2F5F5F5E2E2F5F5F5E2F5F5F5F5F5F5E2F5F5F5F5F5F5F5F5F5F5F5F5F5F5F5F5F5F5F5F5F5F5F5F5F5F5F5F5F5F5F5F5F5F5F5F5F5F5F5F5F5F5F5F5F5F5F5F5E2F5F5F5F5F5F5F5F5F5F5F5F5F5F5E2E2E2E2F5F5
310
F5F5F5F5F5F5F5F5F5F5F5F5E2F5F5F5F5F5F5F5F5F5F5F5F5F5F5F5F5F5F5F5F5F5F5F5F5F5F5F5F5F5F5F5F5F5F5F5F5F5F5F5F5F5F5F5F5F5F5F5F5F5F5F5E2E2E2E2E2F5F5F5F5F5F5F5F5E2E2E2E2F5F5F5F5F5F5F5F5F5E2F5E2F5E2F5F5F5E2E2F5F5F5E2F5F5F5F5F5F5E2F5F5F5F5F5F5F5F5F5F5F5F5F5F5F5F5
310
F5F5F5F5F5F5F5F5F5F5F5F5F5F5F5F5F5F5F5F5F5F5F5F5F5F5F5F5F5F5F5F5F5F5F5F5F5F5F5F5F5F5F5F5F5F5F5F5F5E2F5F5F5F5F5F5F5F5F5F5F5F5F5F5F5F5F5F5F5F5F5F5F5F5F5F5F5F5F5F5F5F5F5F5F5F5F5F5F5F5F5F5F5F5F5F5F5F5F5F5F5F5F5F5F5F5F5F5F5F5F5F5F5F5F5F5F5E2E2E2E2E2F5E2E2E2E2
310
E2F5F5E2E2E2E2F5F5F5F5F5F5F5F5F5E2F5E2F5E2F5F5F5E2E2F5F5F5E2F5F5F5F5F5F5E2F5F5F5F5F5F5F5F5F5F5F5F5F5F5F5F5F5F5F5F5F5F5F5F5F5F5F5F5F5F5F5F5F5F5F5F5F5F5F5F5F5F5F5F5F5F5F5F5F5F5F5F5F5F5F5F5F5F5F5F5F5F5F5F5F5E2F5F5F5F5F5F5F5F5F5F5F5F5F5F5F5F5F5F5F5F5F5F5F5F5
310
F5F5F5F5F5F5F5F5F5F5F5F5F5F5F5F5F5F5F5F5F5F5F5F5F5F5F5F5F5F5F5F5F5F5F5F5F5F5F5F5F5F5F5E2E2E2E2E2E2E2E2E2E2E2E2F5E2E2E2E2F5F5F5F5F5F5F5F5F5E2F5E2F5E2F5F5F5E2E2F5F5F5E2F5F5F5F5F5F5E2F5F5F5F5F5F5F5F5F5F5F5F5F5F5F5F5F5F5F5F5F5F5F5F5F5F5F5F5F5F5F5F5F5F5F5F5F5
310
F5F5F5F5F5F5F5F5F5F5F5F5F5F5F5F5F5F5F5F5F5F5F5F5F5F5F5F5E2F5F5F5F5F5F5F5F5F5F5F5F5F5F5F5F5F5F5F5F5F5F5F5F5F5F5F5F5F5F5F5F5F5F5F5F5F5F5F5F5F5F5F5F5F5F5F5F5F5F5F5F5F5F5F5F5F5F5F5F5F5F5F5F5F5F5F5E2E2E2E2E2E2E2E2E2E2E2E2F5F5E2E2E2E2F5F5F5F5F5F5F5F5E2F5E2F5F5
310
F5F5F5E2E2F5F5F5E2F5F5F5F5F5F5E2F5F5F5F5F5F5F5F5F5F5F5F5F5F5F5F5F5F5F5F5F5F5F5F5F5F5F5F5F5F5F5F5F5F5F5F5F5F5F5F5F5F5F5F5F5F5F5F5F5F5F5F5F5F5F5F5F5F5F5F5F5F5F5F5F5E2F5F5F5F5F5F5F5F5F5F5F5F5F5F5F5F5F5F5F5F5F5F5F5F5F5F5F5F5F5F5F5F5F5F5F5F5F5F5F5F5F5F5F5F5F5
310
F5F5F5F5F5F5F5F5F5F5F5F5F5F5F5F5F5F5F5F5F5F5E2E2E2E2E2E2F5E2E2E2E2F5E2E2E2E2E2F5F5F5F5F5F5F5F5F5E2F5E2F5F5F5F5F5E2E2F5F5F5E2F5F5F5F5F5F5E2F5F5F5F5F5F5F5F5F5F5F5F5F5F5F5F5F5F5F5F5F5F5F5F5F5F5F5F5F5F5F5F5F5F5F5F5F5F5F5F5F5F5F5F5F5F5F5F5F5F5F5F5F5F5F5F5F5F5
310
F5F5F5F5F5F5F5E2F5F5F5F5F5F5F5F5F5F5F5F5F5F5F5F5F5F5F5F5F5F5F5F5F5F5F5F5F5F5F5F5F5F5F5F5F5F5F5F5F5F5F5F5F5F5F5F5F5F5F5F5F5F5F5F5F5F5F5F5F5F5F5F5F5F5F5E2E2E2E2E2E2F5E2E2E2E2F5E2E2E2E2E2F5F5F5F5F5F5F5F5F5E2F5E2F5F5F5F5F5E2E2F5F5F5E2F5F5F5F5F5F5E2F5F5F5F5F5
310
F5F5F5F5F5F5F5F5F5F5F5F5F5F5F5F5F5F5F5F5F5F5F5F5F5F5F5F5F5F5F5F5F5F5F5F5F5F5F5E2E2E2E2E2E2E2E2E2E2E2E2E2E2E2E2E2E2E2F5F5E2F5E2E2E2E2E2E2E2E2E2E2E2E2E2E2E2E2E2E2E2E2F5F5F5F5F5F5F5F5F5F5F5F5F5F5F5F5F5F5F5F5F5F5F5F5F5F5F5F5F5F5F5F5F5F5F5F5F5F5F5F5F5F5F5F5F5
310
F5F5F5F5F5F5F5F5F5F5F5F5F5F5F5F5F5F5F5F5F5F5F5F5F5F5F5E2F5E2F5F5F5F5F5E2E2F5F5F5E2F5F5F5F5F5F5E2F5F5F5F5F5F5F5F5F5F5F5F5F5F5F5F5F5F5F5F5F5F5F5F5F5F5F5F5F5F5F5F5F5F5F5F5F5F5F5F5F5F5F5F5F5E2E2E2E2E2E2F5E2E2E2E2E2E2E2E2E2F5F5F5F5E2F5F5E2E2E2E2E2E2E2E2E2E2E2
310
E2E2E2E2E2E2E2F5F5F5F5F5F5F5F5F5F5F5F5F5F5F5F5F5F5F5F5F5F5F5F5F5F5F5F5F5F5F5F5F5F5F5F5F5F5F5F5F5F5F5F5F5F5E2E2E2E2E2E2E2E2E2E2E2E2E2E2E2E2E2E2E2E2F5F5F5F5F5F5F5E2F5E2F5F5F5F5F5E2E2F5F5F5E2F5F5F5F5F5F5E2F5F5F5F5F5F5F5F5F5F5F5F5F5F5F5F5F5F5F5F5F5F5F5F5F5F5
310
F5F5F5F5F5F5F5F5F5F5F5F5F5F5F5F5F5F5F5F5F5F5F5F5F5F5F5F5F5F5F5F5F5F5F5F5F5F5F5F5F5F5F5F5F5F5F5F5F5F5F5F5F5F5F5F5F5F5F5F5F5F5F5F5F5F5F5F5F5F5F5F5F5F5F5F5F5F5F5F5F5F5F5F5F5F5F5F5F5F5F5F5F5F5F5F5F5F5F5F5F5F5F5F5F5F5F5E2E2E2E2E2E2E2E2F5E2E2E2E2E2E2E2E2E2E2F5
310
F5F5F5F5F5F5E2F5E2F5F5F5F5F5E2E2F5F5F5E2F5F5F5F5F5F5E2F5F5F5F5F5F5F5F5F5F5F5F5F5F5F5F5F5F5F5F5F5F5F5F5F5F5F5F5F5F5F5F5F5F5F5F5F5F5F5F5F5F5F5F5F5F5F5F5F5F5F5F5F5F5F5F5F5F5F5F5F5F5F5F5F5F5F5F5F5F5F5F5F5F5F5F5F5F5F5F5F5F5F5F5F5F5F5F5F5F5F5F5F5F5F5F5F5F5F5F5
310
F5F5F5F5F5F5F5F5F5F5F5F5F5F5F5F5F5F5F5F5F5F5F5F5F5F5F5F5F5F5F5F5F5F5F5F5F5F5F5F5F5F5F5F5F5F5F5F5F5F5F5F5F5F5F5F5F5F5F5E2F5E2F5F5F5F5F5E2E2F5F5F5E2F5F5F5F5F5F5E2F5F5F5F5F5F5F5F5F5F5F5F5F5F5F5F5F5F5F5F5F5F5F5F5F5F5F5F5F5F5F5F5F5F5F5F5F5F5F5F5F5F5F5F5F5F5F5
310
F5F5F5F5F5F5F5F5F5F5F5F5F5F5F5F5F5F5F5F5F5F5F5F5F5F5F5F5F5F5F5F5F5F5F5F5F5F5F5F5F5F5F5F5F5F5F5F5F5F5F5F5F5F5F5F5F5F5F5F5F5F5F5F5F5F5F5F5F5F5F5F5F5F5F5F5F5F5F5F5F5F5F5F5F5F5F5F5F5F5F5F5F5F5F5F5F5F5F5F5F5F5F5F5F5F5F5F5F5F5F5F5E2F5E2F5F5F5F5F5E2E2F5F5F5E2F5
310
F5F5F5F5F5E2F5F5F5F5F5F5F5F5F5F5F5F5F5F5F5F5F5F5F5F5F5F5F5F5F5F5F5F5F5F5F5F5F5F5F5F5F5F5F5F5F5F5F5F5F5F5F5F5F5F5F5F5F5F5F5F5F5F5F5F5F5F5F5F5F5F5F5F5F5F5F5F5F5F5F5F5F5F5F5F5F5F5F5F5F5F5F5F5F5F5F5F5F5F5F5F5F5F5F5F5F5F5F5F5F5F5F5F5F5F5F5F5F5F5F5F5F5F5F5F5F5
310
F5F5F5F5F5F5F5F5F5F5F5F5F5F5F5F5F5F5F5F5F5F5F5F5F5F5F5F5F5F5F5F5F5F5F5F5F5F5E2F5E2F5F5F5F5F5E2E2F5F5F5E2F5F5F5F5F5F5E2F5F5F5F5F5F5F5F5F5F5F5F5F5F5F5F5F5F5F5F5F5F5F5F5F5F5F5F5F5F5F5F5F5F5F5F5F5F5F5F5F5F5F5F5F5F5F5F5F5F5F5F5F5F5F5F5F5F5F5F5F5F5F5F5F5F5F5F5
310
F5F5F5F5F5F5F5F5F5F5F5F5F5F5F5F5F5F5F5F5F5F5F5F5F5F5F5F5F5F5F5F5F5F5F5F5F5F5F5F5F5F5F5F5F5F5F5F5F5F5F5F5F5F5F5F5F5F5F5F5F5F5F5F5F5F5F5F5F5F5F5F5F5F5F5F5F5F5F5F5F5F5F5F5F5F5F5F5F5F5F5E2F5E2F5E2F5F5F5E2E2F5F5F5E2F5F5F5F5F5F5E2F5F5F5F5F5F5F5F5F5F5F5F5F5F5F5
310
F5F5F5F5F5F5F5F5F5F5F5F5F5F5F5F5F5F5F5F5F5F5F5F5F5F5F5F5F5F5F5F5F5F5F5F5F5F5F5F5F5F5F5F5F5F5F5F5F5F5F5F5F5F5F5F5F5F5F5F5F5F5F5F5F5F5F5F5F5F5F5F5F5F5F5F5F5F5F5F5F5F5F5F5F5F5F5F5F5F5F5F5F5F5F5F5F5F5F5F5F5F5F5F5F5F5F5F5F5F5F5F5F5F5F5F5F5F5F5F5F5F5F5F5F5F5F5
310
F5F5F5F5F5F5F5F5F5F5F5F5F5F5F5F5F5E2F5E2F5E2F5F5F5E2E2F5F5F5E2F5F5F5F5F5F5E2F5F5F5F5F5F5F5F5F5F5F5F5F5F5F5F5F5F5F5F5F5F5F5F5F5F5F5F5F5F5F5F5F5F5F5F5F5F5F5F5F5F5F5F5F5F5F5F5F5F5F5F5F5F5F5F5F5F5F5F5F5F5F5F5F5F5F5F5F5F5F5F5F5F5F5F5F5F5F5F5F5F5F5F5F5F5F5F5F5
310
F5F5F5F5F5F5F5F5F5F5F5F5F5F5F5F5F5F5F5F5F5F5F5F5F5F5F5F5F5F5F5F5F5F5F5F5F5F5F5F5F5F5F5F5F5F5F5F5F5F5F5F5F5F5F5F5F5F5F5F5F5F5F5F5F5F5F5F5F5F5E2F5E2F5E2F5F5F5E2E2F5F5F5E2F5F5F5F5F5F5E2F5F5F5F5F5F5F5F5F5F5F5F5F5F5F5F5F5F5F5F5F5F5F5F5F5F5F5F5F5F5F5F5F5F5F5F5
310
F5F5F5F5F5F5F5F5F5F5F5F5F5F5F5F5F5F5F5F5F5F5F5F5F5F5F5F5F5F5F5F5F5F5F5F5F5F5F5F5F5F5F5F5F5F5F5F5F5F5F5F5F5F5F5F5F5F5F5F5F5F5F5F5F5F5F5F5F5F5F5F5F5F5F5F5F5F5F5F5F5F5F5F5F5F5F5F5F5F5F5F5F5F5F5F5F5F5F5F5F5F5F5F5F5F5F5F5F5F5F5F5F5F5F5F5F5F5F5F5F5F5F5E2F5E2F5
310
E2F5F5F5E2E2F5F5F5E2F5F5F5F5F5F5E2F5F5F5F5F5F5F5F5F5F5F5F5F5F5F5F5F5F5F5F5F5F5F5F5F5F5F5F5F5F5F5F5F5F5F5F5F5F5F5F5F5F5F5F5F5F5F5F5F5F5F5F5F5F5F5F5F5F5F5F5F5F5F5F5F5F5F5F5F5F5F5F5F5F5F5F5F5F5F5F5F5F5F5F5F5F5F5F5F5F5F5F5F5F5F5F5F5F5F5F5F5F5F5F5F5F5F5F5F5F5
310
F5F5F5F5F5F5F5F5F5F5F5F5F5F5F5F5F5F5F5F5F5F5F5F5F5F5F5F5F5F5F5F5F5F5F5F5F5F5F5F5F5F5F5F5F5F5F5F5F5E2F5E2F5E2F5F5F5E2E2F5F5F5E2F5F5F5F5F5F5E2E2E2E2E2E2E2E2E2E2E2E2E2E2E2E2E2E2E2E2E2E2E2E2E2E2E2E2E2E2E2E2E2E2E2E2E2E2E2E2E2E2E2E2E2E2E2E2E2E2E2E2E2E2E2E2E2E2
310
E2E2E2E2E2E2E2E2E2E2E2E2E2E2E2E2E2E2E2E2E2E2E2E2E2E2E2E2E2E2E2E2E2E2E2E2E2E2E2E2E2E2E2E2E2E2E2E2E2E2E2E2E2E2E2E2E2E2E2E2E2E2E2E2E2E2E2E2E2E2E2E2E2E2E2E2E2E2E2E2E2E2E2E2E2E2E2E2E2E2E2E2E2E2E2E2E2E2E2E2E2E2E2F5E2F5E2F5F5F5E2E2F5F5F5E2F5F5F5F5F5F5F5F5F5F5F5
310
F5F5F5F5F5F5F5F5F5F5F5F5F5F5F5F5F5F5F5F5F5F5F5F5F5F5F5F5F5F5F5F5F5F5F5F5F5F5F5F5F5F5F5F5F5F5F5F5F5F5F5F5F5F5F5F5F5F5F5F5F5F5F5F5F5F5F5F5F5F5F5F5F5F5F5F5F5F5F5F5F5F5F5F5F5F5F5F5F5F5F5F5F5F5F5F5F5F5F5F5F5F5F5F5F5F5F5F5F5F5F5F5F5F5F5F5F5F5F5F5F5F5F5F5F5F5F5
310
F5F5F5F5F5F5F5F5F5F5F5F5F5F5F5F5F5F5F5F5F5F5F5F5F5F5F5F5F5F5E2F5E2F5F5F5E2E2F5F5F5E2E2E2E2E2E2E2E2E2E2E2E2E2E2E2E2E2E2E2E2E2E2E2E2E2E2E2E2E2E2E2E2E2E2E2E2E2E2E2E2E2E2E2E2E2E2E2E2E2E2E2E2E2E2E2E2E2E2E2E2E2E2E2E2E2E2E2E2E2E2E2E2E2E2E2E2E2E2E2E2E2E2E2E2E2E2
310
E2E2E2E2E2E2E2E2E2E2E2E2E2E2E2E2E2E2E2E2E2E2E2E2E2E2E2E2E2E2E2E2E2E2E2E2E2E2E2E2E2E2E2E2E2E2E2E2E2E2E2E2E2E2E2E2E2E2E2E2E2E2E2E2E2E2E2E2E2E2E2E2E2E2E2E2E2E2E2E2E2E2E2E2E2E2F5F5F5E2E2F5F5F5F5F5F5F5F5F5F5F5F5F5F5F5F5F5F5F5F5F5F5F5F5F5F5F5F5F5F5F5F5F5F5F5F5
310
F5F5F5F5F5F5F5F5F5F5F5F5F5F5F5F5F5F5F5F5F5F5F5F5F5F5F5F5F5F5F5F5F5F5F5F5F5F5F5F5F5F5F5F5F5F5F5F5F5F5F5F5F5F5F5F5F5F5F5F5F5F5F5F5F5F5F5F5F5F5F5F5F5F5F5F5F5F5F5F5F5F5F5F5F5F5F5F5F5F5F5F5F5F5F5F5F5F5F5F5F5F5F5F5F5F5F5F5F5F5F5F5F5F5F5F5F5F5F5F5F5F5F5F5F5F5F5
310
F5F5F5F5F5F5F5F5F5F5F5F5F5F5F5E2E2F5F5F5F5F5F5F5F5F5F5F5F5F5F5F5F5F5F5F5F5F5F5F5F5F5F5F5F5F5F5F5F5F5F5F5F5F5F5F5F5F5F5F5F5F5F5F5F5F5F5F5F5F5F5F5F5F5F5F5F5F5F5F5F5F5F5F5F5F5F5F5F5F5F5F5F5F5F5F5F5F5F5F5F5F5F5F5F5F5F5F5F5F5F5F5F5F5F5F5F5F5F5F5F5F5F5F5F5F5F5
310
F5F5F5F5F5F5F5F5F5F5F5F5F5F5F5F5F5F5F5F5F5F5F5F5F5F5F5F5F5F5F5F5F5F5F5F5F5F5F5F5F5F5F5F5F5F5F5F5F5F5F5F5F5F5F5F5F5F5F5F5F5F5F5F5F5F5F5F5E2E2F5F5F5F5F5F5F5F5F5F5F5F5F5F5F5F5F5F5F5F5F5F5F5F5F5F5F5F5F5F5F5F5F5F5F5F5F5F5F5F5F5F5F5F5F5F5F5F5F5F5F5F5F5F5F5F5F5
310
F5F5F5F5F5F5F5F5F5F5F5F5F5F5F5F5F5F5F5F5F5F5F5F5F5F5F5F5F5F5F5F5F5F5F5F5F5F5F5F5F5F5F5F5F5F5F5F5F5F5F5F5F5F5F5F5F5F5F5F5F5F5F5F5F5F5F5F5F5F5F5F5F5F5F5F5F5F5F5F5F5F5F5F5F5F5F5F5F5F5F5F5F5F5F5F5F5F5F5F5F5F5F5F5F5F5F5F5F5F5F5F5F5F5F5F5F5F5F5F5F5E2E2E2E2E2E2
310
E2E2E2E2E2E2E2E2E2E2E2E2E2E2E2E2E2E2E2E2E2E2E2E2E2E2E2E2E2E2E2E2E2E2E2E2E2E2E2E2E2E2E2E2E2E2E2E2E2E2E2E2E2E2E2E2E2E2E2E2E2E2E2E2E2E2E2E2E2E2E2E2E2E2E2E2E2E2E2E2E2E2E2E2E2E2E2E2E2E2E2E2E2E2E2E2E2E2E2E2E2E2E2E2E2E2E2E2E2E2E2E2E2E2E2E2E2E2E2E2E2E2E2E2E2E2E2
310
E2E2E2E2E2E2E2E2E2E2E2E2E2E2E2E2E2E2E2E2E2E2E2E2E2E2E2E2E2E2E2E2E2E2E2E2E2E2E2E2E2E2E2E2E2E2E2E2
  0
ENDSEC
  0
EOF
